osu file format v14

[General]
AudioFilename: audio.mp3
AudioLeadIn: 0
PreviewTime: 0
Countdown: 0
SampleSet: Soft
StackLeniency: 0.7
Mode: 0
LetterboxInBreaks: 0
WidescreenStoryboard: 1

[Editor]
DistanceSpacing: 1
BeatDivisor: 4
GridSize: 32
TimelineZoom: 2.5

[Metadata]
Title:Jin Li Chao
TitleUnicode:锦鲤抄
Artist:Ling Yuan yousa
ArtistUnicode:泠鸢yousa
Creator:AIR
Version:Advanced
Source:
Tags:银临 冷鸟 桜の花が舞い落ちるとき
BeatmapID:1450239
BeatmapSetID:684393

[Difficulty]
HPDrainRate:2
CircleSize:3
OverallDifficulty:4
ApproachRate:6
SliderMultiplier:1.3
SliderTickRate:1

[Events]
//Background and Video events
0,0,"64627052_p0.jpg",0,0
//Break Periods
2,105604,116697
//Storyboard Layer 0 (Background)
//Storyboard Layer 1 (Fail)
//Storyboard Layer 2 (Pass)
//Storyboard Layer 3 (Foreground)
//Storyboard Sound Samples

[TimingPoints]
490,342.857142857143,3,2,1,50,1,0
490,-125,3,2,1,50,0,0
16947,-83.3333333333333,3,1,1,70,0,0
33404,-125,3,2,1,50,0,0
49861,-100,3,2,1,70,0,0
66318,-125,3,2,1,50,0,0
68375,-83.3333333333333,3,1,1,70,0,1
105404,-100,3,1,1,70,0,0
121861,-125,3,2,1,50,0,0
138318,-100,3,2,1,70,0,0
154775,-100,3,2,1,50,0,0
156832,-83.3333333333333,3,1,1,70,0,1
193861,-125,3,2,1,50,0,0
202090,-100,3,1,1,70,0,0
210318,-83.3333333333333,3,1,1,70,0,1
230890,-125,3,2,1,50,0,0

[Colours]
Combo1 : 255,255,96
Combo2 : 83,83,83
Combo3 : 255,68,68
Combo4 : 0,217,108
Combo5 : 83,83,255

[HitObjects]
324,123,490,6,0,P|397:165|399:250,1,156,4|2,0:0|0:0,0:0:0:0:
280,323,1518,2,0,L|72:331,1,208,2|2,0:0|0:0,0:0:0:0:
52,228,2547,6,0,B|114:181|114:181|174:237,1,156,0|2,0:0|0:0,0:0:0:0:
211,86,3575,2,0,P|168:59|14:86,1,208,2|2,0:0|0:0,0:0:0:0:
112,129,4604,6,0,P|178:166|264:153,1,156,0|2,0:0|0:0,0:0:0:0:
393,85,5632,2,0,B|439:49|492:84|492:84|530:142|472:192,1,208,2|2,0:0|0:0,0:0:0:0:
393,222,6661,6,0,P|379:273|417:372,1,156,0|2,0:0|0:0,0:0:0:0:
275,292,7690,2,0,B|230:248|160:274|160:274|146:326|86:337,1,208,2|0,0:0|0:0,0:0:0:0:
53,321,8547,1,2,0:0:0:0:
13,287,8718,6,0,P|7:230|42:189,1,104,4|0,0:0|0:0,0:0:0:0:
81,175,9232,2,0,B|132:185|162:152|162:152|133:116|138:73,1,156,2|2,0:0|0:0,0:0:0:0:
228,39,10090,2,0,P|263:64|246:138,1,104,0|2,0:0|0:0,0:0:0:0:
225,218,10775,6,0,L|346:206,1,104,0|0,0:0|0:0,0:0:0:0:
380,201,11290,2,0,B|413:224|459:221|459:221|431:269|450:307,1,156,2|2,0:0|0:0,0:0:0:0:
345,323,12147,2,0,L|227:328,1,104,0|2,0:0|0:0,0:0:0:0:
141,296,12832,6,0,P|54:277|22:290,1,104,0|0,0:0|0:0,0:0:0:0:
7,319,13347,2,0,P|39:286|76:168,1,156,2|2,0:0|0:0,0:0:0:0:
50,83,14204,1,0,0:0:0:0:
150,108,14547,2,0,L|218:114,1,52,0|2,0:0|0:0,0:0:0:0:
256,192,14890,12,8,15918,0:3:0:0:
431,208,16947,6,0,P|393:168|217:169,1,233.999992858887,4|2,0:0|0:0,0:0:0:0:
172,221,17632,2,0,P|157:272|166:307,1,77.999997619629,0|0,0:0|0:0,0:0:0:0:
217,349,17975,2,0,P|214:302|57:188,1,233.999992858887,2|2,0:3|0:0,0:0:0:0:
4,195,18661,1,0,0:0:0:0:
75,56,19004,6,0,B|141:18|226:52|226:52|272:98|279:146,1,233.999992858887,8|2,0:3|0:0,0:0:0:0:
283,191,19690,1,0,0:0:0:0:
269,346,20032,1,8,0:0:0:0:
424,360,20375,2,0,P|455:313|414:210,1,155.999995239258,0|8,0:0|0:0,0:0:0:0:
306,126,21061,6,0,P|313:72|475:56,1,233.999992858887,4|2,0:3|0:0,0:0:0:0:
490,115,21747,1,0,0:0:0:0:
351,186,22090,2,0,P|309:202|148:122,1,233.999992858887,2|2,0:3|0:0,0:0:0:0:
129,51,22775,1,0,0:0:0:0:
28,170,23118,6,0,P|19:250|123:352,2,233.999992858887,8|4|2,0:3|0:3|0:3,0:0:0:0:
153,264,24490,2,0,P|226:274|265:266,1,77.999997619629,0|2,0:0|0:0,0:0:0:0:
306,261,24832,2,0,P|359:233|377:209,1,77.999997619629,8|2,0:0|0:0,0:0:0:0:
428,168,25175,6,0,B|470:125|468:47|468:47|398:16|335:46,1,233.999992858887,4|2,0:0|0:0,0:0:0:0:
292,56,25861,2,0,P|257:90|257:137,1,77.999997619629,0|0,0:0|0:0,0:0:0:0:
316,162,26204,2,0,P|303:126|110:63,1,233.999992858887,2|0,0:3|0:0,0:0:0:0:
64,81,26890,1,0,0:0:0:0:
17,229,27232,6,0,P|81:211|227:301,1,233.999992858887,8|2,0:3|0:0,0:0:0:0:
222,365,27918,1,0,0:0:0:0:
366,305,28261,1,2,0:3:0:0:
496,219,28604,2,0,P|453:175|428:68,1,155.999995239258,0|8,0:0|0:0,0:0:0:0:
461,15,29118,1,2,0:0:0:0:
500,82,29290,6,0,P|468:130|280:157,1,233.999992858887,4|2,0:3|0:0,0:0:0:0:
235,135,29975,1,0,0:0:0:0:
121,27,30318,2,0,P|61:71|48:244,1,233.999992858887,2|0,0:3|0:0,0:0:0:0:
69,291,31004,2,0,P|114:267|166:273,1,77.999997619629,0|2,0:0|0:0,0:0:0:0:
214,289,31347,6,0,B|263:321|277:368|277:368|319:310|400:297,2,233.999992858887,8|4|2,0:3|0:3|0:3,0:0:0:0:
205,133,32718,2,0,P|182:188|169:208,1,77.999997619629,0|0,2:0|2:0,0:0:0:0:
112,152,33061,2,0,P|97:187|64:215,1,77.999997619629,0|0,2:0|2:0,0:0:0:0:
46,260,33404,6,0,P|84:295|235:280,1,208,4|2,0:0|0:0,0:0:0:0:
291,195,34432,1,8,0:0:0:0:
377,252,34775,2,0,B|407:302|462:300|462:300|499:275|508:245,1,156,0|2,0:0|0:0,0:0:0:0:
512,212,35461,6,0,B|521:140|446:116|446:116|396:124|381:168,1,208,8|2,0:0|0:0,0:0:0:0:
291,195,36490,2,0,P|188:168|167:60,1,208,8|8,0:0|0:0,0:0:0:0:
68,32,37518,6,0,P|45:91|85:232,1,208,8|2,0:0|0:0,0:0:0:0:
165,286,38547,2,0,B|218:280|257:333|257:333|286:267|345:260,1,208,8|8,0:0|0:0,0:0:0:0:
427,248,39575,6,0,B|495:279|463:354|463:354|412:377|375:339,1,208,8|10,0:0|0:0,0:0:0:0:
325,265,40604,2,0,P|312:214|381:82,1,208,8|8,0:0|0:0,0:0:0:0:
472,35,41632,6,0,B|542:97|493:181|493:181|426:174,1,208,8|2,0:0|0:0,0:0:0:0:
344,165,42661,1,8,0:0:0:0:
252,115,43004,2,0,P|210:86|102:84,1,156,8|2,0:0|0:0,0:0:0:0:
63,109,43690,6,0,B|22:161|44:220|44:220|99:197|154:215,1,208,8|2,0:0|0:0,0:0:0:0:
181,301,44718,2,0,B|205:335|195:375|195:375|260:328|337:361,1,208,8|8,0:0|0:0,0:0:0:0:
421,372,45747,5,8,0:0:0:0:
486,67,46775,2,0,P|389:75|337:175,1,208,8|8,0:0|0:0,0:0:0:0:
441,164,47804,6,0,B|412:59|301:69|301:69|243:88|234:120,1,260,8|0,0:0|0:0,0:0:0:0:
204,144,48832,2,0,P|165:174|16:120,1,208,8|8,0:0|0:0,0:0:0:0:
12,265,49861,6,0,B|51:336|149:317|149:317|186:260|262:276,1,260,4|2,0:0|0:0,0:0:0:0:
354,322,50890,1,8,0:0:0:0:
482,302,51232,2,0,B|487:343|447:372|447:372|366:374|344:296,1,195,8|2,0:0|0:0,0:0:0:0:
340,259,51918,2,0,B|316:195|391:142|391:142|478:163|485:235,1,260,8|2,0:0|0:0,0:0:0:0:
501,85,52947,2,0,B|474:22|366:20|366:20|332:69|255:60,1,260,8|8,0:0|0:0,0:0:0:0:
148,48,53975,6,0,B|74:57|9:22|9:22|34:95|10:157,1,260,8|2,0:0|0:0,0:0:0:0:
17,265,55004,2,0,B|48:313|44:367|44:367|119:314|212:337,1,260,8|0,0:0|0:0,0:0:0:0:
316,308,56032,2,0,B|373:253|441:289|441:289|454:334|428:366,1,195,8|0,0:0|0:0,0:0:0:0:
381,376,56718,1,10,0:0:0:0:
259,330,57061,2,0,B|158:267|234:147|234:147|294:164,1,260,8|8,0:0|0:0,0:0:0:0:
401,208,58090,6,0,B|449:223|449:223|552:109|426:28,1,260,8|2,0:0|0:0,0:0:0:0:
317,27,59118,1,8,0:0:0:0:
191,59,59461,2,0,B|144:87|93:47|93:47|32:33|0:98,1,195,8|2,0:0|0:0,0:0:0:0:
2,139,60147,2,0,B|28:190|83:185|83:185|4:266|45:356,1,260,8|2,0:0|0:0,0:0:0:0:
165,339,61175,2,0,B|179:258|261:260|261:260|320:316|391:284,1,260,8|8,0:0|0:0,0:0:0:0:
469,203,62204,6,0,B|490:255|446:293|446:293|345:262|370:173,1,260,8|2,0:0|0:0,0:0:0:0:
487,118,63232,2,0,P|485:75|403:15,1,130,8|0,0:0|0:0,0:0:0:0:
295,36,63918,1,8,0:0:0:0:
165,25,64261,2,0,B|-20:40|30:237|30:237|99:240|122:184,1,390,8|8,0:0|0:0,0:0:0:0:
361,140,65975,2,0,P|385:172|389:205,1,65,2|8,0:0|0:0,0:0:0:0:
256,192,66318,12,4,67347,0:3:0:0:
213,248,68375,6,0,B|129:242|39:300|39:300|65:228|30:163,1,311.999990478516,4|0,0:0|0:0,0:0:0:0:
141,60,69404,2,0,B|214:4|298:43|298:43|368:108|325:207,1,311.999990478516,2|0,0:3|0:0,0:0:0:0:
291,324,70432,2,0,B|334:390|433:374|433:374|478:329|474:293,1,233.999992858887,8|4,0:3|0:3,0:0:0:0:
487,236,71118,1,0,0:0:0:0:
445,85,71461,2,0,B|361:47|304:116|304:116|216:161|153:92,1,311.999990478516,2|0,0:3|0:0,0:0:0:0:
30,14,72490,6,0,B|94:79|61:174|61:174|105:177|131:209,1,233.999992858887,4|0,0:3|0:0,0:0:0:0:
166,255,73175,1,0,0:0:0:0:
44,353,73518,2,0,P|111:333|209:358,1,155.999995239258,2|8,0:3|0:0,0:0:0:0:
268,371,74032,2,0,P|318:373|365:350,1,77.999997619629,0|0,0:0|0:0,0:0:0:0:
479,286,74547,2,0,B|497:240|497:240|443:141|443:141|478:55,2,233.999992858887,8|4|2,0:3|0:3|0:3,0:0:0:0:
342,362,75918,2,0,B|302:275|302:275|326:219,1,155.999995239258,8|0,0:0|0:0,0:0:0:0:
263,76,76604,6,0,B|201:173|98:145|98:145|23:93|57:11,1,311.999990478516,4|0,0:2|0:0,0:0:0:0:
200,14,77632,2,0,P|216:67|446:78,1,311.999990478516,2|0,0:3|0:0,0:0:0:0:
495,237,78661,2,0,B|446:308|330:295|330:295|281:270|265:244,1,233.999992858887,8|4,0:3|0:3,0:0:0:0:
216,212,79347,1,0,0:0:0:0:
73,246,79690,2,0,B|79:300|47:375|47:375|143:330|246:380,1,311.999990478516,2|0,0:3|0:0,0:0:0:0:
216,212,80718,6,0,B|273:180|268:96|268:96|195:116|147:71,1,233.999992858887,4|0,0:3|0:0,0:0:0:0:
93,86,81404,1,8,0:0:0:0:
227,6,81747,1,2,0:3:0:0:
379,40,82090,1,0,0:0:0:0:
495,143,82432,2,0,L|506:236,1,77.999997619629,8|2,0:0|0:0,0:0:0:0:
464,288,82775,6,0,P|335:256|371:178,2,233.999992858887,8|4|2,0:3|0:3|0:3,0:0:0:0:
413,139,84147,2,0,P|441:95|427:42,1,77.999997619629,0|0,0:0|0:0,0:0:0:0:
382,18,84490,2,0,P|341:53|290:49,1,77.999997619629,0|2,0:0|0:0,0:0:0:0:
241,62,84832,6,0,P|131:28|35:120,1,233.999992858887,4|0,0:0|0:0,0:0:0:0:
20,169,85518,1,0,0:0:0:0:
66,318,85861,2,0,L|252:306,1,155.999995239258,2|8,0:3|0:0,0:0:0:0:
299,301,86375,2,0,P|361:324|379:358,1,77.999997619629,0|0,0:0|0:0,0:0:0:0:
350,175,86890,2,0,B|401:188|450:239|450:239|459:168|502:111,1,233.999992858887,4|2,0:3|0:0,0:0:0:0:
500,55,87575,1,0,0:0:0:0:
348,19,87918,2,0,P|304:46|277:235,1,233.999992858887,2|2,0:3|0:0,0:0:0:0:
307,278,88604,2,0,P|332:323|319:377,1,77.999997619629,0|8,0:0|0:0,0:0:0:0:
253,338,88947,6,0,B|174:331|98:366|98:366|106:319|76:275,1,233.999992858887,8|2,0:3|0:0,0:0:0:0:
29,241,89632,1,0,0:0:0:0:
14,85,89975,2,0,P|55:69|183:95,1,155.999995239258,2|0,0:3|0:0,0:0:0:0:
223,133,90490,2,0,P|270:164|320:165,1,77.999997619629,2|8,0:0|0:3,0:0:0:0:
445,153,91004,2,0,P|474:112|346:42,1,233.999992858887,4|2,0:3|0:0,0:0:0:0:
298,78,91690,1,0,0:0:0:0:
378,211,92032,2,0,B|458:255|441:352|441:352|390:362|350:341,1,233.999992858887,2|2,0:3|0:3,0:0:0:0:
299,326,92718,2,0,P|250:282|242:237,1,77.999997619629,8|8,0:0|0:0,0:0:0:0:
213,201,93061,6,0,B|176:163|171:97|171:97|119:154|56:157,1,233.999992858887,4|2,0:0|0:0,0:0:0:0:
16,98,93747,1,0,0:0:0:0:
22,253,94090,2,0,P|68:273|123:377,1,155.999995239258,2|0,0:3|0:0,0:0:0:0:
196,336,94604,2,0,P|225:272|223:240,1,77.999997619629,0|8,0:0|0:0,0:0:0:0:
335,154,95118,2,0,P|385:184|435:355,1,233.999992858887,8|2,0:3|0:0,0:0:0:0:
361,326,95804,1,0,0:0:0:0:
487,234,96147,2,0,P|492:180|399:24,1,233.999992858887,2|8,0:3|0:0,0:0:0:0:
329,23,96832,1,0,0:0:0:0:
173,31,97175,5,4,0:2:0:0:
183,186,97518,2,0,P|205:229|200:269,1,77.999997619629,8|2,0:0|0:0,0:0:0:0:
143,307,97861,2,0,P|90:276|78:170,1,155.999995239258,0|2,0:0|0:3,0:0:0:0:
204,107,98547,2,0,L|361:117,1,155.999995239258,0|8,0:0|0:3,0:0:0:0:
424,161,99061,1,8,0:0:0:0:
396,233,99232,6,0,B|347:267|366:329|366:329|394:347|426:344,1,155.999995239258,4|8,0:2|0:0,0:0:0:0:
488,335,99747,2,0,P|506:281|483:235,1,77.999997619629,0|0,0:0|0:0,0:0:0:0:
508,106,100261,2,0,B|449:108|426:161|426:161|389:137|342:143,1,155.999995239258,2|0,0:3|0:0,0:0:0:0:
300,142,100775,2,0,P|241:160|217:180,1,77.999997619629,2|0,0:0|0:0,0:0:0:0:
121,283,101290,6,0,B|106:323|57:331|57:331|26:298|39:241,1,155.999995239258,4|0,0:2|0:0,0:0:0:0:
40,186,101804,2,0,L|128:189,1,77.999997619629,0|8,0:0|0:0,0:0:0:0:
176,44,102318,2,0,P|125:24|5:53,2,155.999995239258,2|0|0,0:3|0:0|0:0,0:0:0:0:
239,89,103175,1,8,0:0:0:0:
315,104,103347,6,0,B|399:149|472:102|472:102|472:40|430:24,2,233.999992858887,8|4|2,0:3|0:3|0:3,0:0:0:0:
245,243,104718,2,0,P|227:300|239:331,1,77.999997619629,0|0,0:0|0:0,0:0:0:0:
305,340,105061,2,0,P|342:306|396:302,1,77.999997619629,0|0,0:0|0:0,0:0:0:0:
432,304,105404,1,4,0:0:0:0:
415,120,117747,6,0,P|356:211|415:282,1,195,4|2,0:3|0:0,0:0:0:0:
459,290,118432,1,0,0:0:0:0:
336,334,118775,2,0,B|279:291|216:338|216:338|153:391|91:351,1,260,2|0,0:3|0:0,0:0:0:0:
42,318,119632,1,2,0:0:0:0:
25,254,119804,2,0,B|49:191|124:204|124:204|160:241|138:295,2,195,8|4|2,0:3|0:3|0:3,0:0:0:0:
252,18,121861,6,0,P|213:91|294:193,1,208,4|2,0:0|0:0,0:0:0:0:
375,161,122890,1,8,0:0:0:0:
462,216,123232,2,0,B|512:251|487:317|487:317|455:317|436:327,1,156,0|2,0:0|0:0,0:0:0:0:
396,340,123918,6,0,B|356:366|300:356|300:356|262:302|299:237,1,208,8|2,0:0|0:0,0:0:0:0:
186,253,124947,2,0,B|192:328|134:357|134:357|72:349|63:301,1,208,8|8,0:0|0:0,0:0:0:0:
7,228,125975,6,0,B|85:243|136:185|136:185|154:137|139:102,1,208,8|2,0:0|0:0,0:0:0:0:
111,22,127004,1,8,0:0:0:0:
11,52,127347,2,0,P|5:95|51:148,1,104,0|8,0:0|0:0,0:0:0:0:
144,121,128032,6,0,P|192:95|300:115,1,156,8|0,0:0|0:0,0:0:0:0:
336,130,128718,2,0,P|384:153|450:142,1,104,2|8,0:0|0:0,0:0:0:0:
248,244,129747,1,8,0:0:0:0:
350,261,130090,6,0,B|438:263|450:348|450:348|422:373|378:371,1,208,8|2,0:0|0:0,0:0:0:0:
292,353,131118,1,8,0:0:0:0:
192,324,131461,2,0,P|162:313|34:339,1,156,0|2,0:0|0:0,0:0:0:0:
17,287,132147,6,0,B|35:232|108:193|108:193|68:166|61:132,1,208,8|2,0:0|0:0,0:0:0:0:
144,73,133175,2,0,P|183:91|253:90,1,104,8|0,0:0|0:0,0:0:0:0:
342,61,133861,1,8,0:0:0:0:
445,67,134204,6,0,P|478:91|474:252,1,208,8|2,0:0|0:0,0:0:0:0:
386,284,135232,2,0,P|361:268|359:192,1,104,8|0,0:0|0:0,0:0:0:0:
251,220,135918,1,8,0:0:0:0:
185,300,136261,6,0,P|147:324|35:279,1,156,8|0,0:0|0:0,0:0:0:0:
26,247,136947,1,2,0:0:0:0:
54,146,137290,2,0,P|84:123|215:210,1,208,8|0,0:0|0:0,0:0:0:0:
296,291,138318,6,0,B|335:357|414:344|414:344|486:308|483:231,1,260,4|2,0:0|0:0,0:0:0:0:
459,122,139347,1,8,0:0:0:0:
342,64,139690,2,0,B|300:84|283:121|283:121|264:53|193:37,1,195,8|2,0:0|0:0,0:0:0:0:
146,34,140375,6,0,P|96:44|63:227,1,260,8|2,0:0|0:0,0:0:0:0:
185,235,141404,2,0,B|212:182|155:132|155:132|69:135|52:242,1,260,8|8,0:0|0:0,0:0:0:0:
44,349,142432,6,0,B|109:315|165:362|165:362|263:368|276:288,1,260,8|2,0:0|0:0,0:0:0:0:
380,235,143461,2,0,B|469:253|474:355|474:355|420:342|374:382,1,260,8|8,0:0|0:0,0:0:0:0:
271,308,144490,6,0,P|234:240|279:129,1,195,8|0,0:0|0:0,0:0:0:0:
331,109,145175,1,2,0:0:0:0:
448,53,145518,2,0,B|526:111|482:225|482:225|446:200|405:198,1,260,8|8,0:0|0:0,0:0:0:0:
331,109,146547,6,0,P|287:80|86:105,1,260,8|2,0:0|0:0,0:0:0:0:
21,210,147575,1,8,0:0:0:0:
150,204,147918,2,0,B|223:196|256:269|256:269|205:285|190:326,1,195,8|2,0:0|0:0,0:0:0:0:
168,354,148604,6,0,B|149:298|79:310|79:310|-8:253|40:157,1,260,8|2,0:0|0:0,0:0:0:0:
115,83,149632,2,0,P|179:82|253:105,1,130,8|0,0:0|0:0,0:0:0:0:
361,48,150318,1,0,0:0:0:0:
363,178,150661,6,0,B|318:258|381:322|381:322|406:314|437:319,1,195,8|0,0:0|0:0,0:0:0:0:
481,330,151347,1,2,0:0:0:0:
479,199,151690,1,8,0:0:0:0:
414,86,152032,1,0,0:0:0:0:
295,32,152375,2,0,P|258:62|212:58,1,65,8|0,0:0|0:0,0:0:0:0:
177,68,152718,2,0,B|126:72|72:30|72:30|23:99|72:176,1,260,8|2,0:0|0:0,0:0:0:0:
157,260,153747,6,0,P|172:301|132:376,1,130,8|0,0:0|0:0,0:0:0:0:
20,312,154432,2,0,P|57:298|93:311,1,65,2|8,0:0|0:0,0:0:0:0:
256,192,154775,12,4,155804,0:3:0:0:
457,215,156832,6,0,B|516:273|467:344|467:344|396:372|356:324|356:324|314:335|286:297,1,311.999990478516,4|0,0:0|0:0,0:0:0:0:
161,270,157861,2,0,P|93:272|24:344,1,155.999995239258,2|0,0:3|0:0,0:0:0:0:
182,365,158547,1,8,0:0:0:0:
255,227,158890,2,0,B|215:155|129:158|129:158|154:113|132:60,1,233.999992858887,8|4,0:3|0:3,0:0:0:0:
184,15,159575,1,0,0:0:0:0:
333,60,159918,2,0,B|308:99|332:152|332:152|260:163|236:229|236:229|277:282|254:338,1,311.999990478516,2|0,0:3|0:0,0:0:0:0:
417,320,160947,6,0,P|500:268|458:131,1,233.999992858887,4|0,0:3|0:0,0:0:0:0:
415,104,161632,1,0,0:0:0:0:
352,247,161975,1,2,0:3:0:0:
234,144,162318,1,8,0:0:0:0:
142,270,162661,2,0,P|92:288|50:282,1,77.999997619629,0|2,0:0|0:0,0:0:0:0:
6,238,163004,2,0,B|18:178|18:178|123:149|123:149|191:214,2,233.999992858887,8|4|2,0:3|0:3|0:3,0:0:0:0:
157,276,164375,2,0,B|215:328|215:328|302:307,1,155.999995239258,4|8,0:3|0:0,0:0:0:0:
436,252,165061,6,0,B|468:284|443:344|443:344|309:331|346:185,1,311.999990478516,4|0,0:2|0:0,0:0:0:0:
431,63,166090,2,0,P|475:82|445:183,1,155.999995239258,2|8,0:3|0:0,0:0:0:0:
337,82,166775,1,0,0:0:0:0:
233,198,167118,2,0,P|169:222|42:127,1,233.999992858887,8|4,0:3|0:3,0:0:0:0:
26,58,167804,1,0,0:0:0:0:
174,107,168147,2,0,B|102:167|112:242|112:242|139:342|248:346,1,311.999990478516,2|0,0:3|0:0,0:0:0:0:
363,284,169175,6,0,B|425:254|498:308|498:308|484:364|428:367,1,233.999992858887,4|2,0:3|0:0,0:0:0:0:
359,371,169861,1,0,0:0:0:0:
271,241,170204,1,2,0:3:0:0:
296,87,170547,1,8,0:0:0:0:
432,11,170890,2,0,P|478:20|497:77,1,77.999997619629,0|2,0:0|0:0,0:0:0:0:
469,116,171232,6,0,B|430:160|435:212|435:212|377:167|297:196,2,233.999992858887,8|4|2,0:3|0:3|0:3,0:0:0:0:
494,270,172604,2,0,P|493:323|463:369,1,77.999997619629,0|8,0:0|0:0,0:0:0:0:
406,361,172947,2,0,P|388:317|340:280,1,77.999997619629,0|8,0:0|0:0,0:0:0:0:
292,270,173290,6,0,B|187:270|158:360|158:360|132:329|96:323,1,233.999992858887,4|2,0:0|0:0,0:0:0:0:
33,318,173975,1,8,0:0:0:0:
13,163,174318,2,0,P|84:126|166:170,1,155.999995239258,2|0,0:3|0:0,0:0:0:0:
210,201,174832,2,0,P|222:151|252:117,1,77.999997619629,0|8,0:0|0:0,0:0:0:0:
369,46,175347,2,0,P|476:82|520:208,1,233.999992858887,8|0,0:3|0:0,0:0:0:0:
498,261,176032,1,8,0:0:0:0:
363,181,176375,2,0,B|305:202|283:284|283:284|327:342|383:338,1,233.999992858887,2|2,0:3|0:0,0:0:0:0:
437,314,177061,2,0,P|437:265|414:224,1,77.999997619629,0|8,0:0|0:0,0:0:0:0:
363,181,177404,6,0,B|268:157|210:227|210:227|163:225|148:180,1,233.999992858887,4|0,0:3|0:0,0:0:0:0:
126,124,178090,1,8,0:0:0:0:
31,247,178432,2,0,P|12:304|82:362,1,155.999995239258,2|0,0:3|0:0,0:0:0:0:
151,338,178947,2,0,P|201:323|239:325,1,77.999997619629,0|8,0:0|0:0,0:0:0:0:
382,333,179461,2,0,B|444:336|484:370|484:370|469:296|500:217,1,233.999992858887,8|2,0:3|0:0,0:0:0:0:
504,171,180147,1,0,0:0:0:0:
487,15,180490,2,0,B|434:43|354:33|354:33|379:82|379:136,1,233.999992858887,2|2,0:3|0:0,0:0:0:0:
339,193,181175,2,0,P|272:209|235:191,1,77.999997619629,8|8,0:3|0:0,0:0:0:0:
188,192,181518,6,0,B|146:147|159:59|159:59|101:81|45:67,1,233.999992858887,4|2,0:0|0:0,0:0:0:0:
7,21,182204,1,8,0:0:0:0:
32,175,182547,2,0,P|1:251|43:333,1,155.999995239258,2|0,0:3|0:0,0:0:0:0:
103,314,183061,2,0,P|141:270|185:258,1,77.999997619629,0|8,0:0|0:0,0:0:0:0:
312,242,183575,2,0,B|424:236|454:323|454:323|425:355|380:359,1,233.999992858887,4|2,0:3|0:0,0:0:0:0:
332,329,184261,1,8,0:0:0:0:
435,212,184604,2,0,P|472:171|462:66,1,155.999995239258,2|0,0:3|0:0,0:0:0:0:
404,28,185118,2,0,P|361:63|357:97,1,77.999997619629,0|8,0:0|0:0,0:0:0:0:
222,163,185632,6,0,P|140:181|52:137,1,155.999995239258,4|0,0:2|0:0,0:0:0:0:
26,94,186147,1,8,0:0:0:0:
78,36,186318,2,0,P|154:21|154:97,1,155.999995239258,0|2,0:0|0:3,0:0:0:0:
100,224,187004,2,0,P|68:290|74:315,1,77.999997619629,0|2,0:0|0:0,0:0:0:0:
108,358,187347,2,0,P|142:323|175:318,1,77.999997619629,8|8,0:3|0:0,0:0:0:0:
247,324,187690,6,0,B|290:329|316:363|316:363|357:285|454:265,1,233.999992858887,4|0,0:2|0:0,0:0:0:0:
509,268,188375,1,0,0:0:0:0:
375,187,188718,2,0,P|306:113|397:31,1,233.999992858887,2|2,0:3|0:0,0:0:0:0:
458,41,189404,1,0,0:0:0:0:
459,197,189747,5,4,0:2:0:0:
304,215,190090,1,8,0:0:0:0:
210,90,190432,1,0,0:0:0:0:
56,119,190775,2,0,P|22:173|33:220,1,77.999997619629,2|0,0:3|0:0,0:0:0:0:
51,257,191118,2,0,B|106:279|155:244|155:244|172:208|166:176,1,155.999995239258,8|0,0:0|0:0,0:0:0:0:
316,152,191804,6,0,B|320:223|388:257|388:257|444:269|506:209,2,233.999992858887,8|4|2,0:3|0:3|0:3,0:0:0:0:
208,264,193175,2,0,P|183:312|151:333,1,77.999997619629,0|0,0:0|0:0,0:0:0:0:
89,347,193518,2,0,P|21:344|0:330,1,77.999997619629,0|0,0:0|0:0,0:0:0:0:
12,288,193861,6,0,P|15:233|159:193,1,208,12|0,0:0|0:0,0:0:0:0:
235,225,194890,2,0,P|276:253|382:242,1,156,8|2,0:0|0:0,0:0:0:0:
423,220,195575,1,8,0:0:0:0:
485,136,195918,6,0,P|446:77|355:57,1,156,8|2,0:0|0:0,0:0:0:0:
316,68,196604,2,0,P|273:108|260:166,1,104,0|2,0:0|0:3,0:0:0:0:
155,150,197290,2,0,P|134:115|67:76,1,104,8|8,0:0|0:0,0:0:0:0:
29,170,197975,6,0,P|4:237|99:339,1,208,8|0,0:0|0:0,0:0:0:0:
183,352,199004,2,0,P|238:336|284:240,1,156,8|0,0:0|0:0,0:0:0:0:
277,202,199690,1,8,0:0:0:0:
365,256,200032,6,0,P|407:269|501:216,1,156,8|4,0:3|0:3,0:0:0:0:
504,166,200718,1,0,0:0:0:0:
473,66,201061,2,0,L|365:78,1,104,2|0,0:3|0:0,0:0:0:0:
318,86,201575,2,0,P|278:77|263:65,1,52,8|4,0:3|0:3,0:0:0:0:
143,38,202090,6,0,P|135:115|35:191,1,195,4|2,0:0|0:0,0:0:0:0:
23,128,202775,1,0,0:0:0:0:
135,193,203118,2,0,P|159:237|170:342,1,130,2|8,0:3|0:0,0:0:0:0:
116,349,203632,2,0,P|85:318|83:276,1,65,2|0,0:0|0:0,0:0:0:0:
191,230,204147,6,0,P|252:240|356:333,1,195,0|2,0:0|0:0,0:0:0:0:
300,364,204832,1,0,0:0:0:0:
400,281,205175,2,0,P|435:247|510:207,1,130,2|8,0:3|0:0,0:0:0:0:
452,169,205690,2,0,P|429:133|419:85,1,65,2|0,0:0|0:0,0:0:0:0:
319,32,206204,6,0,P|276:81|141:83,1,195,0|2,0:0|0:0,0:0:0:0:
103,47,206890,1,0,0:0:0:0:
69,172,207232,2,0,P|132:194|210:301,1,195,2|2,0:3|0:0,0:0:0:0:
165,342,207918,1,0,0:0:0:0:
293,321,208261,6,0,B|301:275|345:237|345:237|396:214|443:221,2,195,8|4|2,0:3|0:3|0:3,0:0:0:0:
274,192,209632,2,0,P|259:129|265:112,1,65,0|2,0:0|0:3,0:0:0:0:
290,74,209975,2,0,P|333:55|363:55,1,65,0|0,2:0|2:0,0:0:0:0:
427,64,210318,6,0,P|475:92|510:275,1,233.999992858887,4|2,0:0|0:0,0:0:0:0:
492,327,211004,1,0,0:0:0:0:
337,306,211347,2,0,P|280:288|171:315,1,155.999995239258,2|0,0:3|0:0,0:0:0:0:
119,345,211861,2,0,P|77:332|27:348,1,77.999997619629
34,182,212375,2,0,P|119:182|185:54,1,233.999992858887,8|2,0:3|0:0,0:0:0:0:
112,39,213061,1,0,0:0:0:0:
267,23,213404,2,0,P|353:124|336:235,1,233.999992858887,2|2,0:3|0:0,0:0:0:0:
305,286,214090,2,0,P|309:328|344:349,1,77.999997619629
412,361,214432,6,0,P|463:359|447:214,1,233.999992858887,4|2,0:3|0:0,0:0:0:0:
439,142,215118,1,0,0:0:0:0:
322,38,215461,2,0,P|262:84|183:75,1,155.999995239258,2|0,0:3|0:0,0:0:0:0:
111,51,215975,2,0,P|60:48|20:84,1,77.999997619629,2|0,0:0|0:0,0:0:0:0:
20,216,216490,2,0,B|41:277|116:284|116:284|149:230|224:229,1,233.999992858887,8|2,0:3|0:0,0:0:0:0:
280,249,217175,2,0,P|312:280|324:322,1,77.999997619629,0|0,0:0|0:0,0:0:0:0:
277,374,217518,2,0,P|248:329|378:257,1,233.999992858887,2|2,0:3|0:0,0:0:0:0:
430,283,218204,1,0,0:0:0:0:
489,138,218547,6,0,P|459:79|297:47,1,233.999992858887,4|2,0:0|0:0,0:0:0:0:
248,94,219232,1,0,0:0:0:0:
151,216,219575,2,0,P|103:268|12:255,1,155.999995239258,2|0,0:3|0:0,0:0:0:0:
7,185,220090,2,0,L|98:149,1,77.999997619629,0|0,0:0|0:0,0:0:0:0:
168,284,220604,2,0,L|391:190,1,233.999992858887,4|0,0:3|0:0,0:0:0:0:
459,211,221290,1,0,0:0:0:0:
334,303,221632,2,0,P|274:272|283:123,1,233.999992858887,2|2,0:3|0:0,0:0:0:0:
354,96,222318,1,0,0:0:0:0:
207,41,222661,6,0,P|135:48|59:99,1,155.999995239258,4|8,0:2|0:0,0:0:0:0:
23,157,223175,2,0,P|8:213|12:254,1,77.999997619629,2|0,0:0|0:0,0:0:0:0:
125,336,223690,2,0,B|185:302|252:342|252:342|285:297|334:284,1,233.999992858887,2|2,0:3|0:0,0:0:0:0:
409,284,224375,1,8,0:3:0:0:
503,159,224718,6,0,P|461:168|370:97,1,155.999995239258,4|8,0:2|0:0,0:0:0:0:
354,31,225232,1,2,0:0:0:0:
428,53,225404,2,0,P|362:89|255:73,1,155.999995239258,0|2,0:0|0:3,0:0:0:0:
132,41,226090,2,0,P|77:24|50:30,1,77.999997619629,8|2,0:0|0:0,0:0:0:0:
10,88,226432,2,0,P|57:118|66:148,1,77.999997619629,0|0,0:0|0:0,0:0:0:0:
44,212,226775,6,0,P|13:244|48:362,1,155.999995239258,4|8,0:2|0:0,0:0:0:0:
104,331,227290,2,0,P|119:280|157:249,1,77.999997619629,2|0,0:0|0:0,0:0:0:0:
286,222,227804,2,0,P|333:250|382:354,1,155.999995239258,2|8,0:3|0:0,0:0:0:0:
305,358,228318,2,0,P|263:331|251:295,1,77.999997619629,2|0,0:0|0:0,0:0:0:0:
379,215,228832,6,0,B|442:186|425:102|425:102|355:73|363:0,2,233.999992858887,8|4|2,0:3|0:3|0:3,0:0:0:0:
241,139,230204,2,0,P|208:192|205:218,1,77.999997619629,0|0,0:0|0:0,0:0:0:0:
127,215,230547,2,0,P|93:162|54:142,1,77.999997619629,0|0,0:0|0:0,0:0:0:0:
32,136,230890,5,4,0:0:0:0:
299,298,234318,2,0,B|343:273|387:304|387:304|427:239|494:259,1,208,0|4,0:0|0:0,0:0:0:0:
188,300,236718,2,0,P|152:288|79:290,1,104,0|0,0:0|0:0,0:0:0:0:
