osu file format v14

[General]
AudioFilename: audio.mp3
AudioLeadIn: 0
PreviewTime: 34312
Countdown: 0
SampleSet: Soft
StackLeniency: 0.7
Mode: 0
LetterboxInBreaks: 0
WidescreenStoryboard: 0

[Editor]
DistanceSpacing: 1.2
BeatDivisor: 16
GridSize: 4
TimelineZoom: 1.2

[Metadata]
Title:Hoshi to Kimi ga Kieta Hi
TitleUnicode:星と君が消えた日
Artist:Ling Yuan yousa
ArtistUnicode:泠鸢yousa
Creator:Gaia
Version:Special
Source:崩壊学園
Tags:星与你消失之日 崩坏学园2 冷鸟 Houkai Gakuen MiHoYo Guns Girl School DayZ ggz Honkai Impact Theresa Apocalypse Theme
BeatmapID:1071401
BeatmapSetID:503553

[Difficulty]
HPDrainRate:7
CircleSize:4.1
OverallDifficulty:8
ApproachRate:9
SliderMultiplier:1.7
SliderTickRate:2

[Events]
//Background and Video events
0,0,"mei.jpg",0,0
//Break Periods
//Storyboard Layer 0 (Background)
//Storyboard Layer 1 (Fail)
//Storyboard Layer 2 (Pass)
//Storyboard Layer 3 (Foreground)
//Storyboard Sound Samples

[TimingPoints]
2778,681.818181818182,4,2,2,40,1,0
3971,-100,4,2,2,30,0,0
4482,-100,4,2,2,20,0,0
4823,-100,4,2,2,40,0,0
9425,-100,4,2,2,30,0,0
9937,-100,4,2,2,20,0,0
10278,-100,4,2,2,40,0,0
13687,-100,4,2,2,30,0,0
19482,-100,4,2,2,10,0,0
19823,-100,4,2,2,30,0,0
21016,-100,4,2,2,20,0,0
21528,-100,4,2,2,10,0,0
21868,-100,4,2,2,30,0,0
24937,-100,4,2,2,10,0,0
25192,-100,4,2,2,30,0,0
26471,-100,4,2,2,20,0,0
26982,-100,4,2,2,10,0,0
27323,-100,4,2,2,30,0,0
30391,-100,4,2,2,10,0,0
30647,-100,4,2,2,30,0,0
33289,-125,4,2,2,25,0,0
33800,-166.666666666667,4,2,2,20,0,0
34482,-200,4,2,1,20,0,0
35505,-66.6666666666667,4,2,1,60,0,0
51187,-50,4,2,1,50,0,0
51868,-80,4,2,1,60,0,0
52039,-80,4,2,1,40,0,0
52891,-80,4,2,1,60,0,0
52976,-80,4,2,1,40,0,0
54596,-80,4,2,1,60,0,0
54766,-80,4,2,1,40,0,0
55618,-80,4,2,1,60,0,0
55789,-80,4,2,1,40,0,0
56641,-100,4,2,1,40,0,0
57323,-66.6666666666667,4,2,1,50,0,0
68232,-100,4,2,1,30,0,0
72834,-100,4,2,1,40,0,0
73005,-50,4,2,1,50,0,0
73687,-100,4,2,1,40,0,0
76414,-66.6666666666667,4,2,1,50,0,0
77778,-100,4,2,1,40,0,0
79141,-100,4,2,1,30,0,0
81868,-100,4,2,2,30,0,0
83062,-100,4,2,2,20,0,0
83573,-100,4,2,2,10,0,0
83914,-100,4,2,2,30,0,0
87664,-100,4,2,2,20,0,0
88005,-100,4,2,2,30,0,0
88516,-100,4,2,2,20,0,0
89028,-100,4,2,2,10,0,0
89368,-100,4,2,2,30,0,0
90732,-100,4,2,2,25,0,0
91073,-100,4,2,2,20,0,0

[Colours]
Combo1 : 252,3,3
Combo2 : 130,199,255
Combo3 : 255,113,113
Combo4 : 2,159,253

[HitObjects]
168,136,2778,5,2,3:2:0:0:
168,136,3118,1,0,0:0:0:0:
152,300,3289,1,2,3:2:0:0:
208,224,3459,2,0,L|124:212,1,85,10|0,0:0|0:0,0:0:0:0:
0,160,3971,2,0,P|36:132|88:144,1,85,8|0,0:0|0:0,0:0:0:0:
168,136,4482,2,0,P|162:107|160:68,1,42.5,8|0,0:0|0:0,0:0:0:0:
256,56,4823,2,0,P|259:103|268:172,1,85,2|2,0:0|0:0,0:0:0:0:
344,280,5505,6,0,P|380:248|356:196,1,85,2|2,0:0|0:0,0:0:0:0:
280,160,6187,1,2,0:0:0:0:
244,264,6528,2,0,L|260:376,1,85,2|0,0:0|0:0,0:0:0:0:
256,348,7039,1,0,0:0:0:0:
344,280,7209,1,0,0:0:0:0:
260,172,7380,1,0,0:0:0:0:
159,256,7550,2,0,P|205:261|267:264,1,85,2|2,0:0|0:0,0:0:0:0:
396,160,8062,1,0,3:0:0:0:
260,172,8232,38,0,P|217:169|175:164,1,85,2|0,3:2|0:0,0:0:0:0:
124,56,8743,1,2,3:2:0:0:
244,4,8914,2,0,P|236:51|232:88,1,85,10|0,0:0|0:0,0:0:0:0:
316,224,9425,2,0,P|308:182|303:139,1,85,8|0,0:0|0:0,0:0:0:0:
360,64,9937,2,0,P|412:68|428:120,2,85,10|2|2,0:0|0:0|0:0,0:0:0:0:
396,188,10959,6,0,L|500:172,1,85,2|2,0:0|0:0,0:0:0:0:
376,280,11641,1,2,0:0:0:0:
248,268,11982,2,0,L|352:252,1,85,2|0,0:0|0:0,0:0:0:0:
240,180,12493,1,0,0:0:0:0:
164,232,12664,1,0,0:0:0:0:
188,324,12834,2,0,P|136:352|96:320,1,85
36,280,13346,2,0,L|28:348,1,42.5
100,156,13687,37,0,1:2:0:0:
48,72,14028,1,2,0:0:0:0:
188,88,14368,2,0,L|336:68,1,127.5,2|0,0:0|0:0,0:0:0:0:
416,120,15050,2,0,P|440:168|412:220,1,85,2|0,0:0|0:0,0:0:0:0:
352,292,15562,2,0,P|312:244|348:164,1,127.5,2|0,0:0|0:0,0:0:0:0:
436,224,16243,1,0,0:0:0:0:
364,324,16414,6,0,B|266:315|266:315|244:288,2,127.5,2|2|2,0:0|0:0|0:0,0:0:0:0:
124,160,18118,1,0,0:0:0:0:
120,168,18289,1,0,0:0:0:0:
116,176,18459,1,2,0:0:0:0:
160,264,18630,1,2,0:0:0:0:
272,268,18800,1,0,0:0:0:0:
344,176,18971,1,2,3:2:0:0:
180,240,19141,37,2,3:2:0:0:
240,152,19482,2,0,P|260:172|272:208,1,42.5,2|0,3:2|3:0,0:0:0:0:
296,264,19823,2,0,L|440:240,1,127.5,2|0,0:0|0:0,0:0:0:0:
492,180,20505,1,10,0:0:0:0:
440,324,20675,2,0,P|430:306|412:264,1,42.5,2|0,0:0|0:0,0:0:0:0:
460,103,21016,2,0,P|484:137|488:201,1,85,10|0,0:0|0:0,0:0:0:0:
421,243,21528,1,8,0:0:0:0:
344,48,21868,6,0,L|336:136,1,85,2|2,0:0|0:0,0:0:0:0:
231,273,22550,2,0,P|195:264|151:237,1,85,2|2,0:0|0:0,0:0:0:0:
76,104,23232,2,0,P|123:89|180:88,1,85,2|0,0:0|0:0,0:0:0:0:
248,136,23743,1,0,0:0:0:0:
320,208,23914,2,0,P|313:257|296:312,1,85,2|2,0:0|0:0,0:0:0:0:
248,136,24425,1,0,3:0:0:0:
155,240,24596,38,0,P|204:233|243:231,1,85,2|0,3:2|3:0,0:0:0:0:
404,232,25107,2,0,P|348:188|340:164,1,85,0|0,3:0|0:0,0:0:0:0:
264,60,25618,2,0,L|252:120,1,42.5,2|0,0:0|0:0,0:0:0:0:
248,136,25959,2,0,B|232:40|232:40|200:16,2,127.5,10|10|10,0:0|0:0|0:0,0:0:0:0:
184,312,27323,6,0,P|152:256|176:212,1,85,2|0,0:0|0:0,0:0:0:0:
136,144,27834,2,0,L|232:172,1,85,2|0,0:0|0:0,0:0:0:0:
240,208,28346,2,0,L|416:176,1,170,2|0,0:0|0:0,0:0:0:0:
496,148,29198,1,0,0:0:0:0:
496,148,29368,2,0,P|491:187|484:220,2,63.75,2|2|2,0:0|0:0|3:2,0:0:0:0:
408,72,30050,38,0,P|388:100|392:160,1,85,2|0,3:2|3:0,0:0:0:0:
480,312,30562,2,0,L|464:224,1,85,2|0,3:2|0:0,0:0:0:0:
336,272,31073,2,0,P|361:266|388:260,1,42.5,2|0,0:0|0:0,0:0:0:0:
239,255,31414,2,0,P|205:248|123:235,1,85,10|0,0:0|0:0,0:0:0:0:
28,152,32096,2,0,P|72:148|120:144,1,85,2|0,0:0|0:0,0:0:0:0:
216,100,32607,1,2,0:0:0:0:
216,100,32778,6,0,P|172:99|152:148,1,85,10|0,0:0|0:0,0:0:0:0:
332,108,33289,2,0,P|348:72|336:24,1,68,10|0,0:0|0:0,0:0:0:0:
268,188,33800,2,0,P|271:223|276:248,1,50.9999984436036,10|0,0:0|0:0,0:0:0:0:
304,360,34482,38,0,B|316:328|316:328|312:293|304:240,1,116.875
224,112,35505,38,0,P|276:192|408:164,1,223.125008511544,6|0,3:2|0:0,0:0:0:0:
456,128,36187,2,0,L|432:276,1,127.500004863739,8|2,0:0|0:0,0:0:0:0:
320,116,36698,1,0,0:0:0:0:
400,36,36868,38,0,P|432:24|476:16,1,63.7500024318696,2|0,3:2|0:0,0:0:0:0:
180,104,37209,2,0,L|112:80,1,63.7500024318696,2|0,3:2|0:0,0:0:0:0:
319,304,37550,2,0,B|346:239|290:183|324:104,1,191.250007295609,10|0,0:0|0:0,0:0:0:0:
236,260,38232,6,0,L|172:248,1,63.7500024318696,2|0,3:2|0:0,0:0:0:0:
400,180,38573,2,0,P|408:211|412:256,1,63.7500024318696
224,120,38914,2,0,P|229:86|244:36,2,63.7500024318696,10|0|0,0:0|0:0|0:0,0:0:0:0:
319,304,39425,1,0,3:0:0:0:
364,160,39596,37,2,0:0:0:0:
152,220,39766,1,8,0:0:0:0:
292,216,39937,2,0,P|283:276|280:328,1,95.6250036478044,0|0,3:0|0:0,0:0:0:0:
336,376,40278,1,10,0:0:0:0:
224,136,40448,1,8,0:3:0:0:
412,256,40618,2,0,P|446:247|488:236,1,63.7500024318696,8|0,0:3|0:0,0:0:0:0:
264,324,40959,6,0,B|152:348|172:272|40:288,1,223.125008511544,6|0,3:2|0:0,0:0:0:0:
0,216,41641,2,0,P|60:208|148:188,1,127.500004863739,10|0,0:0|0:0,0:0:0:0:
236,57,42153,1,0,0:0:0:0:
336,264,42323,38,0,P|344:234|340:192,1,63.7500024318696,2|0,3:2|0:0,0:0:0:0:
144,20,42664,2,0,L|156:100,1,63.7500024318696,2|0,3:2|0:0,0:0:0:0:
408,120,43005,2,0,P|356:96|248:160,1,191.250007295609,10|0,0:0|0:0,0:0:0:0:
436,104,43687,6,0,L|444:32,1,63.7500024318696,2|0,3:2|0:0,0:0:0:0:
336,264,44028,1,2,0:2:0:0:
156,188,44198,1,0,0:0:0:0:
348,244,44368,2,0,L|340:172,1,63.7500024318696,10|0,0:0|0:0,0:0:0:0:
344,352,44709,2,0,L|408:336,1,63.7500024318696,2|0,0:0|3:0,0:0:0:0:
204,292,45050,37,2,0:0:0:0:
272,56,45221,1,8,0:0:0:0:
392,192,45391,1,8,0:0:0:0:
392,192,45732,1,8,0:0:0:0:
120,140,45903,1,8,0:0:0:0:
280,84,46073,1,8,0:3:0:0:
192,248,46243,1,8,0:3:0:0:
392,192,46414,6,0,B|240:168|240:168|276:192|280:228,1,223.125008511544,6|0,3:2|0:0,0:0:0:0:
316,324,47096,2,0,P|293:316|240:304,1,63.7500024318696,8|0,0:0|0:0,0:0:0:0:
68,304,47437,2,0,P|116:304|156:268,1,95.6250036478044,2|0,0:0|0:0,0:0:0:0:
160,188,47778,38,0,P|135:166|80:164,1,63.7500024318696,2|0,3:2|0:0,0:0:0:0:
384,104,48118,2,0,P|415:103|456:80,1,63.7500024318696,2|0,3:2|0:0,0:0:0:0:
288,232,48459,2,0,L|296:316,1,63.7500024318696,10|0,0:0|0:0,0:0:0:0:
232,72,48800,2,0,P|221:105|224:144,1,63.7500024318696,2|0,3:2|0:0,0:0:0:0:
408,300,49141,6,0,P|440:240|412:168,1,127.500004863739,2|2,3:2|0:0,0:0:0:0:
344,84,49653,1,0,0:0:0:0:
204,168,49823,2,0,P|264:188|296:196,1,95.6250036478044,10|0,0:0|0:0,0:0:0:0:
308,232,50164,2,0,B|180:248|180:248|145:236|104:208,1,191.250007295609,6|2,3:2|0:0,0:0:0:0:
164,28,50846,1,2,0:0:0:0:
204,168,51016,1,0,0:0:0:0:
40,132,51187,38,0,P|65:120|92:110,1,56.6666666666667,8|8,0:0|0:0,0:0:0:0:
164,28,51414,1,8,0:0:0:0:
280,76,51528,6,0,P|310:93|344:104,1,56.6666666666667,8|8,0:3|0:3,0:0:0:0:
444,52,51755,1,8,0:3:0:0:
312,208,51868,6,0,L|384:196,1,53.125,6|4,3:2|3:3,0:0:0:0:
364,199,52550,1,8,3:2:0:0:
184,312,52891,2,0,P|187:274|42:243,1,212.5,4|4,3:2|3:0,0:0:0:0:
248,108,53914,1,8,0:0:0:0:
168,176,54084,1,8,0:3:0:0:
136,80,54255,2,0,L|148:12,1,53.125,8|0,0:3|0:0,0:0:0:0:
280,216,54596,6,0,L|270:268,1,53.125,6|4,3:2|3:3,0:0:0:0:
269,268,55278,1,8,3:2:0:0:
244,80,55618,1,4,3:2:0:0:
328,144,55789,2,0,L|448:120,1,106.25,4|0,3:2|0:0,0:0:0:0:
488,204,56300,2,0,P|459:212|420:220,1,53.125,4|0,3:0|0:0,0:0:0:0:
316,252,56641,2,0,P|376:272|380:356,1,148.75,8|0,3:2|0:0,0:0:0:0:
208,248,57323,6,0,L|196:164,1,63.7500024318696,6|0,3:2|0:0,0:0:0:0:
328,76,57664,2,0,P|324:119|316:156,1,63.7500024318696,2|0,0:0|0:0,0:0:0:0:
92,80,58005,2,0,P|166:67|248:56,1,127.500004863739,10|0,0:0|0:0,0:0:0:0:
392,192,58516,1,4,3:0:0:0:
248,288,58687,6,0,P|243:259|236:200,1,63.7500024318696,2|0,0:0|0:0,0:0:0:0:
60,288,59028,2,0,P|98:281|128:272,1,63.7500024318696,2|0,3:2|0:0,0:0:0:0:
188,80,59368,2,0,P|144:128|176:192,1,127.500004863739,10|0,0:0|0:0,0:0:0:0:
280,20,59880,1,0,0:0:0:0:
380,152,60050,38,0,P|376:112|348:72,1,63.7500024318696,2|0,3:2|0:0,0:0:0:0:
154,132,60391,2,0,P|166:103|188:80,1,63.7500024318696,2|0,0:0|0:0,0:0:0:0:
265,209,60732,2,0,B|244:256|280:288|264:336,1,127.500004863739,8|0,0:0|0:0,0:0:0:0:
380,152,61243,1,4,3:0:0:0:
180,320,61414,5,0,0:0:0:0:
344,248,61584,1,8,0:0:0:0:
188,172,61755,1,4,3:0:0:0:
188,172,62096,1,10,3:2:0:0:
260,284,62266,1,2,0:0:0:0:
312,64,62437,2,0,P|322:110|330:157,1,95.6250036478044,2|0,0:0|0:0,0:0:0:0:
264,208,62778,38,0,P|253:236|248:288,1,63.7500024318696,6|0,3:2|0:0,0:0:0:0:
420,144,63118,2,0,P|415:113|408:72,1,63.7500024318696,2|0,0:0|0:0,0:0:0:0:
488,256,63459,2,0,P|420:280|356:244,1,127.500004863739,10|0,0:0|0:0,0:0:0:0:
176,32,63971,6,0,L|192:176,1,127.500004863739,2|0,3:2|0:0,0:0:0:0:
76,340,64482,2,0,P|113:326|156:304,1,63.7500024318696,2|0,3:2|0:0,0:0:0:0:
280,208,64823,2,0,P|226:200|136:184,1,127.500004863739,8|2,0:0|0:0,0:0:0:0:
336,104,65334,1,0,0:0:0:0:
388,284,65505,38,0,P|398:254|396:212,1,63.7500024318696,2|0,3:2|0:0,0:0:0:0:
252,64,65846,2,0,L|264:152,1,63.7500024318696,2|0,0:0|0:0,0:0:0:0:
88,232,66187,2,0,P|134:263|216:232,1,127.500004863739,10|2,0:0|0:0,0:0:0:0:
248,140,66698,1,4,3:3:0:0:
324,352,66868,5,12,3:2:0:0:
224,256,67039,1,4,3:0:0:0:
384,148,67209,1,4,3:0:0:0:
316,304,67380,1,4,3:0:0:0:
284,40,67550,37,8,3:2:0:0:
428,304,67721,1,8,3:2:0:0:
96,208,67891,1,8,3:2:0:0:
416,136,68062,1,8,3:2:0:0:
258,181,68232,38,0,P|251:157|246:125,1,42.5,6|0,0:0|0:0,0:0:0:0:
344,252,68573,2,0,L|332:312,1,42.5,2|0,0:0|0:0,0:0:0:0:
224,160,68914,2,0,P|225:135|231:103,1,42.5,2|0,0:0|0:0,0:0:0:0:
355,223,69255,2,0,L|364:283,1,42.5,2|0,0:0|0:0,0:0:0:0:
328,92,69596,38,0,P|380:84|416:104,1,85,2|0,0:0|0:0,0:0:0:0:
384,204,70107,2,0,P|360:203|325:192,1,42.5,2|0,0:0|0:0,0:0:0:0:
332,60,70448,2,0,P|384:52|420:72,1,85,2|2,0:0|0:0,0:0:0:0:
236,128,70959,6,0,P|199:121|144:108,1,85,2|0,0:0|0:0,0:0:0:0:
52,144,71471,2,0,P|36:184|60:228,1,85,2|0,0:0|0:0,0:0:0:0:
128,292,71982,2,0,P|131:276|148:236,1,42.5,2|0,0:0|0:0,0:0:0:0:
208,180,72323,37,0,0:0:0:0:
300,184,72493,1,2,0:0:0:0:
328,272,72664,1,0,0:0:0:0:
180,160,72834,1,8,0:0:0:0:
320,60,73005,38,0,P|350:97|364:132,1,56.6666666666667,8|8,0:0|0:0,0:0:0:0:
300,184,73232,1,8,0:0:0:0:
208,296,73346,38,0,P|211:263|240:216,1,56.6666666666667,8|8,0:3|0:3,0:0:0:0:
300,184,73573,1,8,0:3:0:0:
484,272,73687,38,0,P|428:284|360:228,1,127.5,6|0,3:2|0:0,0:0:0:0:
412,64,74368,1,8,0:0:0:0:
204,144,74709,38,0,P|148:132|80:188,1,127.5,6|0,3:2|0:0,0:0:0:0:
100,344,75391,1,4,3:0:0:0:
288,204,75732,1,8,0:0:0:0:
384,144,75903,1,8,0:3:0:0:
288,100,76073,1,0,3:0:0:0:
391,323,76414,38,0,L|400:260,1,63.7500024318696,6|0,3:2|0:0,0:0:0:0:
120,60,76755,2,0,L|128:123,1,63.7500024318696,0|0,3:0|0:0,0:0:0:0:
240,320,77096,1,0,3:0:0:0:
364,160,77266,1,8,0:3:0:0:
156,152,77437,1,8,0:3:0:0:
256,228,77607,1,8,0:3:0:0:
398,67,77778,6,0,P|336:61|286:99,1,127.5,6|8,3:2|3:0,0:0:0:0:
256,228,78459,1,8,3:0:0:0:
256,228,78971,2,0,L|256:264,1,21.25,2|2,0:0|0:0,0:0:0:0:
256,280,79141,5,2,3:2:0:0:
256,104,80164,2,0,L|256:84,2,10.625,2|2|2,0:0|0:0|0:0,0:0:0:0:
340,128,81868,38,0,L|328:224,1,85,2|0,3:2|0:0,0:0:0:0:
316,308,82380,1,2,3:2:0:0:
156,260,82550,2,0,P|202:252|248:240,1,85,10|0,0:0|0:0,0:0:0:0:
416,184,83062,2,0,P|408:235|400:276,1,85,8|0,0:0|0:0,0:0:0:0:
316,308,83573,2,0,L|324:360,1,42.5,8|0,0:0|0:0,0:0:0:0:
352,376,83914,1,2,0:0:0:0:
452,344,84255,1,2,0:0:0:0:
322,225,84596,6,0,P|276:233|214:249,1,85,2|2,0:0|0:0,0:0:0:0:
172,152,85278,1,2,0:0:0:0:
176,320,85618,2,0,P|144:288|156:220,1,85,2|0,0:0|0:0,0:0:0:0:
188,144,86130,1,0,0:0:0:0:
232,244,86300,1,0,0:0:0:0:
96,180,86471,1,0,0:0:0:0:
256,204,86641,2,0,P|297:194|339:186,1,85,2|2,0:0|0:0,0:0:0:0:
496,160,87153,1,0,3:0:0:0:
348,60,87323,37,2,3:2:0:0:
348,60,87664,1,0,3:0:0:0:
392,244,87834,1,2,3:2:0:0:
252,124,88005,2,0,P|212:116|164:120,1,85,8|0,0:0|0:0,0:0:0:0:
80,280,88516,2,0,P|128:276|176:232,1,85,8|0,0:0|0:0,0:0:0:0:
76,112,89028,2,0,P|91:166|100:220,2,85,10|2|2,0:0|0:0|0:0,0:0:0:0:
208,204,90050,6,0,P|202:251|196:308,1,85,2|2,0:0|0:0,0:0:0:0:
268,360,90732,1,2,0:0:0:0:
280,368,91073,1,2,0:0:0:0:
