osu file format v14

[General]
AudioFilename: audio.mp3
AudioLeadIn: 0
PreviewTime: 34312
Countdown: 0
SampleSet: Soft
StackLeniency: 0.7
Mode: 2
LetterboxInBreaks: 0
WidescreenStoryboard: 1

[Editor]
DistanceSpacing: 2.5
BeatDivisor: 4
GridSize: 16
TimelineZoom: 2

[Metadata]
Title:Hoshi to Kimi ga Kieta Hi
TitleUnicode:星と君が消えた日
Artist:Ling Yuan yousa
ArtistUnicode:泠鸢yousa
Creator:Dapuluous
Version:Platter
Source:崩坏学园2
Tags:星与你消失之日 崩壊学園 冷鸟 houkai gakuen mihoyo guns girl school dayz ggz honkai impact theresa apocalypse theme Beng Huai Xue Yuan 德丽莎·阿波卡利斯 テレサ・アポカリプス -Hex- AJamez Error-
BeatmapID:1654976
BeatmapSetID:752110

[Difficulty]
HPDrainRate:5
CircleSize:3.5
OverallDifficulty:7.5
ApproachRate:7.5
SliderMultiplier:1.92
SliderTickRate:2

[Events]
//Background and Video events
0,0,"5.png",0,0
Video,0,"Theresa_Apocalypse_Character.mp4"
//Break Periods
//Storyboard Layer 0 (Background)
//Storyboard Layer 1 (Fail)
//Storyboard Layer 2 (Pass)
//Storyboard Layer 3 (Foreground)
//Storyboard Sound Samples

[TimingPoints]
2778,631.578947368421,4,2,0,40,1,0
2778,-66.6666666666667,4,2,0,40,0,0
3093,722.89156626506,4,2,0,40,1,0
3093,-66.6666666666667,4,2,0,40,0,0
3455,681.818181818182,4,2,0,40,1,0
3455,-66.6666666666667,4,2,0,40,0,0
4799,681.818181818182,4,2,0,40,1,0
4799,-66.6666666666667,4,2,0,40,0,0
5480,697.674418604651,4,2,0,40,1,0
5480,-66.6666666666667,4,2,0,40,0,0
5828,666.666666666667,4,2,0,40,1,0
6161,681.818181818182,4,2,0,40,1,0
6868,681.818181818182,4,2,0,40,1,0
6868,-66.6666666666667,4,2,0,40,0,0
7512,714.285714285714,4,2,0,40,1,0
7512,-66.6666666666667,4,2,0,40,0,0
8226,681.818181818182,4,2,0,40,1,0
8226,-66.6666666666667,4,2,0,40,0,0
8875,681.818181818182,4,2,0,40,1,0
11602,722.89156626506,4,2,0,40,1,0
12323,681.818181818182,4,2,0,40,1,0
12323,-66.6666666666667,4,2,0,40,0,0
13686,681.818181818182,4,2,0,40,1,0
13687,-74.0740740740741,4,2,0,40,0,0
30050,-74.0740740740741,4,2,0,50,0,0
35504,-52.6315789473684,4,2,0,70,0,1
45049,-52.6315789473684,4,2,0,60,0,0
46413,-52.6315789473684,4,2,0,70,0,1
51101,-52.6315789473684,4,3,0,50,0,1
51867,-52.6315789473684,4,2,0,60,0,0
57322,-52.6315789473684,4,2,0,70,0,1
67493,-52.6315789473684,4,2,0,70,0,1
67607,-52.6315789473684,4,3,0,70,0,1
68231,697.674418604651,4,2,0,40,1,0
68231,-74.0740740740741,4,2,0,40,0,0
69626,681.818181818182,4,2,0,40,1,0
69626,-74.0740740740741,4,2,0,40,0,0
70989,714.285714285714,4,2,0,40,1,0
70989,-74.0740740740741,4,2,0,40,0,0
71703,625,4,2,0,40,1,0
72328,681.818181818182,4,2,0,40,1,0
72920,-74.0740740740741,4,3,0,50,0,0
73691,681.818181818182,4,2,0,60,1,0
73691,-52.6315789473684,4,2,0,60,0,0
81872,-66.6666666666667,4,2,0,40,0,0
90050,-66.6666666666667,4,2,0,40,0,0

[Colours]
Combo1 : 121,188,255
Combo2 : 255,88,100
Combo3 : 128,0,128

[HitObjects]
384,336,2778,6,0,P|416:272|368:208,1,144.000005493164,2|0,0:0|0:0,0:0:0:0:
160,336,3455,2,0,P|128:272|176:208,1,144.000005493164,8|0,0:0|0:0,0:0:0:0:
432,32,4799,2,0,P|480:96|416:144,1,144.000005493164,2|0,0:0|0:0,0:0:0:0:
144,80,5480,5,2,0:0:0:0:
32,176,5828,1,0,0:0:0:0:
304,192,6161,1,2,0:0:0:0:
400,256,6501,1,0,0:0:0:0:
176,256,7038,2,0,L|96:256,2,72.0000027465821
336,32,7512,2,0,P|416:64|448:128,1,144.000005493164,2|0,0:0|0:0,0:0:0:0:
352,160,8047,1,0,0:0:0:0:
112,304,8226,6,0,P|48:240|64:192,1,144.000005493164,2|0,0:0|0:0,0:0:0:0:
336,304,8875,2,0,L|448:304,1,96,8|0,0:0|0:0,0:0:0:0:
112,48,9897,1,2,0:0:0:0:
288,48,10238,6,0,L|192:48,1,96,2|0,0:0|0:0,0:0:0:0:
368,192,10920,2,0,L|496:192,2,96,2|0|2,0:0|0:0|0:0,0:0:0:0:
48,192,11963,5,0,0:0:0:0:
399,84,12834,1,0,0:0:0:0:
96,192,13687,5,2,0:0:0:0:
256,192,14026,1,0,0:0:0:0:
416,192,14367,2,0,L|416:336,1,129.600000494385
128,192,15049,2,0,P|96:256|192:320,1,194.400000741577,2|0,0:0|0:0,0:0:0:0:
384,48,16243,1,0,0:0:0:0:
192,48,16413,6,0,P|128:96|160:144,1,129.600000494385,2|0,0:0|0:0,0:0:0:0:
240,160,16924,1,0,0:0:0:0:
400,160,17266,1,0,0:0:0:0:
144,336,17606,2,0,P|80:288|176:208,1,194.400000741577
416,256,18458,5,2,0:0:0:0:
480,256,18630,1,0,0:0:0:0:
480,192,18799,1,2,0:0:0:0:
416,192,18971,1,0,0:0:0:0:
176,64,19140,6,0,P|112:112|112:160,1,129.600000494385,2|0,0:0|0:0,0:0:0:0:
272,320,19823,2,0,L|416:320,1,129.600000494385
128,240,20505,2,0,L|64:240,2,64.8000002471924,2|0|0,0:0|0:0|0:0,0:0:0:0:
192,240,21015,1,0,0:0:0:0:
464,192,21526,1,2,0:0:0:0:
48,32,21867,6,0,P|112:112|144:128,1,129.600000494385,2|0,0:0|0:0,0:0:0:0:
304,288,22549,2,0,P|272:224|208:192,1,129.600000494385,2|0,0:0|0:0,0:0:0:0:
48,304,23231,2,0,P|80:240|144:208,1,129.600000494385,2|0,0:0|0:0,0:0:0:0:
272,64,23914,1,2,0:0:0:0:
112,64,24255,1,0,0:0:0:0:
384,64,24596,5,2,0:0:0:0:
240,160,24936,1,0,0:0:0:0:
96,240,25276,2,0,P|48:304|80:352,1,129.600000494385,0|0,0:0|0:0,0:0:0:0:
336,304,25958,2,0,P|400:256|400:192,1,129.600000494385,2|0,0:0|0:0,0:0:0:0:
320,208,26470,1,0,0:0:0:0:
64,48,27151,1,0,0:0:0:0:
304,48,27322,6,0,L|384:160,1,129.600000494385,2|0,0:0|0:0,0:0:0:0:
304,176,27833,1,0,0:0:0:0:
128,192,28174,2,0,P|80:256|128:320,1,129.600000494385,2|0,0:0|0:0,0:0:0:0:
416,192,29367,2,0,P|464:224|496:272,2,97.2000003707886,2|0|0,0:0|0:0|0:0,0:0:0:0:
128,208,30050,6,0,P|48:128|128:32,1,259.20000098877,2|0,0:0|0:0,0:0:0:0:
400,32,31073,1,2,0:0:0:0:
256,32,31414,1,0,0:0:0:0:
32,240,32096,6,0,L|112:352,1,129.600000494385,2|0,0:0|0:0,0:0:0:0:
368,288,32776,2,0,L|224:288,1,129.600000494385,2|0,0:0|0:0,0:0:0:0:
64,192,33458,2,0,L|208:192,1,129.600000494385,2|0,0:0|0:0,0:0:0:0:
32,192,34141,1,2,0:0:0:0:
304,48,34481,2,0,P|448:96|480:192,1,259.20000098877
64,320,35504,6,0,P|48:240|80:144,1,182.399995129395,4|0,0:0|0:0,0:0:0:0:
368,192,36186,2,0,P|432:256|432:352,1,182.399995129395,8|0,0:0|3:0,0:0:0:0:
144,48,36868,2,0,L|64:128,1,91.1999975646973,0|0,3:0|0:0,0:0:0:0:
176,112,37208,2,0,L|256:32,1,91.1999975646973,0|0,3:0|3:0,0:0:0:0:
432,48,37550,2,0,P|484:112|432:208,1,182.399995129395,8|0,0:0|0:0,0:0:0:0:
208,208,38231,6,0,P|128:240|128:336,1,182.399995129395,8|0,3:0|3:0,0:0:0:0:
336,272,38913,2,0,P|336:176|256:128,1,182.399995129395,8|0,0:0|3:0,0:0:0:0:
80,32,39595,2,0,P|80:128|160:176,1,182.399995129395,0|0,3:0|0:0,0:0:0:0:
432,192,40276,1,8,0:0:0:0:
475,156,40447,1,8,3:0:0:0:
476,101,40618,1,8,3:0:0:0:
433,64,40789,1,0,0:0:0:0:
160,336,40959,6,0,P|112:240|160:176,1,182.399995129395,4|0,0:0|0:0,0:0:0:0:
416,240,41640,2,0,P|352:336|272:320,1,182.399995129395,8|0,0:0|3:0,0:0:0:0:
32,64,42322,2,0,L|112:128,1,91.1999975646973,0|0,3:0|0:0,0:0:0:0:
224,144,42663,2,0,L|144:224,1,91.1999975646973,0|0,3:0|0:0,0:0:0:0:
336,64,43004,2,0,P|416:112|448:224,1,182.399995129395,8|0,0:0|0:0,0:0:0:0:
192,336,43686,6,0,P|112:272|144:192,1,182.399995129395,8|0,3:0|0:0,0:0:0:0:
384,192,44367,1,8,0:0:0:0:
144,64,44709,2,0,L|80:144,1,91.1999975646973,0|0,3:0|0:0,0:0:0:0:
192,64,45050,2,0,L|256:144,1,91.1999975646973,0|0,3:0|0:0,0:0:0:0:
144,224,45391,1,8,3:0:0:0:
384,256,45732,2,0,L|448:160,1,91.1999975646973,8|8,0:0|0:0,0:0:0:0:
464,128,46072,1,8,0:0:0:0:
48,320,46414,6,0,P|48:224|128:160,1,182.399995129395,4|0,0:0|0:0,0:0:0:0:
400,304,47095,2,0,P|336:208|272:208,1,182.399995129395,8|0,0:0|3:0,0:0:0:0:
128,64,47776,2,0,L|64:144,1,91.1999975646973,0|0,3:0|0:0,0:0:0:0:
160,64,48118,2,0,L|224:144,1,91.1999975646973,0|0,3:0|3:0,0:0:0:0:
400,304,48458,2,0,P|352:208|256:208,1,182.399995129395,8|0,0:0|0:0,0:0:0:0:
16,256,49141,6,0,L|144:112,2,182.399995129395,8|0|8,3:0|0:0|0:0,0:0:0:0:
432,48,50164,2,0,P|464:240|320:336,1,364.799990258789,4|0,0:0|0:0,0:0:0:0:
160,240,51186,1,0,0:0:0:0:
111,204,51299,1,0,0:0:0:0:
95,147,51413,1,0,0:0:0:0:
118,92,51526,1,0,0:0:0:0:
160,64,51640,1,0,0:0:0:0:
464,64,51868,5,4,0:0:0:0:
304,320,52208,2,0,P|416:224|384:176,1,182.399995129395,0|8,3:0|0:0,0:0:0:0:
96,304,52890,2,0,P|32:208|208:96,1,364.799990258789,4|8,0:0|3:0,0:0:0:0:
368,96,53914,2,0,L|448:176,2,91.1999975646973,8|0|0,0:0|3:0|3:0,0:0:0:0:
112,288,54595,6,0,L|48:208,2,91.1999975646973,4|0|0,0:0|0:0|3:0,0:0:0:0:
384,240,55276,2,0,P|304:320|240:304,1,182.399995129395,8|0,0:0|3:0,0:0:0:0:
368,32,55788,2,0,P|448:80|432:176,1,182.399995129395,0|0,3:0|0:0,0:0:0:0:
352,176,56299,1,0,0:0:0:0:
128,192,56641,2,0,P|76:158|32:48,1,182.399995129395,8|8,0:0|3:0,0:0:0:0:
448,320,57322,6,0,P|448:240|400:144,1,182.399995129395,4|0,0:0|0:0,0:0:0:0:
144,192,58004,2,0,P|80:256|80:352,1,182.399995129395,8|0,0:0|3:0,0:0:0:0:
368,48,58686,2,0,L|448:128,1,91.1999975646973,0|0,3:0|0:0,0:0:0:0:
336,112,59027,2,0,L|256:32,1,91.1999975646973,0|0,3:0|3:0,0:0:0:0:
80,48,59368,2,0,P|28:112|80:208,1,182.399995129395,8|0,0:0|0:0,0:0:0:0:
304,208,60049,6,0,P|384:240|384:336,1,182.399995129395,8|0,3:0|3:0,0:0:0:0:
144,272,60731,2,0,P|176:176|256:128,1,182.399995129395,8|0,0:0|3:0,0:0:0:0:
432,32,61413,2,0,P|432:128|352:176,1,182.399995129395,0|0,3:0|0:0,0:0:0:0:
80,192,62095,1,8,0:0:0:0:
37,156,62265,1,8,3:0:0:0:
36,101,62436,1,8,3:0:0:0:
79,64,62607,1,0,0:0:0:0:
352,336,62777,6,0,P|400:240|352:176,1,182.399995129395,4|0,0:0|0:0,0:0:0:0:
96,240,63458,2,0,P|160:336|240:320,1,182.399995129395,8|0,0:0|3:0,0:0:0:0:
448,64,64140,2,0,L|384:128,1,91.1999975646973,0|0,3:0|0:0,0:0:0:0:
256,96,64481,2,0,L|336:176,1,91.1999975646973,0|0,3:0|3:0,0:0:0:0:
144,64,64822,2,0,P|64:128|64:240,1,182.399995129395,8|0,0:0|0:0,0:0:0:0:
288,272,65504,6,0,B|416:336|416:336|363:310,1,182.399995129395,0|0,3:0|3:0,0:0:0:0:
112,224,66186,1,8,0:0:0:0:
319,192,66527,6,0,L|384:112,1,91.1999975646973,0|0,3:0|3:0,0:0:0:0:
272,112,66868,2,0,L|192:32,1,91.1999975646973,8|0,3:0|0:0,0:0:0:0:
112,224,67209,1,0,3:0:0:0:
224,272,67380,1,0,3:0:0:0:
400,336,67550,2,0,L|304:272,1,91.1999975646973,8|8,0:0|0:0,0:0:0:0:
144,96,67891,2,0,L|224:144,1,91.1999975646973,8|0,0:0|0:0,0:0:0:0:
464,192,68232,5,4,0:0:0:0:
128,80,69277,1,0,0:0:0:0:
320,80,69626,2,0,L|432:144,1,129.600000494385,2|0,0:0|0:0,0:0:0:0:
336,208,70137,2,0,L|224:144,1,129.600000494385,2|0,0:0|0:0,0:0:0:0:
448,304,70989,6,0,L|240:304,1,194.400000741577,2|2,0:0|0:0,0:0:0:0:
448,192,72015,1,0,0:0:0:0:
240,192,72328,1,0,0:0:0:0:
192,192,72498,1,0,0:0:0:0:
192,144,72668,1,0,0:0:0:0:
240,144,72839,1,0,0:0:0:0:
432,240,73009,5,0,0:0:0:0:
467,217,73122,1,0,0:0:0:0:
481,177,73236,1,0,0:0:0:0:
467,137,73349,1,0,0:0:0:0:
432,113,73463,1,0,0:0:0:0:
128,48,73691,6,0,P|64:112|144:176,1,182.399995129395,4|0,0:0|0:0,0:0:0:0:
352,320,74372,1,8,0:0:0:0:
144,304,74713,2,0,P|160:224|416:176,1,364.799990258789,4|0,0:0|0:0,0:0:0:0:
112,64,75736,2,0,L|32:144,2,91.1999975646973,8|0|0,0:0|3:0|3:0,0:0:0:0:
432,192,76418,6,0,L|448:288,1,91.1999975646973,4|0,0:0|0:0,0:0:0:0:
352,192,76759,2,0,L|288:256,1,91.1999975646973,0|0,3:0|0:0,0:0:0:0:
112,192,77100,1,8,0:0:0:0:
67,183,77270,1,0,0:0:0:0:
49,141,77441,1,0,3:0:0:0:
73,102,77612,1,0,0:0:0:0:
256,192,77781,2,0,P|352:160|272:32,1,273.599992694092,4|0,0:0|0:0,0:0:0:0:
48,32,78463,1,8,3:0:0:0:
384,192,79145,5,2,0:0:0:0:
112,320,80168,1,2,0:0:0:0:
400,304,81362,1,2,0:0:0:0:
128,336,81872,6,0,P|96:272|160:208,1,144.000005493164,2|0,0:0|0:0,0:0:0:0:
352,320,82554,2,0,P|384:256|320:192,1,144.000005493164,8|0,0:0|0:0,0:0:0:0:
80,32,83918,2,0,P|32:96|112:144,1,144.000005493164,2|0,0:0|0:0,0:0:0:0:
384,32,84600,5,0,0:0:0:0:
480,96,84941,1,2,0:0:0:0:
192,112,85281,1,0,0:0:0:0:
96,192,85622,1,2,0:0:0:0:
352,192,86134,2,0,L|432:192,2,72.0000027465821
224,32,86645,2,0,P|144:64|96:112,1,144.000005493164,2|0,0:0|0:0,0:0:0:0:
160,192,87156,1,0,0:0:0:0:
416,304,87327,6,0,P|480:240|464:192,1,144.000005493164,2|0,0:0|0:0,0:0:0:0:
192,304,88009,2,0,L|48:240,1,144.000005493164,8|0,0:0|0:0,0:0:0:0:
400,48,89031,1,0,0:0:0:0:
128,48,89372,6,0,P|208:48|272:96,1,144.000005493164,2|0,0:0|0:0,0:0:0:0:
64,192,90054,2,0,L|208:192,2,144.000005493164,2|0|2,0:0|0:0|0:0,0:0:0:0:
352,288,91077,1,0,0:0:0:0:
