osu file format v14

[General]
AudioFilename: audio.mp3
AudioLeadIn: 0
PreviewTime: 34312
Countdown: 0
SampleSet: Soft
StackLeniency: 0.7
Mode: 2
LetterboxInBreaks: 0
WidescreenStoryboard: 1

[Editor]
DistanceSpacing: 6
BeatDivisor: 4
GridSize: 16
TimelineZoom: 1.7

[Metadata]
Title:Hoshi to Kimi ga Kieta Hi
TitleUnicode:星と君が消えた日
Artist:Ling Yuan yousa
ArtistUnicode:泠鸢yousa
Creator:Dapuluous
Version:Memories
Source:崩坏学园2
Tags:星与你消失之日 崩壊学園 冷鸟 houkai gakuen mihoyo guns girl school dayz ggz honkai impact theresa apocalypse theme Beng Huai Xue Yuan 德丽莎·阿波卡利斯 テレサ・アポカリプス -Hex- AJamez Error-
BeatmapID:1597213
BeatmapSetID:752110

[Difficulty]
HPDrainRate:6
CircleSize:4
OverallDifficulty:8.5
ApproachRate:8.5
SliderMultiplier:2.1
SliderTickRate:4

[Events]
//Background and Video events
0,0,"5.png",0,0
Video,0,"Theresa_Apocalypse_Character.mp4"
//Break Periods
//Storyboard Layer 0 (Background)
//Storyboard Layer 1 (Fail)
//Storyboard Layer 2 (Pass)
//Storyboard Layer 3 (Foreground)
//Storyboard Sound Samples

[TimingPoints]
2778,631.578947368421,4,2,0,40,1,0
2778,-66.6666666666667,4,2,0,40,0,0
3093,722.89156626506,4,2,0,40,1,0
3093,-66.6666666666667,4,2,0,40,0,0
3455,681.818181818182,4,2,0,40,1,0
3455,-74.0740740740741,4,2,0,40,0,0
4799,681.818181818182,4,2,0,40,1,0
4799,-66.6666666666667,4,2,0,40,0,0
5480,697.674418604651,4,2,0,40,1,0
5480,-66.6666666666667,4,2,0,40,0,0
5828,666.666666666667,4,2,0,40,1,0
6161,681.818181818182,4,2,0,40,1,0
6868,681.818181818182,4,2,0,40,1,0
6868,-66.6666666666667,4,2,0,40,0,0
7512,714.285714285714,4,2,0,40,1,0
7512,-66.6666666666667,4,2,0,40,0,0
8226,681.818181818182,4,2,0,40,1,0
8226,-66.6666666666667,4,2,0,40,0,0
8875,681.818181818182,4,2,0,40,1,0
11602,722.89156626506,4,2,0,40,1,0
12323,681.818181818182,4,2,0,40,1,0
12323,-66.6666666666667,4,2,0,40,0,0
13686,681.818181818182,4,2,0,40,1,0
13687,-74.0740740740741,4,2,0,40,0,0
30050,-74.0740740740741,4,2,0,50,0,0
35504,-52.6315789473684,4,2,0,70,0,1
40958,-52.6315789473684,4,2,0,70,0,1
45049,-52.6315789473684,4,2,0,60,0,0
46413,-52.6315789473684,4,2,0,70,0,1
51101,-52.6315789473684,4,3,0,50,0,1
51867,-52.6315789473684,4,2,0,60,0,0
57322,-52.6315789473684,4,2,0,70,0,1
67493,-52.6315789473684,4,2,0,70,0,1
67607,-52.6315789473684,4,3,0,70,0,1
68231,697.674418604651,4,2,0,40,1,0
68231,-74.0740740740741,4,2,0,40,0,0
69626,681.818181818182,4,2,0,40,1,0
69626,-74.0740740740741,4,2,0,40,0,0
70989,714.285714285714,4,2,0,40,1,0
70989,-74.0740740740741,4,2,0,40,0,0
71703,625,4,2,0,40,1,0
72328,681.818181818182,4,2,0,40,1,0
73004,-74.0740740740741,4,3,0,50,0,0
73691,681.818181818182,4,2,0,60,1,0
73691,-52.6315789473684,4,2,0,60,0,0
81872,-66.6666666666667,4,2,0,40,0,0
90050,-66.6666666666667,4,2,0,40,0,0

[Colours]
Combo1 : 121,188,255
Combo2 : 255,88,100
Combo3 : 128,0,128

[HitObjects]
176,192,2778,6,0,L|64:303,1,157.500006008148,2|0,0:0|0:0,0:0:0:0:
384,304,3454,1,10,0:0:0:0:
208,304,3795,1,0,0:0:0:0:
352,48,4799,2,0,L|480:160,1,157.500006008148,2|0,0:0|0:0,0:0:0:0:
304,80,5480,6,0,L|448:208,1,157.500006008148,2|0,0:0|0:0,0:0:0:0:
128,192,6161,1,2,0:0:0:0:
288,192,6501,1,0,0:0:0:0:
160,336,7039,5,0,0:0:0:0:
272,336,7209,2,0,L|336:256,1,78.7500030040742
144,224,7512,2,0,L|16:96,1,157.500006008148,2|0,0:0|0:0,0:0:0:0:
128,64,8047,1,0,0:0:0:0:
368,48,8226,6,0,B|416:128|416:128|368:192,1,157.500006008148,2|0,0:0|0:0,0:0:0:0:
96,64,8875,1,10,0:0:0:0:
256,192,9215,1,0,0:0:0:0:
400,288,9898,1,0,0:0:0:0:
176,288,10239,1,2,0:0:0:0:
496,192,10580,1,0,0:0:0:0:
336,96,10921,6,0,L|231:96,1,105,2|0,0:0|0:0,0:0:0:0:
368,192,11602,1,0,0:0:0:0:
112,96,11963,1,0,0:0:0:0:
368,336,12493,2,0,L|447:336,1,78.7500030040742
336,256,12834,2,0,P|272:176|368:96,1,236.250009012223
48,144,13687,6,0,L|160:32,1,141.750000540733,2|0,0:0|0:0,0:0:0:0:
352,80,14367,2,0,L|464:176,1,141.750000540733,2|0,0:0|0:0,0:0:0:0:
400,208,14879,1,0,0:0:0:0:
160,336,15049,2,0,L|64:224,1,141.750000540733,2|0,0:0|0:0,0:0:0:0:
256,96,15561,1,0,0:0:0:0:
464,192,16243,1,0,0:0:0:0:
288,208,16414,5,2,0:0:0:0:
432,288,16755,2,0,L|512:288,1,70.8750002703667
320,288,17266,2,0,L|400:288,1,70.8750002703667
208,288,17606,2,0,P|122:191|192:64,1,283.500001081467
480,64,18459,1,2,0:0:0:0:
416,96,18629,1,0,0:0:0:0:
352,128,18799,1,2,0:0:0:0:
288,160,18971,1,0,0:0:0:0:
16,304,19141,6,0,L|160:224,1,141.750000540733,2|0,0:0|0:0,0:0:0:0:
304,144,19823,2,0,P|288:256|160:240,1,212.6250008111,2|0,0:0|0:0,0:0:0:0:
464,320,20504,2,0,L|368:288,2,70.8750002703667,2|0|0,0:0|0:0|0:0,0:0:0:0:
272,192,21016,1,0,0:0:0:0:
64,160,21526,1,0,0:0:0:0:
464,32,21868,6,0,P|480:80|416:144,1,141.750000540733,2|0,0:0|0:0,0:0:0:0:
144,192,22550,2,0,L|240:320,1,141.750000540733,2|0,0:0|0:0,0:0:0:0:
496,320,23232,2,0,L|384:208,1,141.750000540733,2|0,0:0|0:0,0:0:0:0:
272,192,23914,1,0,0:0:0:0:
448,128,24255,1,0,0:0:0:0:
32,192,24596,6,0,P|16:128|80:96,1,141.750000540733,2|0,0:0|0:0,0:0:0:0:
240,320,25276,2,0,L|432:208,1,212.6250008111
192,64,25958,2,0,L|96:176,1,141.750000540733,2|0,0:0|0:0,0:0:0:0:
288,160,26471,1,0,0:0:0:0:
432,144,27151,1,0,0:0:0:0:
192,320,27323,6,0,L|336:208,1,141.750000540733,2|0,0:0|0:0,0:0:0:0:
400,224,27834,1,0,0:0:0:0:
128,80,28174,2,0,L|64:128,1,70.8750002703667,2|0,0:0|0:0,0:0:0:0:
304,112,28516,1,0,0:0:0:0:
480,192,29367,2,0,P|432:192|384:240,2,106.31250040555
208,144,30050,6,0,P|128:240|224:336,1,283.500001081467,2|2,0:0|0:0,0:0:0:0:
400,192,31073,2,0,L|512:80,2,141.750000540733,2|0|2,0:0|0:0|0:0,0:0:0:0:
224,192,32096,2,0,L|96:80,1,141.750000540733,2|0,0:0|0:0,0:0:0:0:
416,336,32776,6,0,L|272:208,1,141.750000540733,2|0,0:0|0:0,0:0:0:0:
128,240,33459,1,0,0:0:0:0:
304,80,33799,1,2,0:0:0:0:
16,80,34141,1,0,0:0:0:0:
304,80,34481,1,2,0:0:0:0:
448,192,34823,2,0,L|496:336,1,141.750000540733
80,320,35504,6,0,P|16:224|144:80,1,299.249992009163,4|8,0:0|3:0,0:0:0:0:
288,80,36187,1,8,0:0:0:0:
48,192,36526,2,0,L|144:272,1,99.7499973363877,0|0,3:0|3:0,3:0:0:0:
288,192,36867,2,0,L|144:352,1,199.499994672775,0|0,3:0|3:0,0:0:0:0:
256,352,37379,1,0,3:0:0:0:
496,352,37550,1,8,0:0:0:0:
384,32,37721,2,0,L|496:208,1,199.499994672775,0|0,3:0|0:0,0:0:0:0:
320,160,38231,6,0,L|176:304,1,199.499994672775,8|0,3:0|3:0,0:0:0:0:
272,320,38743,1,8,3:0:0:0:
32,192,38914,2,0,L|128:272,1,99.7499973363877,8|0,0:0|0:0,0:0:0:0:
256,160,39255,2,0,L|336:80,2,99.7499973363877,0|0|0,3:0|0:0|3:0,0:0:0:0:
480,304,39766,6,0,L|384:224,2,99.7499973363877,0|0|0,0:0|0:0|3:0,0:0:0:0:
224,304,40276,1,8,0:0:0:0:
160,272,40447,1,8,3:0:0:0:
96,240,40618,1,8,3:0:0:0:
32,208,40789,1,0,0:0:0:0:
304,64,40959,6,0,P|410:148|336:288,1,299.249992009163,4|0,0:0|3:0,0:0:0:0:
160,128,41641,1,8,0:0:0:0:
368,128,41982,2,0,L|445:190,1,99.7499973363877,0|0,3:0|3:0,3:0:0:0:
272,256,42322,2,0,L|96:112,1,199.499994672775,0|0,3:0|3:0,0:0:0:0:
208,96,42834,1,0,0:0:0:0:
448,96,43005,1,8,0:0:0:0:
352,304,43175,2,0,P|272:272|304:160,1,199.499994672775
464,192,43687,6,0,L|288:32,1,199.499994672775,8|0,3:0|3:0,0:0:0:0:
224,64,44198,1,0,0:0:0:0:
464,48,44368,1,8,0:0:0:0:
400,96,44538,1,0,0:0:0:0:
128,288,44709,2,0,L|48:224,1,99.7499973363877,0|0,3:0|0:0,0:0:0:0:
224,272,45049,6,0,L|146:209,1,99.7499973363877,0|0,3:0|0:0,0:0:0:0:
416,192,45390,2,0,L|493:254,1,99.7499973363877,8|0,3:0|3:0,3:0:0:0:
256,64,45732,2,0,L|160:128,1,99.7499973363877,8|8,0:0|0:0,3:0:0:0:
416,192,46073,2,0,L|492:255,1,99.7499973363877,8|8,0:0|3:0,3:0:0:0:
192,304,46414,6,0,P|111:153|217:78,1,299.249992009163,4|8,0:0|3:0,0:0:0:0:
352,80,47096,1,8,0:0:0:0:
144,288,47437,2,0,L|48:208,1,99.7499973363877,0|0,3:0|3:0,3:0:0:0:
320,304,47776,2,0,L|480:160,1,199.499994672775,0|0,3:0|3:0,0:0:0:0:
368,144,48288,1,0,3:0:0:0:
96,144,48458,2,0,L|176:80,1,99.7499973363877,8|0,0:0|3:0,0:0:0:0:
352,128,48800,2,0,L|464:128,1,99.7499973363877,0|0,3:0|0:0,3:0:0:0:
192,336,49140,6,0,P|128:224|240:96,1,299.249992009163,8|0,3:0|3:0,0:0:0:0:
400,128,49823,2,0,L|482:72,1,99.7499973363877,8|0,0:0|0:0,0:0:0:0:
208,32,50164,1,4,0:0:0:0:
416,80,50505,2,0,L|486:150,2,99.7499973363877,0|0|0,3:0|0:0|3:0,0:0:0:0:
176,192,51187,5,0,0:0:0:0:
128,208,51300,1,0,0:0:0:0:
96,240,51414,1,0,0:0:0:0:
368,192,51526,1,0,0:0:0:0:
416,208,51641,1,0,0:0:0:0:
448,256,51755,1,0,0:0:0:0:
176,192,51868,5,4,0:0:0:0:
336,32,52208,2,0,P|368:96|288:192,1,199.499994672775,0|8,0:0|0:0,0:0:0:0:
160,48,52721,1,0,0:0:0:0:
416,336,52890,2,0,L|496:256,2,99.7499973363877,4|0|0,0:0|0:0|3:0,0:0:0:0:
160,224,53401,2,0,L|16:64,1,199.499994672775,8|0,3:0|3:0,3:0:0:0:
272,144,53914,2,0,L|368:48,1,99.7499973363877,8|0,0:0|3:0,0:0:0:0:
464,96,54255,2,0,L|384:176,1,99.7499973363877,0|0,3:0|3:0,0:0:0:0:
144,304,54596,6,0,L|224:224,2,99.7499973363877,4|0|0,0:0|0:0|3:0,0:0:0:0:
432,224,55276,1,8,0:0:0:0:
144,128,55618,1,0,3:0:0:0:
240,96,55788,1,0,3:0:0:0:
336,64,55958,1,4,0:0:0:0:
160,48,56300,5,0,0:0:0:0:
448,128,56641,1,8,0:0:0:0:
496,208,56811,1,8,3:0:0:0:
448,304,56981,1,8,3:0:0:0:
352,336,57152,1,0,0:0:0:0:
96,64,57323,6,0,P|16:160|144:256,1,299.249992009163,4|8,0:0|3:0,0:0:0:0:
272,256,58005,1,8,0:0:0:0:
64,160,58345,2,0,L|144:96,1,99.7499973363877,0|0,3:0|3:0,3:0:0:0:
256,80,58686,2,0,L|64:240,1,199.499994672775,0|0,3:0|3:0,3:0:0:0:
192,224,59197,1,0,3:0:0:0:
448,192,59368,2,0,L|240:368,1,199.499994672775,8|0,0:0|3:0,0:0:0:0:
400,336,59879,1,0,3:0:0:0:
144,240,60050,6,0,L|32:64,1,199.499994672775,8|0,3:0|3:0,0:0:0:0:
144,64,60561,1,0,3:0:0:0:
432,176,60732,2,0,L|512:256,1,99.7499973363877,8|0,0:0|0:0,0:0:0:0:
368,240,61073,2,0,L|288:160,2,99.7499973363877,0|0|0,3:0|0:0|3:0,0:0:0:0:
464,64,61754,2,0,L|384:128,1,99.7499973363877,0|0,3:0|3:0,0:0:0:0:
144,48,62095,1,8,0:0:0:0:
64,128,62266,1,8,3:0:0:0:
96,224,62436,1,8,3:0:0:0:
192,256,62607,1,0,0:0:0:0:
432,48,62776,6,0,L|192:256,1,299.249992009163,4|8,0:0|3:0,0:0:0:0:
384,256,63458,1,8,0:0:0:0:
176,272,63799,2,0,L|176:160,1,99.7499973363877,0|0,3:0|3:0,3:0:0:0:
352,160,64140,2,0,L|144:80,1,199.499994672775,0|0,3:0|3:0,3:0:0:0:
240,32,64651,1,0,3:0:0:0:
496,192,64823,2,0,L|224:336,1,299.249992009163,8|0,0:0|3:0,0:0:0:0:
496,192,65504,6,0,P|505:111|400:80,1,199.499994672775,8|0,3:0|3:0,3:0:0:0:
304,80,66015,1,0,3:0:0:0:
64,144,66186,1,8,0:0:0:0:
160,192,66356,2,0,L|80:256,1,99.7499973363877,0|0,3:0|3:0,3:0:0:0:
16,304,66698,1,0,3:0:0:0:
304,224,66868,6,0,L|381:286,1,99.7499973363877,8|0,3:0|0:0,0:0:0:0:
496,304,67209,2,0,L|384:208,1,99.7499973363877,0|0,3:0|3:0,3:0:0:0:
288,64,67549,1,8,0:0:0:0:
416,64,67721,1,8,0:0:0:0:
256,64,67890,1,8,0:0:0:0:
416,64,68062,1,8,0:0:0:0:
160,64,68232,5,4,0:0:0:0:
288,256,69277,1,0,0:0:0:0:
94,261,69626,2,0,P|62:309|135:348,1,141.750000540733,2|0,0:0|0:0,0:0:0:0:
224,336,70137,2,0,P|320:336|368:304,1,141.750000540733,2|0,0:0|0:0,0:0:0:0:
80,48,70989,6,0,P|194:75|306:139,1,212.6250008111,2|0,0:0|0:0,0:0:0:0:
80,192,72015,1,2,0:0:0:0:
320,224,72328,1,0,0:0:0:0:
416,240,72498,1,0,0:0:0:0:
480,304,72668,1,0,0:0:0:0:
400,352,72839,1,0,0:0:0:0:
158,197,73009,5,0,0:0:0:0:
110,197,73123,1,0,0:0:0:0:
94,197,73237,1,0,0:0:0:0:
318,197,73350,1,0,0:0:0:0:
366,197,73464,1,0,0:0:0:0:
382,197,73578,1,0,0:0:0:0:
96,288,73691,6,0,L|192:368,1,99.7499973363877,4|0,0:0|3:0,0:0:0:0:
304,336,74031,2,0,L|224:272,1,99.7499973363877,0|0,3:0|3:0,0:0:0:0:
464,256,74372,2,0,L|368:192,1,99.7499973363877,8|0,0:0|0:0,0:0:0:0:
80,192,74713,1,4,0:0:0:0:
160,128,74884,2,0,L|64:64,1,99.7499973363877,0|0,3:0|0:0,0:0:0:0:
352,208,75225,6,0,P|448:144|480:64,1,199.499994672775,0|0,3:0|3:0,3:0:0:0:
224,272,75736,2,0,L|144:208,1,99.7499973363877,8|0,0:0|3:0,0:0:0:0:
272,304,76077,2,0,L|352:368,1,99.7499973363877,0|0,3:0|3:0,3:0:0:0:
64,192,76418,6,0,P|128:96|224:128,1,199.499994672775,4|0,0:0|0:0,0:0:0:0:
112,16,76929,1,0,0:0:0:0:
384,96,77100,1,8,0:0:0:0:
176,144,77441,2,0,L|96:64,1,99.7499973363877,0|0,3:0|0:0,0:0:0:0:
288,64,77781,2,0,P|400:80|448:160,1,199.499994672775,4|0,0:0|0:0,0:0:0:0:
384,192,78293,1,0,0:0:0:0:
144,192,78463,2,0,P|112:128|224:64,1,199.499994672775,8|0,3:0|0:0,0:0:0:0:
336,64,78975,1,0,0:0:0:0:
80,64,79145,5,2,0:0:0:0:
386,101,80168,2,2,L|386:53,2,24.9374993340969,2|0|2,0:0|0:0|0:0,0:0:0:0:
146,197,81361,1,2,0:0:0:0:
336,192,81872,6,0,L|448:320,1,157.500006008148,2|0,0:0|0:0,0:0:0:0:
160,304,82554,1,10,0:0:0:0:
320,304,82895,1,0,0:0:0:0:
160,48,83918,2,0,L|32:160,1,157.500006008148,2|0,0:0|0:0,0:0:0:0:
208,80,84600,6,0,L|64:208,1,157.500006008148,2|0,0:0|0:0,0:0:0:0:
368,192,85281,1,2,0:0:0:0:
208,192,85622,1,0,0:0:0:0:
368,336,86134,5,0,0:0:0:0:
256,320,86304,2,0,L|176:256,1,78.7500030040742
368,224,86645,2,0,L|496:96,1,157.500006008148,2|0,0:0|0:0,0:0:0:0:
384,64,87156,1,0,0:0:0:0:
144,48,87327,6,0,L|48:192,1,157.500006008148,2|0,0:0|0:0,0:0:0:0:
384,48,88009,1,10,0:0:0:0:
192,192,88350,1,0,0:0:0:0:
96,288,89031,1,0,0:0:0:0:
320,288,89372,1,2,0:0:0:0:
16,192,89713,1,0,0:0:0:0:
160,96,90054,6,0,L|336:96,1,157.500006008148,2|0,0:0|0:0,0:0:0:0:
176,192,90736,1,0,0:0:0:0:
464,192,91077,1,0,0:0:0:0:
