osu file format v14

[General]
AudioFilename: audio.mp3
AudioLeadIn: 0
PreviewTime: 34312
Countdown: 0
SampleSet: Soft
StackLeniency: 0.7
Mode: 2
LetterboxInBreaks: 0
WidescreenStoryboard: 1

[Editor]
DistanceSpacing: 0.5
BeatDivisor: 4
GridSize: 16
TimelineZoom: 1.999999

[Metadata]
Title:Hoshi to Kimi ga Kieta Hi
TitleUnicode:星と君が消えた日
Artist:Ling Yuan yousa
ArtistUnicode:泠鸢yousa
Creator:Dapuluous
Version:Hex's Light Rain
Source:崩坏学园2
Tags:星与你消失之日 崩壊学園 冷鸟 houkai gakuen mihoyo guns girl school dayz ggz honkai impact theresa apocalypse theme Beng Huai Xue Yuan 德丽莎·阿波卡利斯 テレサ・アポカリプス -Hex- AJamez Error-
BeatmapID:1681007
BeatmapSetID:752110

[Difficulty]
HPDrainRate:5
CircleSize:3.8
OverallDifficulty:8
ApproachRate:8
SliderMultiplier:1.92
SliderTickRate:2

[Events]
//Background and Video events
0,0,"5.png",0,0
Video,0,"Theresa_Apocalypse_Character.mp4"
//Break Periods
//Storyboard Layer 0 (Background)
//Storyboard Layer 1 (Fail)
//Storyboard Layer 2 (Pass)
//Storyboard Layer 3 (Foreground)
//Storyboard Sound Samples

[TimingPoints]
2778,631.578947368421,4,2,0,40,1,0
2778,-66.6666666666667,4,2,0,40,0,0
3093,722.89156626506,4,2,0,40,1,0
3093,-66.6666666666667,4,2,0,40,0,0
3455,681.818181818182,4,2,0,40,1,0
3455,-66.6666666666667,4,2,0,40,0,0
4799,681.818181818182,4,2,0,40,1,0
4799,-66.6666666666667,4,2,0,40,0,0
5480,697.674418604651,4,2,0,40,1,0
5480,-66.6666666666667,4,2,0,40,0,0
5828,666.666666666667,4,2,0,40,1,0
6161,681.818181818182,4,2,0,40,1,0
6868,681.818181818182,4,2,0,40,1,0
6868,-66.6666666666667,4,2,0,40,0,0
7512,714.285714285714,4,2,0,40,1,0
7512,-66.6666666666667,4,2,0,40,0,0
8226,681.818181818182,4,2,0,40,1,0
8226,-66.6666666666667,4,2,0,40,0,0
8875,681.818181818182,4,2,0,40,1,0
11602,722.89156626506,4,2,0,40,1,0
12323,681.818181818182,4,2,0,40,1,0
12323,-66.6666666666667,4,2,0,40,0,0
13686,681.818181818182,4,2,0,40,1,0
13687,-74.0740740740741,4,2,0,40,0,0
30050,-74.0740740740741,4,2,0,50,0,0
35504,-58.8235294117647,4,2,0,70,0,1
45049,-58.8235294117647,4,2,0,60,0,0
46413,-58.8235294117647,4,2,0,70,0,1
51101,-58.8235294117647,4,3,0,50,0,1
51867,-58.8235294117647,4,2,0,60,0,0
57322,-58.8235294117647,4,2,0,70,0,1
67493,-58.8235294117647,4,2,0,70,0,1
67607,-58.8235294117647,4,3,0,70,0,1
68231,697.674418604651,4,2,0,40,1,0
68231,-74.0740740740741,4,2,0,40,0,0
69626,681.818181818182,4,2,0,40,1,0
69626,-74.0740740740741,4,2,0,40,0,0
70989,714.285714285714,4,2,0,40,1,0
70989,-74.0740740740741,4,2,0,40,0,0
71703,625,4,2,0,40,1,0
72328,681.818181818182,4,2,0,40,1,0
72328,-74.0740740740741,4,2,0,40,0,0
72920,-74.0740740740741,4,2,0,40,0,0
73004,-74.0740740740741,4,3,0,50,0,0
73691,681.818181818182,4,2,0,60,1,0
73691,-52.6315789473684,4,2,0,60,0,0
81872,-66.6666666666667,4,2,0,40,0,0
90050,-66.6666666666667,4,2,0,40,0,0

[Colours]
Combo1 : 121,188,255
Combo2 : 255,88,100
Combo3 : 128,0,128

[HitObjects]
32,192,2778,6,0,L|189:191,1,144.000005493164,2|0,0:0|0:0,0:0:0:0:
272,192,3273,1,0,0:0:0:0:
96,96,3454,1,8,0:0:0:0:
247,207,3795,2,0,P|263:287|151:223,1,288.000010986329
320,128,4799,6,0,L|176:128,1,144.000005493164,2|0,0:0|0:0,0:0:0:0:
496,192,5480,2,0,L|496:48,1,144.000005493164,2|0,0:0|0:0,0:0:0:0:
208,128,6161,1,2,0:0:0:0:
352,192,6501,1,0,0:0:0:0:
64,192,7512,6,0,L|240:192,1,144.000005493164,2|0,0:0|0:0,0:0:0:0:
112,128,8047,1,0,0:0:0:0:
288,80,8226,2,0,L|448:80,1,144.000005493164,2|0,0:0|0:0,0:0:0:0:
160,192,8875,2,0,P|96:144|96:112,1,96,8|0,0:0|0:0,0:0:0:0:
352,96,9897,6,0,L|464:96,2,96,0|2|0,0:0|0:0|0:0,0:0:0:0:
48,192,10920,2,0,L|176:192,1,96,2|0,0:0|0:0,0:0:0:0:
336,240,11602,1,2,0:0:0:0:
64,112,11963,1,0,0:0:0:0:
416,240,13686,6,0,P|480:192|400:128,1,192,2|2,0:0|0:0,0:0:0:0:
144,240,15049,2,0,P|54:225|45:135,1,194.400000741577,2|0,0:0|0:0,0:0:0:0:
250,273,16242,1,0,0:0:0:0:
432,192,16413,6,0,P|480:128|416:48,1,194.400000741577,2|0,0:0|0:0,0:0:0:0:
240,128,17265,2,0,L|144:128,1,64.8000002471924
288,320,17606,2,0,P|368:240|288:144,1,259.20000098877
96,192,18458,5,2,0:0:0:0:
16,96,18629,1,0,0:0:0:0:
16,96,18799,1,2,0:0:0:0:
96,192,18970,1,0,0:0:0:0:
352,144,19140,6,0,L|496:144,1,129.600000494385,2|0,0:0|0:0,0:0:0:0:
208,96,19822,2,0,L|0:96,1,194.400000741577,2|0,0:0|0:0,0:0:0:0:
112,176,20504,2,0,L|176:176,2,64.8000002471924,2|0|0,0:0|0:0|0:0,0:0:0:0:
208,240,21015,2,0,P|304:224|352:128,1,194.400000741577
32,192,21867,6,0,L|32:48,1,129.600000494385,2|0,0:0|0:0,0:0:0:0:
224,224,22549,2,0,L|224:64,1,129.600000494385,2|0,0:0|0:0,0:0:0:0:
416,160,23231,2,0,L|416:16,1,129.600000494385,2|0,0:0|0:0,0:0:0:0:
224,96,23913,2,0,L|400:96,1,129.600000494385,2|0,0:0|0:0,0:0:0:0:
272,160,24424,1,0,0:0:0:0:
32,192,24595,6,0,L|32:48,1,129.600000494385,2|0,0:0|0:0,0:0:0:0:
127,271,25106,1,0,0:0:0:0:
223,307,25276,2,0,L|383:307,1,129.600000494385
16,192,25958,2,0,L|176:192,1,129.600000494385,2|0,0:0|0:0,0:0:0:0:
240,176,26470,2,0,L|122:97,1,129.600000494385,0|0,0:0|0:0,0:0:0:0:
480,160,27322,6,0,L|320:160,1,129.600000494385,2|0,0:0|0:0,0:0:0:0:
256,80,27833,2,0,L|112:80,1,129.600000494385
304,176,28345,2,0,P|352:256|224:336,1,259.20000098877,2|0,0:0|0:0,0:0:0:0:
32,176,29367,6,0,L|160:176,2,97.2000003707886,2|0|0,0:0|0:0|0:0,0:0:0:0:
272,128,30049,2,0,L|464:128,1,129.600000494385,2|0,0:0|0:0,0:0:0:0:
304,64,30561,2,0,L|80:64,1,194.400000741577,0|2,0:0|0:0,0:0:0:0:
400,160,31413,1,0,0:0:0:0:
32,208,32095,6,0,L|32:48,1,129.600000494385,2|0,0:0|0:0,0:0:0:0:
304,144,32776,2,0,L|384:272,1,129.600000494385,2|0,0:0|0:0,0:0:0:0:
192,64,33458,1,0,0:0:0:0:
368,144,33799,2,0,L|528:144,1,129.600000494385,2|0,0:0|0:0,0:0:0:0:
96,272,34481,6,0,P|0:160|128:64,1,324.000001235962,2|0,0:0|0:0,0:0:0:0:
368,144,35504,6,0,P|416:224|304:272,1,244.80000466919,4|8,0:0|3:0,0:0:0:0:
64,224,36186,2,0,P|48:144|176:80,1,244.80000466919,8|0,0:0|3:0,0:0:0:0:
32,192,36867,2,0,L|32:96,1,81.6000015563965,0|0,3:0|0:0,0:0:0:0:
174,160,37208,2,0,L|174:64,1,81.6000015563965,0|0,3:0|3:0,0:0:0:0:
432,160,37549,2,0,P|464:240|336:272,1,244.80000466919,8|0,0:0|0:0,0:0:0:0:
176,224,38231,6,0,P|80:160|112:48,1,244.80000466919,8|8,3:0|3:0,0:0:0:0:
368,128,38913,2,0,P|352:208|192:208,1,244.80000466919,8|0,0:0|0:0,0:0:0:0:
368,272,39595,6,0,L|464:272,2,81.6000015563965,0|0|0,3:0|0:0|0:0,0:0:0:0:
64,192,40276,1,8,0:0:0:0:
176,192,40447,1,8,3:0:0:0:
64,192,40617,1,8,3:0:0:0:
464,256,40958,6,0,P|496:176|368:144,1,244.80000466919,4|0,0:0|3:0,0:0:0:0:
112,208,41640,2,0,P|16:112|112:64,1,244.80000466919,8|0,0:0|3:0,0:0:0:0:
224,128,42322,2,0,L|320:128,1,81.6000015563965,0|0,3:0|0:0,0:0:0:0:
160,208,42663,2,0,L|32:208,1,81.6000015563965,0|0,3:0|0:0,0:0:0:0:
336,176,43004,2,0,P|368:288|256:288,1,244.80000466919,8|0,0:0|0:0,0:0:0:0:
32,192,43686,6,0,L|192:272,2,163.200003112793,8|0|8,3:0|3:0|0:0,0:0:0:0:
224,160,44708,6,0,L|320:160,1,81.6000015563965,0|0,3:0|0:0,0:0:0:0:
166,95,45049,2,0,L|70:95,1,81.6000015563965,0|0,3:0|0:0,0:0:0:0:
224,176,45390,1,8,3:0:0:0:
427,274,45731,2,0,L|331:274,1,81.6000015563965,8|8,0:0|3:0,0:0:0:0:
483,161,46072,1,8,3:0:0:0:
32,192,46413,6,0,P|32:112|176:80,1,244.80000466919,4|8,0:0|3:0,0:0:0:0:
400,176,47095,2,0,P|464:256|352:320,1,244.80000466919,8|0,0:0|3:0,0:0:0:0:
224,224,47776,2,0,L|320:224,1,81.6000015563965,0|0,3:0|0:0,0:0:0:0:
150,128,48117,2,0,L|150:224,1,81.6000015563965,0|0,3:0|3:0,0:0:0:0:
432,80,48458,5,8,0:0:0:0:
352,144,48629,1,0,3:0:0:0:
352,144,48799,1,0,3:0:0:0:
432,80,48970,1,0,0:0:0:0:
256,96,49140,6,0,P|160:96|112:160,1,163.200003112793,8|0,3:0|0:0,0:0:0:0:
416,176,49822,1,8,0:0:0:0:
16,304,50163,2,0,P|-16:208|160:128,1,326.400006225586,4|0,0:0|3:0,0:0:0:0:
352,112,51186,5,8,0:0:0:0:
416,112,51299,1,0,0:0:0:0:
352,112,51413,1,0,0:0:0:0:
240,176,51526,1,8,0:0:0:0:
176,176,51640,1,0,0:0:0:0:
240,176,51754,1,0,0:0:0:0:
448,256,51867,1,4,0:0:0:0:
112,192,52549,5,8,0:0:0:0:
416,336,52890,2,0,P|480:176|352:144,1,326.400006225586,4|0,0:0|0:0,0:0:0:0:
144,96,53913,1,8,0:0:0:0:
224,144,54084,1,0,3:0:0:0:
304,208,54254,1,0,3:0:0:0:
16,192,54595,6,0,L|16:288,1,81.6000015563965,4|0,0:0|0:0,0:0:0:0:
96,176,54936,2,0,L|177:176,1,81.6000015563965,0|0,3:0|0:0,0:0:0:0:
16,80,55276,2,0,L|192:80,1,163.200003112793,8|0,0:0|3:0,0:0:0:0:
432,160,55788,2,0,P|448:240|304:256,1,244.80000466919,0|0,3:0|0:0,0:0:0:0:
112,224,56640,2,0,P|32:176|-16:32,1,244.80000466919,8|0,0:0|0:0,0:0:0:0:
272,144,57322,6,0,P|336:240|240:272,1,244.80000466919,4|8,0:0|3:0,0:0:0:0:
80,160,58004,2,0,P|16:64|128:32,1,244.80000466919,8|0,0:0|3:0,0:0:0:0:
272,128,58686,6,0,L|190:128,1,81.6000015563965,0|0,3:0|0:0,0:0:0:0:
336,192,59026,2,0,L|417:192,1,81.6000015563965,0|0,3:0|3:0,0:0:0:0:
176,176,59367,2,0,P|80:128|32:64,1,163.200003112793,8|0,0:0|0:0,0:0:0:0:
352,224,60049,6,0,L|368:128,1,81.6000015563965,8|0,3:0|0:0,0:0:0:0:
240,128,60390,2,0,L|224:16,1,81.6000015563965,0|0,3:0|3:0,0:0:0:0:
480,64,60731,6,0,L|224:64,1,244.80000466919,8|0,0:0|0:0,0:0:0:0:
400,128,61413,2,0,L|512:128,2,81.6000015563965,0|0|0,3:0|3:0|0:0,0:0:0:0:
80,192,62095,1,8,0:0:0:0:
176,192,62265,1,8,3:0:0:0:
80,192,62436,1,8,3:0:0:0:
496,192,62776,6,0,P|512:96|352:64,1,244.80000466919,4|8,0:0|3:0,0:0:0:0:
240,128,63458,2,0,L|416:128,1,163.200003112793,8|0,0:0|3:0,0:0:0:0:
304,80,63970,1,0,3:0:0:0:
144,160,64140,2,0,P|96:224|160:288,1,163.200003112793,0|0,3:0|3:0,0:0:0:0:
240,224,64651,1,0,3:0:0:0:
480,176,64822,6,0,L|496:80,1,81.6000015563965,8|0,0:0|0:0,0:0:0:0:
368,80,65163,2,0,L|352:0,1,81.6000015563965,0|0,0:0|3:0,0:0:0:0:
112,192,65504,2,0,L|267:259,2,163.200003112793,8|0|8,3:0|3:0|0:0,0:0:0:0:
416,144,66526,2,0,L|320:112,1,81.6000015563965,0|0,3:0|3:0,0:0:0:0:
96,192,66867,6,0,L|0:224,2,81.6000015563965,8|0|0,3:0|0:0|3:0,0:0:0:0:
336,144,67379,2,0,L|448:160,2,81.6000015563965,0|8|8,3:0|0:0|0:0,0:0:0:0:
44,96,67890,2,0,L|140:64,1,81.6000015563965,8|8,0:0|0:0,0:0:0:0:
352,208,68231,6,0,L|427:207,3,64.8000002471924,4|0|0|0,0:0|0:0|0:0|0:0,0:0:0:0:
160,96,69103,1,0,0:0:0:0:
160,96,69277,1,0,0:0:0:0:
240,160,69451,1,0,0:0:0:0:
432,224,69626,6,0,P|493:184|506:112,1,129.600000494385,2|0,0:0|0:0,0:0:0:0:
416,96,70137,2,0,P|320:80|256:96,1,129.600000494385,2|0,0:0|0:0,0:0:0:0:
16,192,70989,6,0,L|240:192,1,194.400000741577,2|2,0:0|0:0,0:0:0:0:
16,128,72015,1,2,0:0:0:0:
224,128,72328,2,0,L|288:128,2,64.8000002471924
80,192,72839,1,0,0:0:0:0:
320,128,73009,5,0,0:0:0:0:
384,128,73123,1,0,0:0:0:0:
320,128,73237,1,0,0:0:0:0:
224,144,73350,1,8,0:0:0:0:
160,144,73464,1,0,0:0:0:0:
224,144,73578,1,0,0:0:0:0:
416,240,73691,6,0,B|464:240|464:240|304:240|304:240,1,182.399995129395,4|0,0:0|0:0,0:0:0:0:
112,112,74372,1,8,0:0:0:0:
384,192,74713,2,0,P|221:119|56:186,1,364.799990258789,4|0,0:0|0:0,0:0:0:0:
320,128,75736,5,8,0:0:0:0:
400,208,75906,1,0,0:0:0:0:
480,288,76077,1,0,3:0:0:0:
32,224,76418,6,0,L|0:112,1,91.1999975646973,4|0,0:0|0:0,0:0:0:0:
154,147,76759,2,0,L|170:35,1,91.1999975646973,0|0,3:0|0:0,0:0:0:0:
341,239,77100,1,8,0:0:0:0:
437,175,77270,1,0,0:0:0:0:
341,239,77441,1,0,3:0:0:0:
437,175,77611,1,0,0:0:0:0:
181,287,77781,6,0,P|101:207|213:111,1,273.599992694092,4|0,0:0|0:0,0:0:0:0:
480,336,78463,1,8,3:0:0:0:
448,224,79145,5,2,0:0:0:0:
464,160,79188,1,0,0:0:0:0:
480,96,79230,1,0,0:0:0:0:
80,224,80168,5,2,0:0:0:0:
64,160,80211,1,0,0:0:0:0:
48,96,80253,1,2,0:0:0:0:
480,192,81872,6,0,L|304:192,1,144.000005493164,2|0,0:0|0:0,0:0:0:0:
400,128,82384,1,0,0:0:0:0:
240,80,82554,1,8,0:0:0:0:
368,128,82895,2,0,P|320:224|224:128,1,288.000010986329
16,224,83918,6,0,L|16:80,1,144.000005493164,2|0,0:0|0:0,0:0:0:0:
192,128,84600,2,0,L|48:128,1,144.000005493164,2|0,0:0|0:0,0:0:0:0:
352,208,85281,1,2,0:0:0:0:
192,144,85622,1,0,0:0:0:0:
480,160,86645,6,0,L|480:304,1,144.000005493164,2|0,0:0|0:0,0:0:0:0:
384,256,87156,1,2,0:0:0:0:
208,176,87327,2,0,L|352:160,1,144.000005493164,2|0,0:0|0:0,0:0:0:0:
256,96,87838,1,0,0:0:0:0:
80,176,88009,6,0,P|48:240|112:288,1,144.000005493164,8|0,0:0|0:0,0:0:0:0:
256,224,88520,2,0,L|400:224,1,144.000005493164,0|0,0:0|0:0,0:0:0:0:
246,161,89031,6,0,L|86:161,2,144.000005493164,2|0|0,0:0|0:0|0:0,0:0:0:0:
16,272,90054,2,0,L|192:272,2,144.000005493164,2|0|2,0:0|0:0|0:0,0:0:0:0:
288,208,91077,1,0,0:0:0:0:
