osu file format v14

[General]
AudioFilename: audio.mp3
AudioLeadIn: 0
PreviewTime: 105274
Countdown: 0
SampleSet: Soft
StackLeniency: 0.7
Mode: 2
LetterboxInBreaks: 0
WidescreenStoryboard: 1

[Editor]
Bookmarks: 79162
DistanceSpacing: 1
BeatDivisor: 4
GridSize: 8
TimelineZoom: 1.6

[Metadata]
Title:Hoshi to Kimi ga Kieta Hi
TitleUnicode:星と君が消えた日
Artist:Ling Yuan yousa
ArtistUnicode:泠鸢yousa
Creator:Dapuluous
Version:Everlasting Memories
Source:崩坏学园2
Tags:星与你消失之日 崩壊学園 冷鸟 houkai gakuen mihoyo guns girl school dayz ggz honkai impact theresa apocalypse theme Beng Huai Xue Yuan 德丽莎·阿波卡利斯 テレサ・アポカリプス kukkai rew0825 rew
BeatmapID:2617645
BeatmapSetID:1259215

[Difficulty]
HPDrainRate:5
CircleSize:4
OverallDifficulty:8.5
ApproachRate:8.5
SliderMultiplier:2.1
SliderTickRate:2

[Events]
//Background and Video events
0,0,"Theresa Apocalpyse.jpg",0,0
//Break Periods
//Storyboard Layer 0 (Background)
//Storyboard Layer 1 (Fail)
//Storyboard Layer 2 (Pass)
//Storyboard Layer 3 (Foreground)
//Storyboard Layer 4 (Overlay)
//Storyboard Sound Samples

[TimingPoints]
2777,625,4,2,0,35,1,0
2777,-66.6666666666667,4,2,0,35,0,0
3128,681.818181818182,4,2,0,35,1,0
3817,681.818181818182,4,2,0,35,1,0
4832,645.161290322581,4,2,0,35,1,0
5510,681.818181818182,4,2,0,35,1,0
5510,-58.8235294117647,4,2,0,35,0,0
6527,-76.923076923077,4,2,0,35,0,0
6881,681.818181818182,4,2,0,35,1,0
7562,-76.9230769230769,4,2,0,35,0,0
8244,-62.5,4,2,0,35,0,0
8956,681.818181818182,4,2,0,35,1,0
9277,681.818181818182,4,2,0,35,1,0
9936,697.674418604651,4,2,0,35,1,0
10607,697.674418604651,4,2,0,35,1,0
10955,-58.8235294117647,4,2,0,35,0,0
12354,681.818181818182,4,2,0,35,1,0
13717,681.818181818182,4,2,0,35,1,0
13717,-74.0740740740741,4,2,0,45,0,0
29398,-60.6060606060606,4,2,0,45,0,0
30080,759.493670886076,4,2,0,45,1,0
30080,-74.0740740740741,4,2,0,45,0,0
31103,681.818181818182,4,2,0,45,1,0
31103,-74.0740740740741,4,2,0,45,0,0
34161,681.818181818182,4,2,0,45,1,0
34161,-66.6666666666667,4,2,0,45,0,0
35535,681.818181818182,4,2,0,55,1,0
35535,-74.0740740740741,4,2,0,55,0,0
39095,681.818181818182,4,2,0,55,1,0
39478,666.666666666667,4,2,0,55,1,0
39478,-74.0740740740741,4,2,0,55,0,0
40129,681.818181818182,4,2,0,55,1,0
40129,-74.0740740740741,4,2,0,55,0,0
43708,705.882352941176,4,2,0,55,1,0
43708,-66.6666666666667,4,2,0,55,0,0
44730,681.818181818182,4,2,0,55,1,0
44951,681.818181818182,4,2,0,55,1,0
45412,681.818181818182,4,2,0,55,1,0
45412,-74.0740740740741,4,2,0,55,0,0
45763,681.818181818182,4,2,0,55,1,0
46094,681.818181818182,4,2,0,55,1,0
46808,666.666666666667,4,2,0,55,1,0
46808,-60.6060606060606,4,2,0,55,0,0
47185,582.52427184466,4,2,0,55,1,0
47185,-74.0740740740741,4,2,0,55,0,0
47830,545.454545454546,4,2,0,55,1,0
47830,-74.0740740740741,4,2,0,55,0,0
48831,681.818181818182,4,2,0,55,1,0
49180,681.818181818182,4,2,0,55,1,0
49180,-74.0740740740741,4,2,0,55,0,0
51226,-60.6060606060606,4,2,0,55,0,0
51737,-66.6666666666667,4,2,0,55,0,0
56339,-64.5161290322581,4,2,0,55,0,0
57361,-57.1428571428571,4,2,0,70,0,1
78826,681.818181818182,4,2,0,70,1,1
78976,681.818181818182,4,2,0,70,1,1
79162,681.818181818182,4,2,0,70,1,1
79162,-64.5161290322581,4,2,0,45,0,0
84617,-66.6666666666667,4,2,0,55,0,0
86662,-32.258064516129,4,2,0,55,0,0
87173,-66.6666666666667,4,2,0,55,0,0
92117,-32.2580645161289,4,2,0,55,0,0
92628,-66.6666666666667,4,2,0,55,0,0
97571,-32.258064516129,4,2,0,55,0,0
98083,-66.6666666666667,4,2,0,55,0,0
105437,681.818181818182,4,2,0,55,1,0
105437,-66.6666666666667,4,2,0,55,0,0
106447,681.818181818182,4,2,0,55,1,0
106447,-57.1428571428571,4,2,0,70,0,1
136447,-52.6315789473684,4,2,0,55,0,0
139175,-74.0740740740741,4,2,0,45,0,0
140941,722.89156626506,4,2,0,45,1,0
141437,722.89156626506,4,2,0,45,1,0
141914,666.666666666667,4,2,0,45,1,0
141914,-74.0740740740741,4,2,0,45,0,0
143618,681.818181818182,4,2,0,45,1,0
143618,-66.6666666666667,4,2,0,45,0,0
144532,681.818181818182,4,2,0,45,1,0
144633,681.818181818182,4,2,0,45,1,0
144633,-71.4285714285714,4,2,0,45,0,0
146425,857.142857142857,4,2,0,45,1,0
146924,722.89156626506,4,2,0,45,1,0
147357,681.818181818182,4,2,0,55,1,0
147357,-66.6666666666667,4,2,0,55,0,0
148379,666.666666666667,4,2,0,55,1,0
148379,-76.9230769230769,4,2,0,55,0,0
149232,666.666666666667,4,2,0,55,1,0
149374,681.818181818182,4,2,0,55,1,0
149374,-66.6666666666667,4,2,0,55,0,0
150084,681.818181818182,4,2,0,70,1,1
150084,-57.1428571428571,4,2,0,70,0,1
171902,-74.0740740740741,4,2,0,45,0,0
173311,722.89156626506,4,2,0,45,1,0
173654,722.89156626506,4,2,0,45,1,0
174186,722.89156626506,4,2,0,45,1,0
174689,681.818181818182,4,2,0,45,1,0
174689,-66.6666666666667,4,2,0,45,0,0
175668,681.818181818182,4,2,0,45,1,0
175996,681.818181818182,4,2,0,45,1,0
177359,681.818181818182,4,2,0,55,1,0
177359,-66.6666666666667,4,2,0,55,0,0
177699,681.818181818182,4,2,0,55,1,0
177935,681.818181818182,4,2,0,55,1,0
178039,681.818181818182,4,2,0,55,1,0
178039,-66.6666666666667,4,2,0,55,0,0
182813,-74.0740740740741,4,2,0,45,0,0
185540,-66.6666666666667,4,2,0,35,0,0

[Colours]
Combo1 : 239,219,122
Combo2 : 130,95,80
Combo3 : 195,140,80

[HitObjects]
200,192,2777,5,2,0:0:0:0:
368,192,3128,1,0,0:0:0:0:
80,192,3468,1,8,0:0:0:0:
248,192,3817,5,0,0:0:0:0:
392,192,4832,2,0,L|392:296,1,105,2|0,0:0|0:0,0:0:0:0:
136,256,5510,2,0,L|320:256,2,178.500003404617,2|0|2,0:0|0:0|0:0,0:0:0:0:
392,96,6532,5,0,0:0:0:0:
240,96,6881,1,0,0:0:0:0:
152,96,7051,1,0,0:0:0:0:
152,96,7221,1,0,0:0:0:0:
240,96,7392,1,0,0:0:0:0:
88,96,7562,2,0,L|88:232,1,136.499993751526,2|0,0:0|0:0,0:0:0:0:
184,232,8074,1,2,0:0:0:0:
352,320,8244,2,0,L|184:320,1,168
480,192,8956,5,8,0:0:0:0:
280,192,9277,1,0,0:0:0:0:
88,192,9936,6,0,B|88:88|88:192,1,105,2|0,0:0|0:0,0:0:0:0:
352,192,10607,1,2,0:0:0:0:
176,64,10955,2,0,L|368:64,2,178.500003404617,0|2|0,0:0|0:0|0:0,0:0:0:0:
456,192,12002,1,2,0:0:0:0:
288,192,12354,1,0,0:0:0:0:
384,192,12524,1,0,0:0:0:0:
480,192,12694,1,0,0:0:0:0:
480,192,12865,1,0,0:0:0:0:
24,192,13717,5,2,0:0:0:0:
256,192,14057,1,0,0:0:0:0:
24,192,14398,2,0,P|24:288|120:288,1,212.6250008111,2|0,0:0|0:0,0:0:0:0:
352,280,15080,2,0,P|464:280|464:200,1,212.6250008111,2|0,0:0|0:0,0:0:0:0:
176,192,16273,1,0,0:0:0:0:
408,48,16444,6,0,L|408:192,1,141.750000540733
296,192,16955,1,2,0:0:0:0:
472,192,17296,1,0,0:0:0:0:
267,192,17637,2,0,L|491:192,1,212.6250008111,2|0,0:0|0:0,0:0:0:0:
248,48,18489,2,0,L|32:48,1,212.6250008111
264,192,19171,5,2,0:0:0:0:
432,192,19512,1,0,0:0:0:0:
264,192,19853,2,0,L|480:192,1,212.6250008111,2|0,0:0|0:0,0:0:0:0:
328,112,20535,1,2,0:0:0:0:
232,112,20705,1,0,0:0:0:0:
232,112,20876,1,2,0:0:0:0:
328,112,21046,1,0,0:0:0:0:
88,192,21557,1,0,0:0:0:0:
488,192,21898,6,0,L|488:336,1,141.750000540733,2|0,0:0|0:0,0:0:0:0:
272,232,22580,2,0,L|424:232,1,141.750000540733,2|0,0:0|0:0,0:0:0:0:
160,192,23262,2,0,L|160:336,1,141.750000540733,2|0,0:0|0:0,0:0:0:0:
480,192,24285,1,0,0:0:0:0:
72,192,24626,5,2,0:0:0:0:
304,192,24967,1,0,0:0:0:0:
72,112,25307,2,0,L|296:112,1,212.6250008111,2|0,0:0|0:0,0:0:0:0:
136,152,25989,2,0,L|136:232,1,70.8750002703667,2|0,0:0|0:0,0:0:0:0:
384,192,26501,1,2,0:0:0:0:
136,222,27182,1,0,0:0:0:0:
368,312,27353,6,0,L|226:312,1,141.750000540733,2|0,0:0|0:0,0:0:0:0:
368,56,27864,2,0,P|440:56|440:120,1,141.750000540733
208,224,28376,2,0,L|64:224,1,141.750000540733,2|0,0:0|0:0,0:0:0:0:
384,296,29398,2,0,L|248:296,2,129.937501239181,2|0|0,0:0|0:0|0:0,0:0:0:0:
144,80,30080,6,0,P|56:176|144:272,1,283.500001081467,2|0,0:0|0:0,0:0:0:0:
360,120,31103,2,0,P|456:120|456:280,1,283.500001081467,2|0,0:0|0:0,0:0:0:0:
296,120,32126,2,0,L|80:120,1,212.6250008111,2|0,0:0|0:0,0:0:0:0:
360,120,32807,6,0,P|456:200|360:280,1,283.500001081467,2|0,0:0|0:0,0:0:0:0:
72,56,34161,2,0,L|72:224,1,157.500006008148,2|0,0:0|0:0,0:0:0:0:
320,72,34842,2,0,L|480:72,1,157.500006008148,2|0,0:0|0:0,0:0:0:0:
32,56,35535,5,2,0:0:0:0:
208,192,35876,2,0,L|136:192,1,70.8750002703667
392,72,36557,2,0,L|464:72,1,70.8750002703667,2|0,0:0|0:0,0:0:0:0:
232,112,36898,2,0,L|160:112,1,70.8750002703667,8|0,0:0|0:0,0:0:0:0:
384,192,37410,1,0,0:0:0:0:
104,136,37921,2,0,L|32:136,1,70.8750002703667,2|0,0:0|0:0,0:0:0:0:
208,192,38262,5,2,0:0:0:0:
400,80,38603,2,0,L|320:80,1,70.8750002703667
496,192,39095,1,0,0:0:0:0:
328,192,39478,6,0,P|256:248|336:312,1,212.6250008111
424,192,40129,1,0,0:0:0:0:
192,192,40299,1,2,0:0:0:0:
104,192,40470,1,0,0:0:0:0:
104,192,40640,1,2,0:0:0:0:
192,192,40811,1,0,0:0:0:0:
424,192,40981,5,2,0:0:0:0:
256,88,41322,2,0,L|328:88,1,70.8750002703667
112,264,42004,2,0,L|40:264,1,70.8750002703667,2|0,0:0|0:0,0:0:0:0:
272,264,42344,2,0,L|352:264,1,70.8750002703667,8|0,0:0|0:0,0:0:0:0:
128,192,42855,5,0,0:0:0:0:
416,192,43367,1,0,0:0:0:0:
192,56,43708,6,0,L|24:56,2,157.500006008148,2|0|2,0:0|0:0|0:0,0:0:0:0:
432,192,44730,1,0,0:0:0:0:
432,192,44951,1,0,0:0:0:0:
264,328,45412,2,0,L|264:248,1,70.8750002703667
432,192,45763,1,2,0:0:0:0:
208,48,46094,2,0,L|208:108,1,52.5,2|0,0:0|0:0,0:0:0:0:
480,192,46435,5,2,0:0:0:0:
248,128,46808,1,0,0:0:0:0:
352,128,46974,1,0,0:0:0:0:
464,128,47185,1,0,0:0:0:0:
40,224,47830,6,0,L|192:224,2,141.750000540733,8|0|0,0:0|0:0|0:0,0:0:0:0:
328,192,49001,1,0,0:0:0:0:
216,192,49180,6,0,L|216:344,1,141.750000540733,2|0,0:0|0:0,0:0:0:0:
360,328,49691,2,0,L|208:328,1,141.750000540733,2|0,0:0|0:0,0:0:0:0:
408,328,50203,2,0,P|464:328|464:256,1,141.750000540733,2|0,0:0|0:0,0:0:0:0:
312,152,50884,2,0,L|384:152,1,70.8750002703667
112,64,51226,2,0,L|248:64,2,129.937501239181,2|0|0,0:0|0:0|0:0,0:0:0:0:
344,64,51907,6,0,L|160:64,1,157.500006008148,2|0,0:0|0:0,0:0:0:0:
88,64,52419,1,0,0:0:0:0:
312,192,52760,1,0,0:0:0:0:
32,192,52930,1,2,0:0:0:0:
264,320,53271,2,0,L|80:320,1,157.500006008148,8|0,0:0|0:0,0:0:0:0:
336,64,53953,2,0,L|504:64,1,157.500006008148,2|0,0:0|0:0,0:0:0:0:
408,64,54464,1,0,0:0:0:0:
136,64,54635,6,0,P|56:128|144:192,1,236.250009012223,8|0,0:0|0:0,0:0:0:0:
232,192,55316,1,2,0:0:0:0:
32,192,55657,1,0,0:0:0:0:
272,192,55998,1,2,0:0:0:0:
32,48,56339,2,0,L|208:48,2,162.750001241684
440,64,57361,6,0,P|320:64|256:192,1,275.625002628565,4|0,0:0|3:0,0:0:0:0:
432,192,58044,1,8,0:0:0:0:
248,288,58385,2,0,L|368:288,1,91.8750008761883,0|0,3:0|0:0,0:0:0:0:
96,64,58726,2,0,P|40:128|104:192,1,183.750001752377,8|0,3:0|0:0,0:0:0:0:
208,192,59237,1,8,3:0:0:0:
440,192,59407,1,8,0:0:0:0:
336,312,59578,2,0,P|256:352|176:312,1,183.750001752377
416,80,60089,6,0,P|328:48|232:88,1,183.750001752377,8|0,3:0|0:0,0:0:0:0:
352,192,60601,1,8,3:0:0:0:
120,40,60771,2,0,L|24:40,1,91.8750008761883,8|0,0:0|0:0,0:0:0:0:
208,288,61112,2,0,L|320:288,2,91.8750008761883,0|0|0,3:0|0:0|3:0,0:0:0:0:
384,96,61623,2,0,L|475:96,2,91.8750008761883,0|0|0,0:0|0:0|3:0,0:0:0:0:
104,192,62135,1,8,0:0:0:0:
192,192,62305,1,8,3:0:0:0:
192,192,62475,1,8,3:0:0:0:
104,192,62645,1,0,0:0:0:0:
376,48,62816,6,0,P|472:48|472:120,1,183.750001752377,4|0,0:0|0:0,0:0:0:0:
400,120,63328,1,8,3:0:0:0:
216,192,63498,1,8,0:0:0:0:
400,320,63839,2,0,L|496:320,1,91.8750008761883,0|0,3:0|0:0,0:0:0:0:
224,48,64180,2,0,P|128:48|80:120,1,183.750001752377,8|0,3:0|0:0,0:0:0:0:
176,112,64691,1,8,3:0:0:0:
472,192,64862,1,8,0:0:0:0:
344,264,65032,2,0,P|440:264|472:184,1,183.750001752377
296,64,65544,6,0,P|408:64|448:120,1,183.750001752377,8|0,3:0|0:0,0:0:0:0:
352,112,66055,1,8,3:0:0:0:
80,296,66226,2,0,P|168:336|248:288,1,183.750001752377,8|0,0:0|0:0,0:0:0:0:
352,192,66737,1,0,0:0:0:0:
112,48,66907,6,0,L|8:48,1,91.8750008761883,0|0,3:0|0:0,0:0:0:0:
200,192,67248,2,0,L|80:192,1,91.8750008761883
392,56,67589,2,0,L|483:56,1,91.8750008761883,8|8,0:0|3:0,0:0:0:0:
144,144,67930,2,0,L|40:144,1,91.8750008761883,8|0,3:0|0:0,0:0:0:0:
352,48,68271,6,0,P|472:128|432:232,1,275.625002628565,4|8,0:0|3:0,0:0:0:0:
256,192,68953,1,8,0:0:0:0:
72,296,69294,2,0,L|168:296,1,91.8750008761883,0|0,3:0|0:0,0:0:0:0:
408,56,69635,2,0,P|296:56|248:120,1,183.750001752377,8|0,3:0|0:0,0:0:0:0:
360,192,70146,1,8,3:0:0:0:
120,192,70316,1,8,0:0:0:0:
224,312,70487,2,0,P|128:312|72:248,1,183.750001752377
320,40,70998,6,0,P|376:96|312:160,1,183.750001752377,8|0,3:0|0:0,0:0:0:0:
208,192,71510,1,8,3:0:0:0:
448,336,71680,2,0,L|448:232,1,91.8750008761883,8|0,0:0|0:0,0:0:0:0:
168,40,72021,6,0,P|80:40|32:120,1,183.750001752377,4|0,0:0|0:0,0:0:0:0:
128,120,72532,1,0,0:0:0:0:
312,192,72703,2,0,L|416:192,1,91.8750008761883
128,192,73043,1,0,3:0:0:0:
64,192,73157,1,0,3:0:0:0:
128,192,73270,1,0,3:0:0:0:
320,72,73384,1,0,3:0:0:0:
384,72,73498,1,0,3:0:0:0:
448,72,73611,1,0,3:0:0:0:
168,320,73725,6,0,L|72:320,1,91.8750008761883,4|0,0:0|0:0,0:0:0:0:
256,248,74066,2,0,P|376:248|424:200,1,183.750001752377,0|8,0:0|0:0,0:0:0:0:
320,192,74578,1,0,0:0:0:0:
80,72,74748,2,0,L|208:72,2,91.8750008761883,4|0|0,0:0|0:0|0:0,0:0:0:0:
256,48,75260,2,0,P|360:48|416:112,1,183.750001752377,0|0,3:0|0:0,0:0:0:0:
136,288,75771,2,0,L|248:288,1,91.8750008761883,8|0,0:0|3:0,0:0:0:0:
400,248,76112,2,0,L|296:248,1,91.8750008761883,0|0,3:0|0:0,0:0:0:0:
24,192,76453,5,4,0:0:0:0:
216,192,76794,1,0,0:0:0:0:
24,192,77135,2,0,L|24:296,1,91.8750008761883,8|0,0:0|3:0,0:0:0:0:
304,192,77476,1,0,3:0:0:0:
112,64,77816,2,0,B|368:64|368:64|128:64,1,459.375004380941,4|0,0:0|0:0,0:0:0:0:
392,192,78826,1,0,0:0:0:0:
392,192,78976,1,0,0:0:0:0:
144,192,79162,5,2,0:0:0:0:
16,88,79503,2,0,L|104:88,1,81.375000620842,0|2,0:0|0:0,0:0:0:0:
312,88,80014,1,0,0:0:0:0:
80,192,80185,1,2,0:0:0:0:
336,192,80696,1,0,0:0:0:0:
80,48,81208,2,0,B|80:152|80:152|80:64,1,162.750001241684,2|0,0:0|0:0,0:0:0:0:
392,192,81889,5,2,0:0:0:0:
144,280,82401,2,0,L|48:280,1,81.375000620842,2|0,0:0|0:0,0:0:0:0:
368,280,82912,2,0,L|472:280,1,81.375000620842,2|0,0:0|0:0,0:0:0:0:
280,192,83423,1,2,0:0:0:0:
112,192,83764,1,0,0:0:0:0:
360,192,83935,1,2,0:0:0:0:
184,48,84276,2,0,L|80:48,1,81.375000620842,2|0,0:0|0:0,0:0:0:0:
360,136,84617,5,4,0:0:0:0:
248,136,84787,1,0,3:0:0:0:
136,136,84958,1,0,3:0:0:0:
400,288,85298,2,0,L|480:288,1,78.7500030040742,8|0,0:0|0:0,0:0:0:0:
328,56,85639,2,0,P|232:56|200:120,1,157.500006008148,0|0,3:0|0:0,0:0:0:0:
360,144,86321,2,0,L|456:144,1,78.7500030040742,0|0,3:0|0:0,0:0:0:0:
184,24,86662,2,0,B|120:80|120:80|264:208|264:208|104:344,1,488.250003725052,8|0,0:0|0:0,0:0:0:0:
352,136,87344,6,0,L|432:136,1,78.7500030040742,4|0,3:0|0:0,0:0:0:0:
192,96,88026,2,0,L|96:96,1,78.7500030040742,8|0,0:0|0:0,0:0:0:0:
264,288,88367,2,0,P|360:288|408:240,1,157.500006008148,0|0,3:0|0:0,0:0:0:0:
320,144,88878,2,0,P|416:144|456:104,1,157.500006008148,8|0,3:0|0:0,0:0:0:0:
224,192,89389,1,8,0:0:0:0:
128,192,89560,1,0,0:0:0:0:
32,192,89730,1,0,0:0:0:0:
128,192,89901,1,0,0:0:0:0:
408,296,90071,6,0,L|329:296,1,78.7500030040742,4|0,0:0|3:0,0:0:0:0:
176,296,90412,2,0,L|272:296,1,78.7500030040742,0|0,3:0|0:0,0:0:0:0:
104,48,90753,2,0,L|192:48,1,78.7500030040742,8|0,0:0|0:0,0:0:0:0:
336,128,91094,2,0,L|416:128,1,78.7500030040742,0|0,3:0|0:0,0:0:0:0:
240,280,91435,2,0,L|66:280,1,157.500006008148,8|0,3:0|0:0,0:0:0:0:
160,192,91946,1,8,3:0:0:0:
408,24,92117,2,0,B|480:88|480:88|344:232|344:232|496:368,1,488.250003725052,8|0,0:0|0:0,0:0:0:0:
192,64,92798,6,0,P|112:120|200:288,1,315.000012016297,8|8,3:0|0:0,0:0:0:0:
352,192,93821,1,0,3:0:0:0:
112,48,93992,2,0,P|48:112|80:168,1,157.500006008148,0|8,3:0|3:0,0:0:0:0:
160,192,94503,1,0,3:0:0:0:
480,192,94844,1,8,0:0:0:0:
392,192,95014,1,0,0:0:0:0:
392,192,95185,1,0,0:0:0:0:
480,192,95355,1,0,0:0:0:0:
240,192,95526,5,4,0:0:0:0:
152,192,95696,1,0,3:0:0:0:
72,192,95867,1,0,3:0:0:0:
256,48,96208,2,0,L|344:48,1,78.7500030040742,8|0,0:0|0:0,0:0:0:0:
184,144,96548,2,0,L|360:144,1,157.500006008148,0|0,3:0|0:0,0:0:0:0:
480,288,97230,2,0,L|480:200,1,78.7500030040742,0|0,3:0|0:0,0:0:0:0:
224,24,97571,2,0,B|152:88|152:88|288:232|288:232|128:360,1,488.250003725052,8|0,0:0|0:0,0:0:0:0:
376,40,98253,6,0,L|464:40,1,78.7500030040742,4|0,3:0|0:0,0:0:0:0:
296,192,98764,1,0,3:0:0:0:
56,256,98935,2,0,L|160:256,1,78.7500030040742,8|0,0:0|0:0,0:0:0:0:
296,88,99276,2,0,P|392:192|280:312,1,315.000012016297,0|0,3:0|3:0,0:0:0:0:
200,192,100128,1,0,3:0:0:0:
440,64,100298,2,0,L|321:64,2,118.125004506111,8|0|0,0:0|0:0|0:0,0:0:0:0:
200,192,100980,5,4,0:0:0:0:
368,192,101321,1,0,0:0:0:0:
120,192,101662,1,8,0:0:0:0:
448,192,102003,5,4,0:0:0:0:
208,192,102344,1,0,0:0:0:0:
448,192,102685,1,0,0:0:0:0:
144,288,103025,1,8,0:0:0:0:
256,288,103196,1,0,3:0:0:0:
368,288,103367,1,0,3:0:0:0:
480,288,103537,1,0,3:0:0:0:
240,192,103708,5,4,0:0:0:0:
440,192,104048,1,0,0:0:0:0:
136,104,104389,1,8,0:0:0:0:
248,104,104560,1,0,3:0:0:0:
360,104,104730,1,0,3:0:0:0:
472,104,104901,1,0,3:0:0:0:
224,192,105071,1,4,0:0:0:0:
32,304,105437,2,0,L|189:304,2,157.500006008148,0|8|0,0:0|0:0|0:0,0:0:0:0:
440,48,106447,6,0,P|488:120|360:208,1,275.625002628565,4|8,0:0|3:0,0:0:0:0:
184,192,107128,1,8,0:0:0:0:
368,48,107469,2,0,L|368:144,1,91.8750008761883,0|0,3:0|0:0,0:0:0:0:
128,40,107810,2,0,P|72:104|128:168,1,183.750001752377,8|0,3:0|0:0,0:0:0:0:
248,192,108321,1,8,3:0:0:0:
16,192,108491,1,8,0:0:0:0:
120,288,108662,2,0,P|208:328|280:288,1,183.750001752377
104,80,109174,6,0,P|192:48|264:96,1,183.750001752377,8|0,3:0|0:0,0:0:0:0:
376,192,109685,1,8,3:0:0:0:
96,320,109855,2,0,L|96:224,1,91.8750008761883,8|0,0:0|0:0,0:0:0:0:
272,320,110196,2,0,L|368:320,2,91.8750008761883,0|0|0,3:0|0:0|3:0,0:0:0:0:
96,96,110708,2,0,L|187:96,2,91.8750008761883,0|0|0,0:0|0:0|3:0,0:0:0:0:
344,192,111219,1,8,0:0:0:0:
248,192,111389,1,8,3:0:0:0:
152,192,111560,1,8,3:0:0:0:
56,192,111730,1,0,0:0:0:0:
336,56,111901,6,0,P|432:56|480:128,1,183.750001752377,4|0,0:0|0:0,0:0:0:0:
344,192,112412,1,8,3:0:0:0:
480,192,112582,1,8,0:0:0:0:
280,320,112923,2,0,L|392:320,1,91.8750008761883,0|0,3:0|0:0,0:0:0:0:
128,56,113265,2,0,P|48:120|88:184,1,183.750001752377,8|0,3:0|0:0,0:0:0:0:
176,192,113775,1,8,3:0:0:0:
416,192,113946,1,8,0:0:0:0:
312,328,114117,2,0,P|216:328|192:248,1,183.750001752377
368,56,114628,6,0,P|256:56|208:112,1,183.750001752377,8|0,3:0|0:0,0:0:0:0:
104,192,115139,1,8,3:0:0:0:
384,328,115310,2,0,P|464:256|424:200,1,183.750001752377,8|0,0:0|0:0,0:0:0:0:
336,192,115821,1,0,0:0:0:0:
104,48,115991,6,0,L|208:48,1,91.8750008761883,0|0,3:0|0:0,0:0:0:0:
16,192,116332,2,0,L|16:96,1,91.8750008761883
288,256,116673,2,0,L|384:256,1,91.8750008761883,8|8,0:0|3:0,0:0:0:0:
136,320,117014,2,0,L|24:320,1,91.8750008761883,8|0,3:0|0:0,0:0:0:0:
344,48,117355,6,0,P|432:136|336:224,1,275.625002628565,4|8,0:0|3:0,0:0:0:0:
176,192,118037,1,8,0:0:0:0:
376,304,118378,2,0,L|472:304,1,91.8750008761883,0|0,3:0|0:0,0:0:0:0:
184,64,118719,2,0,P|296:64|344:128,1,183.750001752377,8|0,3:0|0:0,0:0:0:0:
232,192,119230,1,8,3:0:0:0:
472,192,119400,1,8,0:0:0:0:
368,304,119571,2,0,L|176:304,1,183.750001752377
424,40,120083,6,0,P|312:40|264:88,1,183.750001752377,8|0,3:0|0:0,0:0:0:0:
368,192,120594,1,8,3:0:0:0:
136,208,120764,2,0,L|136:299,1,91.8750008761883,8|0,0:0|0:0,0:0:0:0:
312,48,121106,2,0,P|216:48|160:112,1,183.750001752377,0|0,3:0|0:0,0:0:0:0:
64,192,121616,1,0,3:0:0:0:
168,288,121787,2,0,L|76:288,1,91.8750008761883
320,96,122128,5,0,3:0:0:0:
384,96,122241,1,0,3:0:0:0:
320,96,122355,1,0,3:0:0:0:
128,192,122469,1,0,3:0:0:0:
64,192,122582,1,0,3:0:0:0:
128,192,122696,1,0,3:0:0:0:
408,320,122810,6,0,L|408:224,1,91.8750008761883,4|0,0:0|0:0,0:0:0:0:
232,296,123151,2,0,P|112:296|72:248,1,183.750001752377,0|8,0:0|0:0,0:0:0:0:
176,192,123662,1,0,0:0:0:0:
416,72,123833,2,0,L|288:72,2,91.8750008761883,4|0|0,0:0|0:0|0:0,0:0:0:0:
240,56,124344,2,0,P|136:56|80:120,1,183.750001752377
320,144,124855,2,0,L|228:144,1,91.8750008761883,8|0,0:0|3:0,0:0:0:0:
392,240,125196,2,0,L|483:240,1,91.8750008761883,0|0,3:0|0:0,0:0:0:0:
152,192,125537,5,4,0:0:0:0:
344,192,125878,1,0,0:0:0:0:
48,256,126219,2,0,L|48:360,1,91.8750008761883,8|0,0:0|0:0,0:0:0:0:
328,96,126560,2,0,L|144:96,2,183.750001752377,4|0|0,0:0|0:0|0:0,0:0:0:0:
24,192,127582,1,8,0:0:0:0:
272,304,127923,2,0,L|408:304,1,91.8750008761883,0|0,3:0|0:0,0:0:0:0:
112,112,128264,5,0,3:0:0:0:
224,112,128434,1,0,3:0:0:0:
336,112,128605,1,0,3:0:0:0:
448,112,128775,1,0,3:0:0:0:
200,264,128946,2,0,L|88:264,1,91.8750008761883,8|0,0:0|0:0,0:0:0:0:
392,192,129287,6,0,P|360:112|272:112,1,183.750001752377,4|0,0:0|0:0,0:0:0:0:
96,192,129799,2,0,P|40:256|104:320,1,183.750001752377,0|0,3:0|0:0,0:0:0:0:
352,248,130309,1,8,0:0:0:0:
416,248,130423,1,0,3:0:0:0:
480,248,130537,1,0,3:0:0:0:
176,48,130650,1,0,3:0:0:0:
112,48,130764,1,0,3:0:0:0:
176,48,130878,1,0,3:0:0:0:
416,192,130991,5,4,0:0:0:0:
136,192,131503,1,0,3:0:0:0:
376,192,131673,1,8,0:0:0:0:
136,128,132015,2,0,P|248:80|344:264,1,367.500003504753,4|8,0:0|3:0,0:0:0:0:
240,192,132866,1,0,0:0:0:0:
488,80,133037,1,8,0:0:0:0:
384,80,133207,1,0,3:0:0:0:
488,80,133378,1,0,3:0:0:0:
200,192,133719,5,0,3:0:0:0:
440,192,133889,1,4,0:0:0:0:
176,280,134230,1,0,3:0:0:0:
408,280,134400,1,4,0:0:0:0:
136,192,134741,1,0,3:0:0:0:
376,192,134912,2,0,P|344:288|184:288,1,275.625002628565,4|0,0:0|3:0,0:0:0:0:
360,192,135594,1,0,0:0:0:0:
120,192,135764,5,8,0:0:0:0:
64,192,135878,1,0,3:0:0:0:
120,192,135992,1,0,3:0:0:0:
320,56,136106,1,0,3:0:0:0:
384,56,136219,1,0,3:0:0:0:
88,192,136446,1,4,0:0:0:0:
256,192,136787,8,0,138833,0:0:0:0:
112,192,139059,5,2,0:0:0:0:
80,192,139116,1,0,0:0:0:0:
48,192,139174,1,2,0:0:0:0:
360,184,140197,1,2,0:0:0:0:
112,80,140593,1,2,0:0:0:0:
88,80,140650,1,0,0:0:0:0:
64,80,140707,1,0,0:0:0:0:
312,304,140941,6,0,L|312:242,1,52.5
144,192,141437,1,0,0:0:0:0:
424,80,141914,6,0,L|205:79,2,212.6250008111,2|0|2,0:0|0:0|0:0,0:0:0:0:
112,280,143618,2,0,L|272:280,2,157.500006008148,0|2|0,0:0|0:0|0:0,0:0:0:0:
256,88,144532,1,0,0:0:0:0:
328,88,144633,6,0,L|480:88,2,146.999995513916,2|0|2,0:0|0:0|0:0,0:0:0:0:
416,192,145655,1,0,0:0:0:0:
160,192,145995,1,2,0:0:0:0:
384,256,146425,2,0,L|384:328,1,52.5
192,192,146924,1,0,0:0:0:0:
496,288,147357,6,0,L|336:288,2,157.500006008148,8|0|0,3:0|0:0|3:0,0:0:0:0:
196,87,148379,2,0,L|352:88,2,136.499993751526,0|0|0,3:0|0:0|3:0,0:0:0:0:
120,88,149232,1,0,0:0:0:0:
352,72,149374,2,0,L|440:72,1,78.7500030040742,8|8,0:0|3:0,0:0:0:0:
168,216,149714,2,0,L|88:216,1,78.7500030040742,8|0,3:0|0:0,0:0:0:0:
400,40,150084,6,0,P|472:128|400:256,1,275.625002628565,4|8,0:0|3:0,0:0:0:0:
224,192,150766,1,8,0:0:0:0:
424,296,151107,2,0,L|424:200,1,91.8750008761883,0|0,3:0|0:0,0:0:0:0:
184,48,151448,2,0,P|296:48|344:112,1,183.750001752377,8|0,3:0|0:0,0:0:0:0:
224,192,151959,1,8,3:0:0:0:
472,192,152130,1,8,0:0:0:0:
368,304,152300,2,0,L|184:304,1,183.750001752377
424,40,152812,6,0,P|480:96|416:160,1,183.750001752377,8|0,3:0|0:0,0:0:0:0:
312,192,153323,1,8,3:0:0:0:
72,320,153493,2,0,L|72:216,1,91.8750008761883,8|0,0:0|0:0,0:0:0:0:
248,48,153834,2,0,P|344:48|392:120,1,183.750001752377,0|0,3:0|0:0,0:0:0:0:
248,192,154346,1,0,3:0:0:0:
104,296,154516,2,0,L|195:296,1,91.8750008761883
432,192,154857,5,0,3:0:0:0:
496,192,154970,1,0,3:0:0:0:
432,192,155084,1,0,3:0:0:0:
208,72,155198,1,0,3:0:0:0:
144,72,155311,1,0,3:0:0:0:
80,72,155425,1,0,3:0:0:0:
352,320,155539,6,0,L|448:320,1,91.8750008761883,4|0,0:0|0:0,0:0:0:0:
264,224,155880,2,0,P|376:224|432:168,1,183.750001752377,0|8,0:0|0:0,0:0:0:0:
320,192,156391,1,0,0:0:0:0:
80,80,156562,2,0,L|184:80,2,91.8750008761883,4|0|0,0:0|0:0|0:0,0:0:0:0:
256,48,157073,2,0,P|368:48|416:112,1,183.750001752377
160,192,157584,1,8,0:0:0:0:
40,192,157755,1,0,3:0:0:0:
160,192,157924,1,0,3:0:0:0:
40,192,158095,1,0,0:0:0:0:
368,72,158266,6,0,L|459:72,2,91.8750008761883,4|0|0,0:0|0:0|0:0,0:0:0:0:
144,192,158948,1,8,0:0:0:0:
384,192,159289,1,0,0:0:0:0:
272,192,159459,1,0,0:0:0:0:
160,192,159630,5,0,0:0:0:0:
368,192,159971,1,0,0:0:0:0:
64,192,160312,1,8,0:0:0:0:
176,192,160482,1,8,3:0:0:0:
176,192,160653,1,8,3:0:0:0:
64,192,160823,1,0,0:0:0:0:
336,56,160993,6,0,P|432:56|480:136,1,183.750001752377,4|0,0:0|0:0,0:0:0:0:
336,192,161505,1,8,3:0:0:0:
192,192,161675,1,8,0:0:0:0:
384,320,162016,2,0,L|512:320,1,91.8750008761883,0|0,3:0|0:0,0:0:0:0:
296,48,162357,2,0,P|400:48|432:112,1,183.750001752377,8|0,3:0|0:0,0:0:0:0:
328,192,162868,1,8,3:0:0:0:
88,64,163039,2,0,P|32:128|104:184,1,183.750001752377,8|0,0:0|0:0,0:0:0:0:
184,192,163550,1,0,0:0:0:0:
416,72,163721,6,0,P|304:72|264:144,1,183.750001752377,8|0,3:0|0:0,0:0:0:0:
360,192,164232,1,8,3:0:0:0:
80,304,164403,2,0,P|168:336|248:304,1,183.750001752377,8|0,0:0|0:0,0:0:0:0:
352,192,164914,1,0,0:0:0:0:
168,48,165084,2,0,L|64:48,2,91.8750008761883,0|0|0,3:0|0:0|0:0,0:0:0:0:
456,48,165766,2,0,L|360:48,1,91.8750008761883,8|8,0:0|3:0,0:0:0:0:
128,88,166107,2,0,L|24:88,1,91.8750008761883,8|0,3:0|0:0,0:0:0:0:
368,80,166448,6,0,P|456:168|368:256,1,275.625002628565,4|8,0:0|3:0,0:0:0:0:
192,192,167130,1,8,0:0:0:0:
376,240,167471,2,0,L|280:240,1,91.8750008761883,0|0,3:0|0:0,0:0:0:0:
104,40,167812,2,0,P|48:104|128:160,1,183.750001752377,8|0,3:0|0:0,0:0:0:0:
208,192,168323,1,8,3:0:0:0:
448,288,168493,2,0,P|368:329|288:288,1,183.750001752377,8|0,0:0|0:0,0:0:0:0:
184,192,169005,1,0,0:0:0:0:
424,80,169175,6,0,P|344:40|264:88,1,183.750001752377,8|0,3:0|0:0,0:0:0:0:
360,192,169687,1,8,3:0:0:0:
80,320,169857,2,0,L|80:224,1,91.8750008761883,8|0,0:0|0:0,0:0:0:0:
256,320,170198,2,0,L|352:320,1,91.8750008761883
104,96,170539,6,0,L|195:96,1,91.8750008761883,4|0,0:0|0:0,0:0:0:0:
376,56,170880,2,0,L|488:56,1,91.8750008761883,0|8,0:0|3:0,0:0:0:0:
208,192,171221,1,8,0:0:0:0:
64,192,171391,1,0,3:0:0:0:
208,192,171562,1,0,3:0:0:0:
64,192,171732,1,0,3:0:0:0:
352,192,171903,5,4,0:0:0:0:
112,192,172925,1,0,0:0:0:0:
384,192,173311,1,2,0:0:0:0:
232,192,173654,2,0,L|232:256,1,52.5
72,192,174186,1,0,0:0:0:0:
456,288,174689,6,0,L|200:288,1,236.250009012223,2|2,0:0|0:0,0:0:0:0:
456,192,175668,1,2,0:0:0:0:
200,192,175996,1,0,0:0:0:0:
104,192,176166,1,0,0:0:0:0:
104,192,176336,1,0,0:0:0:0:
200,192,176507,1,0,0:0:0:0:
432,64,176677,5,0,3:0:0:0:
496,64,176791,1,0,3:0:0:0:
432,64,176904,1,0,3:0:0:0:
256,112,177018,1,0,3:0:0:0:
192,112,177132,1,0,3:0:0:0:
128,112,177245,1,0,3:0:0:0:
376,256,177359,6,0,L|376:176,1,78.7500030040742
216,304,177699,1,0,0:0:0:0:
344,304,177935,1,0,0:0:0:0:
400,304,178039,2,0,L|480:304,1,78.7500030040742,8|0,0:0|0:0,0:0:0:0:
200,192,178380,5,4,0:0:0:0:
48,280,178551,2,0,L|144:280,1,78.7500030040742
288,128,178892,2,0,L|448:128,1,157.500006008148
120,224,179403,2,0,L|32:224,1,78.7500030040742,8|8,0:0|3:0,0:0:0:0:
280,280,179744,2,0,L|384:280,1,78.7500030040742,8|0,3:0|0:0,0:0:0:0:
72,56,180084,6,0,P|24:112|88:160,1,157.500006008148,4|0,0:0|0:0,0:0:0:0:
360,192,180766,1,8,0:0:0:0:
264,192,180936,1,8,3:0:0:0:
168,192,181107,1,8,3:0:0:0:
72,192,181277,1,0,3:0:0:0:
352,328,181448,6,0,L|184:328,1,157.500006008148,4|0,0:0|0:0,0:0:0:0:
360,192,181959,1,8,3:0:0:0:
120,40,182130,2,0,P|72:96|128:152,1,157.500006008148,8|0,0:0|0:0,0:0:0:0:
208,152,182641,1,0,0:0:0:0:
440,120,182811,5,2,0:0:0:0:
464,120,182854,1,0,0:0:0:0:
488,120,182896,1,0,0:0:0:0:
176,120,183834,1,2,0:0:0:0:
352,192,185539,5,2,0:0:0:0:
192,192,185879,1,0,0:0:0:0:
456,192,186220,1,8,0:0:0:0:
304,192,186561,1,0,0:0:0:0:
104,328,187584,2,0,L|104:152,1,157.500006008148,2|0,0:0|0:0,0:0:0:0:
368,240,188266,6,0,L|192:240,2,157.500006008148,2|0|2,0:0|0:0|0:0,0:0:0:0:
112,192,189289,1,0,0:0:0:0:
264,88,189629,5,0,0:0:0:0:
344,112,189800,1,0,0:0:0:0:
344,112,189970,1,0,0:0:0:0:
264,88,190141,1,0,0:0:0:0:
448,320,190311,2,0,L|288:320,1,157.500006008148,2|0,0:0|0:0,0:0:0:0:
376,192,190823,1,2,0:0:0:0:
112,40,190993,6,0,P|64:72|128:136,1,157.500006008148
344,192,191675,1,8,0:0:0:0:
168,192,192016,1,0,0:0:0:0:
392,144,192698,6,0,B|392:32|392:32|392:136,1,157.500006008148,2|0,0:0|0:0,0:0:0:0:
136,192,193379,1,2,0:0:0:0:
400,64,193720,2,0,L|192:64,2,157.500006008148,0|2|0,0:0|0:0|0:0,0:0:0:0:
120,192,194743,1,2,0:0:0:0:
