osu file format v14

[General]
AudioFilename: audio.mp3
AudioLeadIn: 0
PreviewTime: 34312
Countdown: 0
SampleSet: Soft
StackLeniency: 0.7
Mode: 2
LetterboxInBreaks: 0
WidescreenStoryboard: 1

[Editor]
Bookmarks: 2778,8232,13687,19141,24596,30050,35505,40959,45050,51868,57323,62778,68232,73687,79141,84596,90050
DistanceSpacing: 1.7
BeatDivisor: 4
GridSize: 4
TimelineZoom: 1.6

[Metadata]
Title:Hoshi to Kimi ga Kieta Hi
TitleUnicode:星と君が消えた日
Artist:Ling Yuan yousa
ArtistUnicode:泠鸢yousa
Creator:Dapuluous
Version:Error's Cup
Source:崩坏学园2
Tags:星与你消失之日 崩壊学園 冷鸟 houkai gakuen mihoyo guns girl school dayz ggz honkai impact theresa apocalypse theme Beng Huai Xue Yuan 德丽莎·阿波卡利斯 テレサ・アポカリプス -Hex- AJamez Error-
BeatmapID:1642432
BeatmapSetID:752110

[Difficulty]
HPDrainRate:3
CircleSize:2.5
OverallDifficulty:5.5
ApproachRate:5.5
SliderMultiplier:1
SliderTickRate:1

[Events]
//Background and Video events
0,0,"5.png",0,0
Video,0,"Theresa_Apocalypse_Character.mp4"
//Break Periods
//Storyboard Layer 0 (Background)
//Storyboard Layer 1 (Fail)
//Storyboard Layer 2 (Pass)
//Storyboard Layer 3 (Foreground)
//Storyboard Sound Samples

[TimingPoints]
2778,631.578947368421,4,2,0,40,1,0
2778,-63.5029411764706,4,2,0,40,0,0
3093,722.89156626506,4,2,0,40,1,0
3093,-55.4811764705882,4,2,0,40,0,0
3455,681.818181818182,4,2,0,40,1,0
3455,-58.8235294117647,4,2,0,40,0,0
4799,681.818181818182,4,2,0,40,1,0
4799,-58.8235294117647,4,2,0,40,0,0
5480,697.674418604651,4,2,0,40,1,0
5480,-57.4864705882353,4,2,0,40,0,0
5828,666.666666666667,4,2,0,40,1,0
5828,-60.1605882352941,4,2,0,40,0,0
6161,681.818181818182,4,2,0,40,1,0
6161,-58.8235294117647,4,2,0,40,0,0
6868,681.818181818182,4,2,0,40,1,0
6868,-58.8235294117647,4,2,0,40,0,0
7512,714.285714285714,4,2,0,40,1,0
7512,-56.15,4,2,0,40,0,0
8226,681.818181818182,4,2,0,40,1,0
8226,-58.8235294117647,4,2,0,40,0,0
8875,681.818181818182,4,2,0,40,1,0
8875,-58.8235294117647,4,2,0,40,0,0
11602,722.89156626506,4,2,0,40,1,0
11602,-55.4811764705882,4,2,0,40,0,0
12323,681.818181818182,4,2,0,40,1,0
12323,-58.8235294117647,4,2,0,40,0,0
12663,-100,4,2,0,5,0,0
13686,681.818181818182,4,2,0,40,1,0
13686,-58.8235294117647,4,2,0,40,0,0
13687,-74.0740740740741,4,2,0,40,0,0
29368,-45.4545454545455,4,2,0,40,0,0
30050,-66.6666666666667,4,2,0,40,0,0
35504,-52.6315789473684,4,2,0,70,0,1
45049,-66.6666666666667,4,2,0,60,0,0
46413,-66.6666666666667,4,2,0,70,0,1
51101,-66.6666666666667,4,3,0,70,0,1
51867,-66.6666666666667,4,2,0,60,0,0
57322,-66.6666666666667,4,2,0,70,0,1
67607,-66.6666666666667,4,3,0,70,0,1
68231,697.674418604651,4,2,0,40,1,0
68231,-100,4,2,0,40,0,0
69626,681.818181818182,4,2,0,40,1,0
70989,714.285714285714,4,2,0,40,1,0
71703,625,4,2,0,40,1,0
72328,681.818181818182,4,2,0,40,1,0
72920,-100,4,3,0,55,0,0
73691,681.818181818182,4,2,0,60,1,0
73691,-80,4,2,0,60,0,0
79141,-100,4,2,0,60,0,0
81867,-58.8235294117647,4,2,0,40,0,0
84596,-66.6666666666667,4,2,0,40,0,0
90050,-66.6666666666667,4,2,0,40,0,0

[Colours]
Combo1 : 121,188,255
Combo2 : 255,88,100
Combo3 : 128,0,128

[HitObjects]
136,200,2778,6,0,L|34:200,1,78.736510638758,2|0,0:0|0:0,0:0:0:0:
136,200,3454,1,8,0:0:0:0:
240,200,3795,2,0,L|140:40,1,170.000003242493,0|0,0:0|0:0,0:0:0:0:
264,44,4799,2,0,L|380:36,1,85.0000016212464,2|0,0:0|0:0,0:0:0:0:
496,120,5480,6,0,L|392:132,1,86.976988908828,2|0,0:0|0:0,0:0:0:0:
292,140,6161,1,2,0:0:0:0:
176,192,6501,2,0,L|148:376,1,176.12,0|0,0:0|0:0,0:0:0:0:
272,372,7512,2,0,L|384:348,1,89.0471925934954,2|0,0:0|0:0,0:0:0:0:
208,288,8226,6,0,L|100:264,1,85.0000016212464,2|0,0:0|0:0,0:0:0:0:
208,284,8875,1,8,0:0:0:0:
336,216,9215,2,0,L|164:152,1,170.000003242493,0|0,0:0|0:0,0:0:0:0:
276,88,10238,2,0,L|400:72,1,85.0000016212464,2|0,0:0|0:0,0:0:0:0:
276,176,10920,6,0,L|176:192,2,85.0000016212464,2|0|0,0:0|0:0|0:0,0:0:0:0:
432,232,11963,2,0,P|456:296|340:376,1,217,0|0,0:0|0:0,0:0:0:0:
132,280,13686,6,0,L|44:224,1,85.0000016212464,2|0,0:0|0:0,0:0:0:0:
156,184,14367,2,0,L|276:160,1,101.250000386238,2|0,0:0|0:0,0:0:0:0:
288,160,15049,2,0,L|184:140,1,101.250000386238,2|0,0:0|0:0,0:0:0:0:
448,184,16413,6,0,L|328:192,1,101.250000386238,2|0,0:0|0:0,0:0:0:0:
431,254,17265,1,0,0:0:0:0:
360,292,17606,2,0,L|236:284,1,101.250000386238
156,279,18458,2,0,L|83:227,1,67.5000002574921,2|0,0:0|0:0,0:0:0:0:
256,184,19140,6,0,B|320:216|320:216|256:240,1,135.000000514984,2|2,0:0|0:0,0:0:0:0:
148,204,20163,1,0,0:0:0:0:
260,112,20504,2,0,L|356:64,2,101.250000386238,2|0|0,0:0|0:0|0:0,0:0:0:0:
356,212,21867,6,0,L|489:233,1,135.000000514984,2|2,0:0|0:0,0:0:0:0:
400,320,22890,1,0,0:0:0:0:
276,280,23231,2,0,L|120:300,1,135.000000514984,2|0,0:0|0:0,0:0:0:0:
256,208,24254,1,0,0:0:0:0:
416,196,24595,6,0,P|444:108|400:96,1,135.000000514984,2|0,0:0|0:0,0:0:0:0:
320,88,25617,1,0,0:0:0:0:
224,136,25958,2,0,L|120:88,2,101.250000386238,2|0|0,0:0|0:0|0:0,0:0:0:0:
344,204,27322,6,0,L|472:192,2,101.250000386238,2|0|0,0:0|0:0|0:0,0:0:0:0:
136,292,29367,2,0,L|80:296,2,50.6250001931191,2|0|0,0:0|0:0|0:0,0:0:0:0:
228,240,30049,6,0,L|424:120,1,220.000006713867,2|2,0:0|0:0,0:0:0:0:
344,348,31072,2,0,L|248:360,1,75.0000028610231,2|0,0:0|0:0,0:0:0:0:
152,368,31754,1,2,0:0:0:0:
264,264,32095,2,0,L|368:276,1,75.0000028610231,2|0,0:0|0:0,0:0:0:0:
184,200,32776,6,0,P|136:120|176:104,1,150.000005722046,2|0,0:0|0:0,0:0:0:0:
268,128,33799,1,2,0:0:0:0:
400,56,34140,1,0,0:0:0:0:
296,24,34481,2,0,L|212:16,2,75.0000028610231,2|0|0,0:0|0:0|0:0,0:0:0:0:
452,108,35504,6,0,P|472:164|384:280,1,189.999994926453,4|8,0:0|0:0,0:0:0:0:
312,228,36526,1,0,3:0:0:0:
208,304,36867,2,0,L|96:320,1,94.9999974632264,0|0,3:0|3:0,0:0:0:0:
260,204,37549,2,0,L|144:192,1,94.9999974632264,8|0,0:0|0:0,0:0:0:0:
336,88,38231,6,0,P|392:160|316:212,2,189.999994926453,8|8|0,3:0|0:0|3:0,0:0:0:0:
224,56,39936,1,0,0:0:0:0:
108,120,40276,2,0,L|52:200,1,94.9999974632264,8|8,0:0|3:0,0:0:0:0:
232,256,40958,6,0,P|300:240|448:248,1,189.999994926453,4|8,0:0|0:0,0:0:0:0:
320,340,41981,1,0,3:0:0:0:
200,280,42322,2,0,L|168:156,1,94.9999974632264,0|0,3:0|3:0,0:0:0:0:
320,160,43004,2,0,L|340:48,1,94.9999974632264,8|0,0:0|0:0,0:0:0:0:
180,48,43686,6,0,B|84:56|84:56|176:76,1,189.999994926453,8|8,3:0|0:0,0:0:0:0:
312,64,44708,1,0,3:0:0:0:
200,176,45049,2,0,L|100:192,1,75.0000028610231,0|8,3:0|3:0,0:0:0:0:
208,276,45731,2,0,L|316:292,1,75.0000028610231,8|8,0:0|0:0,0:0:0:0:
448,248,46413,6,0,P|488:180|436:112,1,150.000005722046,4|8,0:0|0:0,0:0:0:0:
328,92,47436,1,0,3:0:0:0:
228,172,47776,2,0,L|140:180,1,75.0000028610231,0|0,3:0|3:0,0:0:0:0:
268,56,48458,2,0,L|176:68,1,75.0000028610231,8|0,0:0|3:0,0:0:0:0:
268,96,49140,5,8,3:0:0:0:
376,128,49481,2,0,L|460:168,1,75.0000028610231,0|8,0:0|0:0,0:0:0:0:
284,292,50163,2,0,L|112:268,1,150.000005722046,4|0,0:0|3:0,0:0:0:0:
272,192,51186,2,0,L|360:184,1,75.0000028610231
188,136,51867,6,0,L|24:120,2,150.000005722046,4|8|0,0:0|0:0|3:0,0:0:0:0:
328,72,53572,1,0,0:0:0:0:
432,160,53913,2,0,L|472:244,1,75.0000028610231,8|0,0:0|3:0,0:0:0:0:
352,312,54595,6,0,L|256:300,1,75.0000028610231,4|0,0:0|3:0,0:0:0:0:
360,192,55276,2,0,L|276:204,1,75.0000028610231,8|0,0:0|3:0,0:0:0:0:
144,192,55958,2,0,B|72:164|72:164|156:136,1,150.000005722046,0|8,3:0|0:0,0:0:0:0:
236,40,56981,1,8,3:0:0:0:
408,156,57322,6,0,P|340:224|292:264,1,150.000005722046,4|8,0:0|0:0,0:0:0:0:
192,200,58345,1,0,3:0:0:0:
92,268,58686,2,0,L|72:364,1,75.0000028610231,0|0,3:0|3:0,0:0:0:0:
196,220,59367,2,0,L|204:328,1,75.0000028610231,8|0,0:0|3:0,0:0:0:0:
304,156,60049,6,0,L|464:140,2,150.000005722046,8|8|0,3:0|0:0|3:0,0:0:0:0:
200,96,61754,1,0,3:0:0:0:
80,148,62095,2,0,L|12:200,1,75.0000028610231,8|8,0:0|3:0,0:0:0:0:
168,228,62776,6,0,P|260:224|348:232,2,150.000005722046,4|8|0,0:0|0:0|3:0,0:0:0:0:
76,316,64481,1,0,3:0:0:0:
184,340,64822,2,0,L|288:328,1,75.0000028610231,8|0,0:0|0:0,0:0:0:0:
408,244,65504,6,0,B|480:228|480:228|404:216,2,150.000005722046,0|8|8,3:0|0:0|3:0,0:0:0:0:
296,216,67208,1,0,3:0:0:0:
204,280,67549,2,0,L|100:288,1,75.0000028610231,8|8,0:0|0:0,0:0:0:0:
288,172,68231,6,0,L|408:184,2,100,4|0|2,0:0|0:0|0:0,0:0:0:0:
160,128,70137,2,0,L|228:112,1,50,2|0,0:0|0:0,0:0:0:0:
352,64,70989,6,0,L|448:72,1,75,2|2,0:0|0:0,0:0:0:0:
352,156,72015,1,2,0:0:0:0:
252,24,72328,2,0,L|184:32,1,50
112,52,73009,2,0,L|56:44,1,50
200,164,73691,6,0,L|336:180,1,125,4|8,0:0|0:0,0:0:0:0:
436,244,74713,2,0,L|316:276,1,125,4|0,0:0|0:0,0:0:0:0:
196,312,75736,2,0,L|116:304,1,62.5,8|0,0:0|3:0,0:0:0:0:
260,208,76418,6,0,B|320:192|320:192|252:176,2,125,4|8|0,0:0|0:0|3:0,0:0:0:0:
108,192,78463,1,8,3:0:0:0:
244,92,79145,1,2,0:0:0:0:
424,172,80168,1,2,0:0:0:0:
260,272,81872,6,0,L|164:264,2,85.0000016212464,2|0|8,0:0|0:0|0:0,0:0:0:0:
400,240,82895,2,0,P|440:164|376:112,1,170.000003242493
268,64,83918,2,0,L|176:68,1,85.0000016212464,2|0,0:0|0:0,0:0:0:0:
348,164,84600,6,0,L|444:156,2,75.0000028610231,2|0|2,0:0|0:0|0:0,0:0:0:0:
248,232,85622,2,0,L|88:220,1,150.000005722046
208,336,86645,2,0,L|300:328,1,75.0000028610231,2|0,0:0|0:0,0:0:0:0:
156,240,87327,6,0,L|76:232,2,75.0000028610231,8|0|8,0:0|0:0|0:0,0:0:0:0:
296,188,88350,2,0,P|344:136|292:92,1,150.000005722046
208,32,89372,1,2,0:0:0:0:
112,64,89713,1,0,0:0:0:0:
268,104,90054,6,0,L|372:88,2,75.0000028610231,2|0|0,0:0|0:0|0:0,0:0:0:0:
176,144,91077,1,0,0:0:0:0:
