osu file format v14

[General]
AudioFilename: audio.mp3
AudioLeadIn: 0
PreviewTime: 34312
Countdown: 0
SampleSet: Soft
StackLeniency: 0.7
Mode: 2
LetterboxInBreaks: 0
WidescreenStoryboard: 1

[Editor]
Bookmarks: 2778,8232,13687,19141,24596,30050,35505,40959,45050,51868,57323,62778,68232,73687,79141,84596,90050
DistanceSpacing: 1.1
BeatDivisor: 4
GridSize: 32
TimelineZoom: 1.6

[Metadata]
Title:Hoshi to Kimi ga Kieta Hi
TitleUnicode:星と君が消えた日
Artist:Ling Yuan yousa
ArtistUnicode:泠鸢yousa
Creator:Dapuluous
Version:AJamez's Salad
Source:崩坏学园2
Tags:星与你消失之日 崩壊学園 冷鸟 houkai gakuen mihoyo guns girl school dayz ggz honkai impact theresa apocalypse theme Beng Huai Xue Yuan 德丽莎·阿波卡利斯 テレサ・アポカリプス -Hex- AJamez Error-
BeatmapID:1642601
BeatmapSetID:752110

[Difficulty]
HPDrainRate:4
CircleSize:3
OverallDifficulty:6.5
ApproachRate:6.5
SliderMultiplier:1.5
SliderTickRate:2

[Events]
//Background and Video events
0,0,"5.png",0,0
Video,0,"Theresa_Apocalypse_Character.mp4"
//Break Periods
2,68431,72034
//Storyboard Layer 0 (Background)
//Storyboard Layer 1 (Fail)
//Storyboard Layer 2 (Pass)
//Storyboard Layer 3 (Foreground)
//Storyboard Sound Samples

[TimingPoints]
2778,631.578947368421,4,2,0,40,1,0
2778,-66.6666666666667,4,2,0,40,0,0
3093,722.89156626506,4,2,0,40,1,0
3093,-66.6666666666667,4,2,0,40,0,0
3455,681.818181818182,4,2,0,40,1,0
3455,-66.6666666666667,4,2,0,40,0,0
4799,681.818181818182,4,2,0,40,1,0
4799,-66.6666666666667,4,2,0,40,0,0
5480,697.674418604651,4,2,0,40,1,0
5480,-66.6666666666667,4,2,0,40,0,0
5828,666.666666666667,4,2,0,40,1,0
6161,681.818181818182,4,2,0,40,1,0
6868,681.818181818182,4,2,0,40,1,0
6868,-66.6666666666667,4,2,0,40,0,0
7512,714.285714285714,4,2,0,40,1,0
7512,-66.6666666666667,4,2,0,40,0,0
8226,681.818181818182,4,2,0,40,1,0
8226,-66.6666666666667,4,2,0,40,0,0
8875,681.818181818182,4,2,0,40,1,0
11602,722.89156626506,4,2,0,40,1,0
12323,681.818181818182,4,2,0,40,1,0
12323,-66.6666666666667,4,2,0,40,0,0
13686,681.818181818182,4,2,0,40,1,0
13687,-74.0740740740741,4,2,0,40,0,0
30050,-74.0740740740741,4,2,0,50,0,0
35504,-52.6315789473684,4,2,0,70,0,1
45049,-52.6315789473684,4,2,0,60,0,0
46413,-52.6315789473684,4,2,0,70,0,1
51101,-52.6315789473684,4,3,0,50,0,1
51867,-52.6315789473684,4,2,0,60,0,0
57322,-52.6315789473684,4,2,0,70,0,1
67493,-52.6315789473684,4,2,0,70,0,1
67607,-52.6315789473684,4,3,0,70,0,1
68231,697.674418604651,4,2,0,40,1,0
68231,-74.0740740740741,4,2,0,40,0,0
69626,681.818181818182,4,2,0,40,1,0
70989,714.285714285714,4,2,0,40,1,0
71703,625,4,2,0,40,1,0
72328,681.818181818182,4,2,0,40,1,0
72920,-74.0740740740741,4,3,0,50,0,0
73691,681.818181818182,4,2,0,60,1,0
73691,-52.6315789473684,4,2,0,60,0,0
81868,-66.6666666666667,4,2,0,40,0,0
90050,-66.6666666666667,4,2,0,40,0,0

[Colours]
Combo1 : 121,188,255
Combo2 : 255,88,100
Combo3 : 128,0,128

[HitObjects]
281,207,2778,5,2,0:0:0:0:
168,201,3093,1,0,0:0:0:0:
281,207,3454,1,8,0:0:0:0:
124,312,3795,1,0,0:0:0:0:
445,200,4799,6,0,L|429:73,1,112.500004291535,2|0,0:0|0:0,0:0:0:0:
256,288,5480,1,2,0:0:0:0:
367,300,5828,1,0,0:0:0:0:
256,288,6161,1,2,0:0:0:0:
103,321,6501,5,0,0:0:0:0:
274,184,7208,2,0,L|279:123,1,56.2500021457673
261,89,7512,2,0,L|135:78,1,112.500004291535,2|0,0:0|0:0,0:0:0:0:
410,312,8226,6,0,P|408:256|377:210,1,112.500004291535,2|0,0:0|0:0,0:0:0:0:
232,164,8875,1,8,0:0:0:0:
363,127,9215,1,0,0:0:0:0:
107,317,9897,1,0,0:0:0:0:
50,226,10238,1,2,0:0:0:0:
106,135,10579,1,0,0:0:0:0:
213,145,10920,5,2,0:0:0:0:
96,160,11261,1,0,0:0:0:0:
213,145,11602,1,2,0:0:0:0:
371,172,11963,1,0,0:0:0:0:
208,274,12493,2,0,L|201:336,2,56.2500021457673,0|0|0,0:0|0:0|0:0,0:0:0:0:
480,271,13686,5,2,0:0:0:0:
301,223,14367,2,0,P|317:158|266:84,1,151.875000579357,2|0,0:0|0:0,0:0:0:0:
194,153,15049,2,0,P|254:176|353:158,1,151.875000579357,2|0,0:0|0:0,0:0:0:0:
141,315,16242,1,0,0:0:0:0:
66,254,16413,6,0,P|128:226|217:266,2,151.875000579357,2|0|0,0:0|0:0|0:0,0:0:0:0:
274,220,18289,1,0,0:0:0:0:
208,193,18459,2,0,P|223:105|255:90,1,101.250000386238,2|0,0:0|0:0,0:0:0:0:
425,79,19140,5,2,0:0:0:0:
234,288,19822,2,0,P|162:294|100:283,1,101.250000386238,2|0,0:0|0:0,0:0:0:0:
279,203,20504,2,0,P|344:189|401:214,1,101.250000386238,2|0,0:0|0:0,0:0:0:0:
305,105,21015,2,0,P|250:117|123:87,1,151.875000579357,0|0,0:0|0:0,0:0:0:0:
437,133,21867,6,0,P|498:177|357:271,1,303.750001158714,2|0,0:0|0:0,0:0:0:0:
301,242,23061,2,0,P|248:215|355:134,1,253.125000965595,0|0,0:0|0:0,0:0:0:0:
454,139,24254,1,0,0:0:0:0:
221,207,24595,6,0,P|143:194|42:256,1,202.500000772476,2|0,0:0|0:0,0:0:0:0:
159,327,25617,1,0,0:0:0:0:
303,300,25958,2,0,L|316:182,1,101.250000386238,2|0,0:0|0:0,0:0:0:0:
249,149,26470,2,0,P|185:129|225:42,1,151.875000579357,0|0,0:0|0:0,0:0:0:0:
425,92,27322,5,2,0:0:0:0:
249,149,27833,1,0,0:0:0:0:
411,228,28345,2,0,L|411:346,1,101.250000386238,2|0,0:0|0:0,0:0:0:0:
200,370,29367,2,0,L|105:370,2,75.9375002896786,2|0|0,0:0|0:0|0:0,0:0:0:0:
357,197,30049,6,0,P|288:174|193:185,2,151.875000579357,2|0|0,0:0|0:0|0:0,0:0:0:0:
469,253,31413,1,0,0:0:0:0:
241,259,32095,2,0,P|208:234|276:177,1,151.875000579357,2|0,0:0|0:0,0:0:0:0:
343,173,32776,6,0,P|375:112|276:66,1,202.500000772476,2|0,0:0|0:0,0:0:0:0:
383,60,33799,1,0,0:0:0:0:
223,142,34140,2,0,P|202:215|232:300,1,151.875000579357,2|0,0:0|0:0,0:0:0:0:
288,297,34822,2,0,B|337:318|337:318|402:291,1,101.250000386238,0|0,0:0|0:0,0:0:0:0:
64,263,35504,6,0,P|25:176|188:124,1,284.999992389679,4|8,0:0|0:0,0:0:0:0:
316,117,36526,1,0,3:0:0:0:
146,293,36867,2,0,P|219:315|296:288,2,142.49999619484,0|0|8,3:0|3:0|0:0,0:0:0:0:
300,211,37890,1,0,0:0:0:0:
31,167,38231,6,0,P|43:98|106:58,1,142.49999619484,8|0,3:0|3:0,0:0:0:0:
252,71,38913,2,0,L|405:72,1,142.49999619484,8|0,0:0|3:0,0:0:0:0:
317,125,39424,1,0,0:0:0:0:
240,168,39595,6,0,P|170:197|157:266,1,142.49999619484,0|0,3:0|0:0,0:0:0:0:
312,342,40276,1,8,0:0:0:0:
240,343,40447,1,8,3:0:0:0:
169,345,40617,1,8,3:0:0:0:
469,274,40958,6,0,P|492:208|326:124,1,284.999992389679,4|8,0:0|0:0,0:0:0:0:
481,112,41981,1,0,3:0:0:0:
339,232,42322,2,0,P|277:252|190:216,1,142.49999619484,0|0,3:0|3:0,0:0:0:0:
391,161,43004,2,0,P|422:232|390:306,1,142.49999619484,8|0,0:0|0:0,0:0:0:0:
147,142,43686,6,0,P|234:129|298:157,2,142.49999619484,8|0|8,3:0|3:0|0:0,0:0:0:0:
25,201,44708,1,0,3:0:0:0:
171,258,45049,2,0,L|189:331,2,71.2499980974198,0|0|8,3:0|0:0|3:0,0:0:0:0:
334,160,45731,2,0,L|316:233,2,71.2499980974198,8|8|8,0:0|3:0|3:0,0:0:0:0:
59,137,46413,6,0,P|142:108|113:271,1,284.999992389679,4|8,0:0|0:0,0:0:0:0:
26,300,47436,1,0,3:0:0:0:
174,346,47776,2,0,P|252:360|334:330,1,142.49999619484,0|0,3:0|3:0,0:0:0:0:
126,247,48458,2,0,P|109:178|152:123,1,142.49999619484,8|0,0:0|3:0,0:0:0:0:
421,214,49140,2,0,P|334:227|267:201,2,142.49999619484,8|0|8,3:0|0:0|0:0,0:0:0:0:
164,83,50163,6,0,P|254:62|335:229,1,284.999992389679,4|0,0:0|3:0,0:0:0:0:
202,222,51186,2,0,L|357:203,1,142.49999619484
99,270,51867,6,0,P|11:198|123:182,1,284.999992389679,4|8,0:0|0:0,0:0:0:0:
299,173,52890,2,0,P|337:102|174:29,1,284.999992389679,4|0,0:0|0:0,0:0:0:0:
359,327,53913,1,8,0:0:0:0:
288,321,54083,1,0,0:0:0:0:
217,316,54254,1,0,3:0:0:0:
506,145,54595,6,0,P|360:130|347:251,1,284.999992389679,4|8,0:0|0:0,0:0:0:0:
490,287,55617,2,0,L|479:359,1,71.2499980974198,0|0,3:0|3:0,0:0:0:0:
310,94,56299,2,0,P|241:71|171:100,2,142.49999619484,0|8|8,0:0|0:0|3:0,0:0:0:0:
41,299,57322,6,0,P|21:242|64:160,1,142.49999619484,4|0,0:0|0:0,0:0:0:0:
195,59,58004,2,0,P|215:116|163:187,1,142.49999619484,8|0,0:0|3:0,0:0:0:0:
76,247,58515,2,0,P|145:303|238:206,1,213.749994292259,0|0,3:0|3:0,0:0:0:0:
493,355,59367,6,0,P|394:302|293:392,2,213.749994292259,8|0|0,0:0|3:0|3:0,0:0:0:0:
319,222,60732,1,8,0:0:0:0:
153,168,61242,1,0,0:0:0:0:
97,180,61414,2,0,L|139:336,1,142.49999619484,0|0,3:0|0:0,0:0:0:0:
320,82,62096,2,0,L|337:169,2,71.2499980974198,8|8|8,0:0|3:0|3:0,0:0:0:0:
41,202,62776,6,0,P|101:207|191:164,2,142.49999619484,4|0|8,0:0|0:0|0:0,0:0:0:0:
197,305,63800,1,0,3:0:0:0:
352,288,64141,2,0,P|358:222|288:192,1,142.49999619484,0|0,3:0|3:0,0:0:0:0:
155,192,64823,2,0,P|87:187|39:273,1,142.49999619484,8|0,0:0|0:0,0:0:0:0:
326,237,65505,2,0,P|293:111|160:128,1,284.999992389679,0|8,3:0|0:0,0:0:0:0:
20,257,66526,1,0,3:0:0:0:
306,179,66868,6,0,P|368:164|448:207,1,142.49999619484,8|0,3:0|3:0,0:0:0:0:
275,316,67549,1,8,0:0:0:0:
330,312,67720,1,8,0:0:0:0:
380,337,67890,1,8,0:0:0:0:
106,381,68231,1,4,0:0:0:0:
374,258,73009,6,0,P|434:229|438:169,1,101.250000386238
164,108,73691,6,0,P|64:192|192:256,1,284.999992389679,4|8,0:0|0:0,0:0:0:0:
359,311,74713,2,0,L|446:309,1,71.2499980974198,4|0,0:0|0:0,0:0:0:0:
488,295,75054,2,0,P|482:231|401:206,1,142.49999619484,0|0,3:0|0:0,0:0:0:0:
245,77,75736,2,0,P|315:60|401:87,1,142.49999619484,8|0,0:0|3:0,0:0:0:0:
74,289,76418,6,0,P|11:213|168:179,1,284.999992389679,4|8,0:0|0:0,0:0:0:0:
209,145,77270,1,0,0:0:0:0:
137,141,77441,1,0,3:0:0:0:
410,359,77781,6,0,P|441:289|307:229,1,213.749994292259,4|0,0:0|0:0,0:0:0:0:
267,233,78463,1,8,3:0:0:0:
436,158,78804,2,0,L|441:77,1,71.2499980974198,0|0,3:0|0:0,0:0:0:0:
402,69,79061,1,0,0:0:0:0:
364,62,79145,6,0,P|298:67|357:210,1,284.999992389679,2|0,0:0|0:0,0:0:0:0:
179,249,80168,2,0,P|98:241|143:118,1,213.749994292259,2|0,0:0|0:0,0:0:0:0:
474,84,81361,1,2,0:0:0:0:
132,346,81872,6,0,P|219:352|256:320,2,112.500004291535,2|0|8,0:0|0:0|0:0,0:0:0:0:
45,319,82895,2,0,P|50:252|156:132,1,225.000008583069,2|0,0:0|0:0,0:0:0:0:
236,100,83918,1,0,0:0:0:0:
325,86,84259,1,0,0:0:0:0:
201,195,84600,6,0,P|141:230|74:226,2,112.500004291535,2|0|0,0:0|0:0|0:0,0:0:0:0:
308,208,85622,2,0,P|209:251|134:363,1,225.000008583069,2|0,0:0|0:0,0:0:0:0:
153,365,86475,1,0,0:0:0:0:
174,376,86645,1,0,0:0:0:0:
277,361,86986,1,0,0:0:0:0:
387,324,87327,6,0,L|389:205,1,112.500004291535,2|0,0:0|0:0,0:0:0:0:
138,267,88009,2,0,P|153:189|186:172,1,112.500004291535,8|0,0:0|0:0,0:0:0:0:
235,167,88521,1,0,0:0:0:0:
418,165,89031,2,0,L|305:158,2,112.500004291535,2|0|0,0:0|0:0|0:0,0:0:0:0:
283,240,90054,5,2,0:0:0:0:
224,151,90395,1,0,0:0:0:0:
285,64,90736,1,2,0:0:0:0:
388,90,91077,1,0,0:0:0:0:
