osu file format v14

[General]
AudioFilename: audio.mp3
AudioLeadIn: 0
PreviewTime: 87582
Countdown: 1
SampleSet: Normal
StackLeniency: 0.4
Mode: 0
LetterboxInBreaks: 0
WidescreenStoryboard: 0

[Editor]
Bookmarks: 16496,29782,57639,71353,88496,143339,150089,163902,187925,193795,222211,249616,277068
DistanceSpacing: 0.85
BeatDivisor: 4
GridSize: 8
TimelineZoom: 1

[Metadata]
Title:Hei Mao
TitleUnicode:黑猫
Artist:Ling Yuan yousa
ArtistUnicode:泠鸢yousa
Creator:Kite
Version:Struggle
Source:
Tags:chinese rock shiroki shino haku inori 白祈 シロキ aditalfian Bai Qi QSR kuroneko black cat 黒猫 megpoid gumi vocaloid utaite cover
BeatmapID:1730786
BeatmapSetID:825761

[Difficulty]
HPDrainRate:5
CircleSize:5
OverallDifficulty:7
ApproachRate:8.3
SliderMultiplier:1.4
SliderTickRate:1

[Events]
//Background and Video events
0,0,"aditalfian bai qi qsr.jpg",0,0
//Break Periods
//Storyboard Layer 0 (Background)
//Storyboard Layer 1 (Fail)
//Storyboard Layer 2 (Pass)
//Storyboard Layer 3 (Foreground)
//Storyboard Layer 4 (Overlay)
//Storyboard Sound Samples

[TimingPoints]
1011,428.571428571429,4,1,1,40,1,0
1439,-1000,4,1,1,20,0,0
2618,-1000,4,1,1,5,0,0
2725,-500,4,1,1,40,0,0
6582,-500,4,1,1,10,0,0
6689,-500,4,1,1,20,0,0
7868,-500,4,1,1,5,0,0
8618,-1000,4,1,1,20,0,0
9475,-1000,4,1,1,5,0,0
9582,-1000,4,1,1,20,0,0
10225,-1000,4,1,1,10,0,0
10439,-1000,4,1,1,30,0,0
11618,-1000,4,1,1,20,0,0
11939,-1000,4,1,1,10,0,0
12153,-1000,4,1,1,30,0,0
12796,-1000,4,1,1,20,0,0
12903,-1000,4,1,1,40,0,0
13332,-1000,4,1,1,20,0,0
13653,-1000,4,1,1,10,0,0
14618,-1000,4,1,1,20,0,0
15368,-1000,4,1,1,10,0,0
15903,-1000,4,1,1,15,0,0
16439,-500,4,1,1,40,0,0
16761,-500,4,1,1,30,0,0
16975,-500,4,1,1,5,0,0
17082,-500,4,1,1,40,0,0
18046,-500,4,1,1,30,0,0
18368,-500,4,1,1,15,0,0
18796,-500,4,1,1,30,0,0
19225,-500,4,1,1,20,0,0
19653,-500,4,1,1,40,0,0
20296,-500,4,1,1,10,0,0
20403,-500,4,1,1,40,0,0
21368,-500,4,1,1,50,0,0
21903,-500,4,1,1,40,0,0
22118,-500,4,1,1,30,0,0
22975,-500,4,1,1,30,0,0
23296,-500,4,1,1,40,0,0
23403,-500,4,1,1,40,0,0
23939,-666.666666666667,4,1,1,30,0,0
26618,-666.666666666667,4,1,1,5,0,0
26725,-666.666666666667,4,1,1,30,0,0
27153,-666.666666666667,4,1,1,20,0,0
27582,-666.666666666667,4,1,1,15,0,0
29725,-222.222222222221,4,1,1,30,0,0
37011,-181.818181818182,4,1,1,30,0,0
37546,-222.222222222223,4,1,1,30,0,0
43868,-181.818181818182,4,1,1,30,0,0
45582,-200,4,1,1,30,0,0
47296,-166.666666666667,4,1,1,30,0,0
48582,-200,4,1,1,30,0,0
53618,-222.222222222222,4,1,1,30,0,0
55761,-285.714285714286,4,1,1,30,0,0
57582,-200,4,1,1,30,0,0
58868,-250,4,1,1,30,0,0
71296,-200,4,1,1,30,0,0
74725,-153.846153846154,4,1,1,30,0,0
76439,-142.857142857143,4,1,1,30,0,0
77296,-142.857142857143,4,1,1,30,0,0
85011,-666.666666666667,4,1,1,30,0,0
88431,428.571428571429,4,1,1,60,1,0
143288,-111.111111111111,4,1,1,60,0,0
150145,-99.9999999999999,4,1,1,60,0,0
187966,-99.9999999999999,4,1,1,5,0,0
193752,-666.666666666667,4,1,1,30,0,0
194716,-666.666666666667,4,1,1,60,0,0
195145,-666.666666666667,4,1,1,25,0,0
217752,-666.666666666667,4,1,1,30,0,0
218609,-666.666666666667,4,1,1,50,0,0
220538,-666.666666666667,4,1,1,60,0,0
220752,-666.666666666667,4,1,1,5,0,0
220859,-666.666666666667,4,1,1,60,0,0
220966,-666.666666666667,4,1,1,5,0,0
221073,-666.666666666667,4,1,1,60,0,0
221181,-666.666666666667,4,1,1,5,0,0
221288,-666.666666666667,4,1,1,50,0,0
222145,-100,4,1,1,60,0,0
249573,-90.9090909090909,4,1,1,60,0,1
275073,441.176470588235,4,1,1,60,1,1
276038,-90.9090909090909,4,1,1,40,0,1
276175,517.241379310345,4,1,1,40,1,1
276433,555.555555555556,4,1,1,40,1,1
276709,618.556701030928,4,1,1,40,1,1
277018,674.157303370787,4,1,1,40,1,1
277018,-500,4,1,1,40,0,1
277355,-100,4,1,1,45,0,0
280431,-100,4,1,1,40,0,0
281288,-100,4,1,1,33,0,0
282145,-100,4,1,1,25,0,0
283859,-100,4,1,1,20,0,0
285573,-100,4,1,1,15,0,0
287288,-100,4,1,1,10,0,0
289002,-100,4,1,1,5,0,0

[Colours]
Combo1 : 208,216,249
Combo2 : 152,208,254
Combo3 : 240,221,145
Combo4 : 199,216,186
Combo5 : 174,213,186
Combo6 : 215,176,209
Combo7 : 204,193,236
Combo8 : 173,248,203

[HitObjects]
73,251,1868,6,0,L|71:276,1,24.5,0|0,0:0|3:0,0:0:0:0:
70,284,2725,5,4,0:2:0:0:
70,284,4439,1,2,0:0:0:0:
164,300,5296,1,2,0:0:0:0:
256,314,6153,6,0,L|284:309,1,28,4|0,0:2|0:0,0:0:0:0:
311,327,6796,2,0,P|316:302|284:314,1,70,0|0,0:0|3:0,0:0:0:0:
397,346,8725,6,0,L|421:342,1,24.5,0|0,0:0|3:0,0:0:0:0:
429,340,9582,5,4,0:2:0:0:
477,283,10011,2,0,L|479:289,1,7,2|0,0:0|0:0,0:0:0:0:
405,270,11296,5,2,0:0:0:0:
381,199,11725,2,0,L|373:202,1,7
391,197,12153,2,0,L|411:199,1,21,2|0,0:0|0:0,0:0:0:0:
483,186,13011,5,4,0:2:0:0:
495,252,13439,1,0,0:0:0:0:
493,260,13654,1,0,0:0:0:0:
471,118,14725,2,0,L|473:95,1,21,2|0,0:0|0:0,0:0:0:0:
472,97,16011,6,0,L|471:112,1,14,0|4,0:0|0:2,0:0:0:0:
406,45,16868,2,0,B|416:44,1,7
406,45,17082,2,0,P|383:39|363:41,1,42,0|0,0:0|3:0,0:0:0:0:
271,112,18153,5,2,0:0:0:0:
250,117,18582,1,0,0:0:0:0:
81,63,19011,1,4,0:0:0:0:
99,71,19439,1,0,0:0:0:0:
47,197,19796,5,0,0:0:0:0:
47,197,19868,2,0,L|42:230,1,28,4|0,0:2|0:0,0:0:0:0:
55,266,20511,2,0,L|52:223,1,42,0|0,0:0|3:0,0:0:0:0:
73,130,21582,5,2,0:0:0:0:
156,69,22011,1,0,0:0:0:0:
156,69,22225,2,0,P|177:67|200:74,1,42
288,127,23082,6,0,L|291:125,4,3.5,0|0|0|0|4,0:0|0:0|0:0|0:0|0:2,0:0:0:0:
278,215,23725,1,0,0:0:0:0:
278,215,23939,2,0,L|289:348,1,131.249995994568,0|0,0:0|3:0,0:0:0:0:
290,354,26725,5,2,0:1:0:0:
290,354,27368,1,0,0:0:0:0:
290,354,28011,1,0,0:0:0:0:
194,238,29725,5,2,0:0:0:0:
194,238,30153,2,0,P|179:233|161:232,2,31.4999990386963,4|0|0,0:2|0:2|0:0,0:0:0:0:
257,284,30796,2,0,L|321:277,1,62.9999980773926,2|0,0:0|0:0,0:0:0:0:
384,227,31439,2,0,L|418:231,1,31.4999990386963,2|0,0:0|0:0,0:0:0:0:
330,172,31868,1,2,0:2:0:0:
314,104,32082,1,0,0:0:0:0:
339,40,32296,1,2,0:0:0:0:
269,49,32511,6,0,L|205:40,1,62.9999980773926,2|0,0:0|0:0,0:0:0:0:
339,40,33153,1,2,0:0:0:0:
395,82,33368,1,0,0:0:0:0:
455,45,33582,5,4,0:2:0:0:
461,115,33796,1,0,0:0:0:0:
476,256,34011,1,2,0:0:0:0:
482,186,34225,1,2,0:0:0:0:
476,256,34439,5,0,0:2:0:0:
482,186,34653,1,2,0:0:0:0:
461,115,34868,1,2,0:0:0:0:
455,45,35082,1,2,0:0:0:0:
476,256,35296,5,0,0:0:0:0:
461,115,35510,1,2,0:0:0:0:
482,186,35725,1,0,0:0:0:0:
455,45,35939,1,2,0:0:0:0:
455,45,36153,6,0,P|427:38|415:40,1,31.4999990386963,2|0,0:0|0:0,0:0:0:0:
294,101,36582,2,0,P|270:105|258:102,1,31.4999990386963,2|0,0:0|0:0,0:0:0:0:
350,136,37011,6,0,P|361:99|349:64,1,77.0000023498536,4|0,0:2|0:0,0:0:0:0:
365,148,37653,2,0,L|369:218,1,62.9999980773926
417,269,38296,1,2,0:0:0:0:
464,208,38511,2,0,P|488:203|501:205,2,31.4999990386963,0|2|0,0:0|0:2|0:0,0:0:0:0:
392,200,39153,1,0,0:0:0:0:
392,200,39368,2,0,L|324:195,1,62.9999980773926,2|0,0:0|0:0,0:0:0:0:
273,226,40011,2,0,L|308:222,1,31.4999990386963
209,181,40439,5,4,0:2:0:0:
160,235,40868,1,0,0:0:0:0:
167,307,41296,1,2,0:0:0:0:
160,235,41511,1,2,0:0:0:0:
209,181,41725,1,2,0:0:0:0:
136,166,41939,6,0,L|69:172,1,62.9999980773926,4|0,0:0|0:0,0:0:0:0:
30,228,42582,1,0,0:0:0:0:
30,228,42796,1,0,0:0:0:0:
75,346,43011,2,0,P|84:316|76:286,1,62.9999980773926,2|2,0:0|0:0,0:0:0:0:
72,60,43868,6,0,L|150:68,1,77.0000023498536,4|0,0:0|0:0,0:0:0:0:
221,51,44511,1,2,0:0:0:0:
271,107,44725,1,4,0:2:0:0:
348,116,44939,1,2,0:0:0:0:
416,88,45153,1,2,0:2:0:0:
454,27,45368,1,2,0:0:0:0:
490,91,45582,6,0,L|497:168,1,70
477,259,46225,2,0,P|435:257|463:225,1,105,0|4,0:0|0:2,0:0:0:0:
268,352,47296,6,0,L|351:347,1,83.9999974365235,4|0,0:0|0:0,0:0:0:0:
203,314,47939,2,0,L|160:310,1,41.9999987182618,2|0,0:0|0:0,0:0:0:0:
89,335,48368,1,2,0:0:0:0:
48,235,48582,2,0,P|67:185|117:268,1,210,2|4,0:2|0:2,0:0:0:0:
123,264,50296,1,2,0:0:0:0:
23,154,50653,5,0,0:0:0:0:
23,154,50725,2,0,L|32:107,1,35,4|0,0:0|0:0,0:0:0:0:
71,52,51153,2,0,L|80:5,1,35,2|0,0:0|0:0,0:0:0:0:
135,114,51582,2,0,P|173:133|226:105,1,105,2|0,0:2|0:0,0:0:0:0:
251,39,52439,5,4,0:2:0:0:
251,39,52868,2,0,L|286:35,1,35,2|0,0:0|0:0,0:0:0:0:
358,57,53296,2,0,L|393:53,1,35,2|0,0:2|0:0,0:0:0:0:
304,105,53725,2,0,L|291:178,1,62.9999980773926,2|4,0:0|0:0,0:0:0:0:
302,234,54368,1,0,0:0:0:0:
344,289,54582,1,2,0:0:0:0:
411,308,54796,1,2,0:0:0:0:
278,311,55011,5,0,0:0:0:0:
344,328,55225,1,2,0:0:0:0:
411,308,55439,1,2,0:0:0:0:
441,247,55653,1,2,0:0:0:0:
279,286,55868,6,0,P|277:306|279:315,1,24.4999992523194,4|0,0:0|0:0,0:0:0:0:
355,221,56296,2,0,P|353:200|350:192,1,24.4999992523194,4|0,0:2|0:0,0:0:0:0:
211,88,56725,5,2,0:0:0:0:
285,115,56940,1,0,0:0:0:0:
361,98,57154,1,2,0:0:0:0:
402,32,57368,1,2,0:0:0:0:
285,115,57582,6,0,P|280:168|286:187,1,70,4|0,0:2|0:0,0:0:0:0:
346,242,58225,2,0,L|419:233,1,70,0|0,0:1|0:0,0:0:0:0:
493,204,58868,2,0,P|416:199|428:150,1,140,0|0,0:0|3:0,0:0:0:0:
433,80,60153,5,2,0:0:0:0:
366,31,60368,1,0,0:0:0:0:
286,42,60582,1,2,0:0:0:0:
230,102,60796,1,2,0:0:0:0:
61,74,61011,6,0,L|54:37,1,28,4|0,0:0|0:0,0:0:0:0:
135,106,61439,1,0,0:0:0:0:
135,106,61653,2,0,P|129:148|133:191,1,84,2|0,0:0|0:0,0:0:0:0:
231,309,62511,2,0,P|225:267|229:224,1,84,2|0,0:0|0:0,0:0:0:0:
321,86,63368,2,0,P|315:128|319:171,1,84,2|0,0:0|0:0,0:0:0:0:
356,247,64439,5,4,0:2:0:0:
336,325,64868,1,2,0:0:0:0:
430,217,65296,2,0,P|455:212|463:213,1,28,2|0,0:0|0:0,0:0:0:0:
356,247,65725,2,0,L|297:240,1,56,2|4,0:0|0:0,0:0:0:0:
164,306,66582,1,0,0:0:0:0:
97,335,67011,1,4,0:0:0:0:
164,306,67439,1,0,0:0:0:0:
248,180,67868,6,0,P|254:140|247:120,1,56,4|0,0:2|0:0,0:0:0:0:
216,64,68725,1,2,0:0:0:0:
288,69,68939,1,2,0:0:0:0:
360,74,69153,1,2,0:0:0:0:
432,79,69368,1,4,0:0:0:0:
432,79,69796,1,0,0:0:0:0:
432,79,70439,5,2,0:0:0:0:
321,116,70868,1,2,0:0:0:0:
117,53,71296,6,0,P|147:36|180:44,1,70,4|0,0:1|0:0,0:0:0:0:
234,95,71939,1,2,0:0:0:0:
340,53,72153,2,0,L|412:59,1,70,2|0,0:2|0:0,0:0:0:0:
458,106,72796,1,4,0:2:0:0:
289,96,73011,6,0,P|273:59|280:26,1,70,2|0,0:2|0:0,0:0:0:0:
340,53,73653,1,2,0:0:0:0:
391,190,73868,2,0,L|381:264,1,70,2|0,0:2|0:0,0:0:0:0:
339,323,74511,1,4,0:2:0:0:
212,214,74725,6,0,P|169:204|131:226,1,90.9999958343508,4|2,0:0|0:0,0:0:0:0:
96,288,75368,1,2,0:0:0:0:
274,236,75582,2,0,P|279:210|272:184,1,45.4999979171754,2|0,0:2|0:0,0:0:0:0:
227,134,76011,1,2,0:0:0:0:
384,182,76225,1,2,0:0:0:0:
491,93,76439,6,0,P|446:83|408:116,1,97.9999970092774,2|0,0:2|0:0,0:0:0:0:
384,182,77082,1,2,0:0:0:0:
302,357,77296,2,0,P|255:369|218:338,1,97.9999970092774,4|2,0:0|0:0,0:0:0:0:
161,297,77939,1,2,0:0:0:0:
91,317,78153,5,2,0:2:0:0:
91,317,78582,1,2,0:0:0:0:
91,317,79011,1,2,0:0:0:0:
91,317,79439,5,2,0:0:0:0:
161,297,79653,1,2,0:2:0:0:
161,297,80082,5,2,0:0:0:0:
91,317,80296,1,2,0:0:0:0:
29,280,80511,1,2,0:0:0:0:
203,228,80725,1,4,0:0:0:0:
241,293,80939,1,2,0:0:0:0:
211,359,81153,1,2,0:2:0:0:
355,47,81582,6,0,L|459:35,1,97.9999970092774,6|0,0:2|3:0,0:0:0:0:
90,122,82439,2,0,L|194:110,1,97.9999970092774,2|0,0:2|3:0,0:0:0:0:
355,47,83082,2,0,L|459:35,1,97.9999970092774,4|0,0:3|3:0,0:0:0:0:
279,26,83725,1,2,0:0:0:0:
392,136,83939,5,2,0:0:0:0:
334,191,84153,1,0,0:0:0:0:
332,275,84368,1,8,0:3:0:0:
251,291,84582,1,0,0:0:0:0:
178,243,84796,1,2,0:0:0:0:
47,342,85011,6,0,L|172:329,1,125.999996154785,4|8,0:3|0:3,0:0:0:0:
452,98,88431,6,0,P|405:83|383:91,1,70,12|0,0:3|0:0,0:0:0:0:
317,131,88753,1,0,0:0:0:0:
317,131,88860,2,0,P|283:136|251:121,1,70,2|0,0:0|0:0,0:0:0:0:
158,188,89288,1,10,0:2:0:0:
65,145,89503,2,0,P|52:112|59:77,1,70,2|0,0:0|0:0,0:0:0:0:
224,198,89931,2,0,P|184:251|118:243,1,140,4|0,0:0|0:0,0:0:0:0:
195,116,90574,5,4,0:2:0:0:
296,84,90788,1,0,0:0:0:0:
374,163,91003,2,0,P|408:173|440:160,1,70,10|0,0:2|0:0,0:0:0:0:
496,222,91431,1,2,0:0:0:0:
512,74,91645,1,0,0:0:0:0:
365,134,91860,2,0,L|372:273,1,140,12|0,0:3|0:0,0:0:0:0:
337,362,92503,1,2,0:0:0:0:
250,284,92716,6,0,P|201:277|165:322,1,105,10|0,0:2|0:0,0:0:0:0:
117,366,93145,2,0,P|76:376|46:362,1,70,2|0,0:0|0:0,0:0:0:0:
103,196,93574,2,0,P|139:191|168:209,1,70,4|0,0:0|0:0,0:0:0:0:
196,291,94003,1,2,0:0:0:0:
56,248,94217,1,0,0:2:0:0:
56,248,94324,1,0,0:0:0:0:
56,248,94431,2,0,P|34:180|79:130,1,140,10|0,0:2|0:0,0:0:0:0:
223,172,95073,1,4,0:0:0:0:
382,111,95288,6,0,P|393:74|381:39,2,70,12|0|0,0:3|0:0|0:0,0:0:0:0:
275,175,95931,1,2,0:0:0:0:
275,175,96038,1,0,0:0:0:0:
275,175,96145,2,0,L|136:160,1,140,10|4,0:2|0:2,0:0:0:0:
48,204,96788,1,0,0:2:0:0:
192,88,97003,6,0,P|202:53|193:19,1,70,2|0,0:2|0:0,0:0:0:0:
326,160,97431,2,0,P|316:125|325:91,1,70,2|0,0:0|0:0,0:0:0:0:
143,260,97860,2,0,P|153:225|144:191,1,70,10|0,0:2|0:0,0:0:0:0:
344,332,98288,2,0,P|334:297|343:263,1,70,2|0,0:0|0:0,0:0:0:0:
487,132,98717,5,10,0:2:0:0:
465,242,98931,1,2,0:0:0:0:
465,242,99038,1,2,0:0:0:0:
465,242,99145,1,2,0:2:0:0:
394,72,99360,2,0,L|323:62,1,70,4|10,0:1|0:2,0:0:0:0:
210,124,99788,1,0,0:0:0:0:
118,52,100003,1,8,0:0:0:0:
66,223,100217,1,2,0:2:0:0:
267,163,100431,6,0,P|280:126|270:89,1,70,8|2,0:3|0:3,0:0:0:0:
215,55,100753,1,0,0:0:0:0:
215,55,100859,2,0,P|176:62|149:89,1,70,4|2,0:2|0:0,0:0:0:0:
147,154,101181,1,2,0:3:0:0:
147,154,101288,2,0,P|172:183|209:193,1,70,4|2,0:1|0:0,0:0:0:0:
229,192,101610,1,0,0:0:0:0:
211,214,101717,1,2,0:2:0:0:
201,240,101824,1,2,0:0:0:0:
201,267,101931,1,2,0:0:0:0:
208,293,102038,1,2,0:0:0:0:
226,314,102145,6,0,B|253:338|295:328|295:328|334:320|357:347,1,140,8|2,0:3|0:0,0:0:0:0:
355,345,102788,1,2,0:0:0:0:
495,271,103003,2,0,P|457:263|428:278,1,70,10|0,0:2|0:0,0:0:0:0:
348,225,103431,1,2,0:0:0:0:
376,148,103645,1,4,0:2:0:0:
302,95,103860,6,0,P|293:62|306:30,2,70,4|0|2,0:0|0:0|0:0,0:0:0:0:
474,152,104502,2,0,P|487:120|478:86,1,70,0|10,0:0|0:2,0:0:0:0:
376,148,104931,2,0,L|387:290,1,140,2|4,0:0|0:3,0:0:0:0:
337,372,105574,6,0,P|290:348|243:362,1,105,8|0,0:3|3:0,0:0:0:0:
197,346,106003,2,0,P|214:345|230:351,1,35,2|0,0:0|3:0,0:0:0:0:
171,260,106217,2,0,P|119:248|77:274,1,105,4|0,0:0|3:0,0:0:0:0:
29,271,106646,2,0,P|45:265|62:267,1,35,2|0,0:0|3:0,0:0:0:0:
223,328,106860,6,0,L|378:313,1,140,10|2,0:2|0:2,0:0:0:0:
453,303,107503,1,2,0:0:0:0:
392,220,107717,1,2,0:0:0:0:
392,220,107824,2,0,P|378:168|408:126,1,105,0|8,0:2|0:2,0:0:0:0:
474,99,108360,1,2,0:0:0:0:
404,128,108574,1,4,0:1:0:0:
325,113,108788,1,2,0:2:0:0:
158,19,109003,6,0,P|92:7|56:62,1,140,12|0,0:3|0:0,0:0:0:0:
225,103,109645,1,0,0:0:0:0:
225,103,109753,1,2,0:0:0:0:
225,103,109860,2,0,P|258:96|288:113,1,70,10|0,0:2|0:0,0:0:0:0:
341,224,110288,1,2,0:2:0:0:
475,138,110503,6,0,L|493:-1,1,140,10|0,0:2|0:0,0:0:0:0:
472,152,111145,2,0,P|432:173|376:143,1,105,4|2,0:0|0:0,0:0:0:0:
338,96,111574,2,0,P|303:88|274:104,1,70,10|0,0:2|0:0,0:0:0:0:
203,190,112003,2,0,P|172:206|136:199,1,70,2|0,0:0|0:0,0:0:0:0:
27,38,112431,6,0,L|38:185,1,140,12|2,0:3|0:2,0:0:0:0:
92,260,113074,1,0,0:0:0:0:
48,335,113288,1,14,0:2:0:0:
48,335,113717,1,2,0:0:0:0:
155,297,113931,2,0,P|167:261|160:231,1,70,10|0,0:2|0:0,0:0:0:0:
57,120,114360,1,2,0:0:0:0:
57,120,114467,1,0,0:2:0:0:
57,120,114573,2,0,P|107:115|138:63,1,105,10|0,0:2|0:0,0:0:0:0:
140,55,115003,5,4,0:2:0:0:
273,38,115217,1,2,0:3:0:0:
380,110,115431,1,2,0:3:0:0:
497,48,115645,1,2,0:3:0:0:
273,38,115860,6,0,L|134:44,1,140,12|0,0:3|0:0,0:0:0:0:
35,113,116503,1,2,0:0:0:0:
35,113,116610,1,0,0:0:0:0:
35,113,116717,2,0,P|24:153|33:182,1,70,10|0,0:2|0:0,0:0:0:0:
95,256,117145,1,2,0:2:0:0:
246,173,117360,6,0,P|199:131|135:160,1,140,4|4,0:1|0:2,0:0:0:0:
272,249,118003,2,0,L|379:238,1,105,2|0,0:0|0:0,0:0:0:0:
438,222,118431,2,0,L|368:215,1,70,10|0,0:2|0:0,0:0:0:0:
239,349,118860,2,0,L|308:342,1,70,2|2,0:0|0:1,0:0:0:0:
224,328,119288,6,0,L|85:313,1,140,12|0,0:3|0:0,0:0:0:0:
22,253,119931,1,2,0:0:0:0:
56,97,120145,2,0,P|105:82|150:106,1,105,10|0,0:2|0:0,0:0:0:0:
193,157,120574,2,0,L|265:148,1,70,2|4,0:2|0:2,0:0:0:0:
326,118,120895,1,0,0:0:0:0:
326,118,121003,6,0,P|360:111|390:128,1,70,2|0,0:0|0:0,0:0:0:0:
430,204,121431,1,2,0:0:0:0:
283,171,121645,2,0,P|256:116|301:54,1,140,4|0,0:0|0:0,0:0:0:0:
412,41,122288,1,2,0:0:0:0:
476,126,122503,1,2,0:2:0:0:
399,200,122717,6,0,P|390:235|401:266,1,70,12|0,0:3|0:0,0:0:0:0:
462,329,123145,1,2,0:2:0:0:
462,170,123359,2,0,P|407:130|344:157,1,140,4|0,0:0|0:1,0:0:0:0:
279,226,124003,1,2,0:0:0:0:
179,157,124217,1,2,0:2:0:0:
89,243,124431,6,0,P|48:253|23:242,1,70,8|0,0:3|0:0,0:0:0:0:
153,95,124860,2,0,P|187:88|221:103,1,70,4|0,0:0|0:0,0:0:0:0:
317,284,125288,2,0,P|285:297|251:290,1,70,10|0,0:2|0:2,0:0:0:0:
401,100,125717,2,0,P|435:95|465:111,1,70,2|0,0:2|0:2,0:0:0:0:
502,220,126145,5,12,0:3:0:0:
451,324,126360,1,2,0:0:0:0:
451,324,126467,1,0,0:0:0:0:
451,324,126574,1,2,0:2:0:0:
398,169,126788,1,4,0:2:0:0:
347,273,127003,1,8,0:2:0:0:
502,220,127217,1,2,0:2:0:0:
394,49,127431,5,8,0:1:0:0:
266,22,127645,2,0,P|298:7|332:14,1,70,10|0,0:2|0:0,0:0:0:0:
456,230,128073,2,0,P|412:249|349:193,1,140,8|2,0:2|0:2,0:0:0:0:
353,130,128609,1,8,0:2:0:0:
353,130,128717,5,8,0:3:0:0:
279,187,128931,1,2,0:0:0:0:
188,197,129145,1,0,0:0:0:0:
103,169,129360,1,2,0:2:0:0:
17,325,129574,6,0,L|157:311,1,140,12|0,0:3|0:0,0:0:0:0:
251,351,130217,1,0,0:0:0:0:
251,351,130324,1,0,0:0:0:0:
251,351,130431,2,0,L|322:343,1,70,10|0,0:2|0:0,0:0:0:0:
442,238,130859,2,0,P|450:200|440:172,1,70,4|0,0:1|0:2,0:0:0:0:
304,81,131288,6,0,P|296:43|306:15,2,70,2|0|2,0:2|0:0|0:0,0:0:0:0:
410,172,131931,1,2,0:0:0:0:
410,172,132038,1,0,0:0:0:0:
410,172,132145,2,0,L|337:163,1,70,10|2,0:2|0:0,0:0:0:0:
423,305,132574,2,0,L|496:296,1,70,2|0,0:2|0:0,0:0:0:0:
322,352,133003,5,12,0:3:0:0:
237,335,133217,1,0,0:0:0:0:
152,318,133431,1,2,0:0:0:0:
40,256,133645,1,2,0:2:0:0:
40,256,133753,2,0,P|62:290|44:348,1,105,2|4,0:1|0:2,0:0:0:0:
201,382,134288,2,0,P|156:333|176:267,1,140,10|4,0:2|0:1,0:0:0:0:
249,229,134931,1,2,0:0:0:0:
249,229,135145,1,8,0:2:0:0:
415,101,135466,5,2,0:1:0:0:
415,101,135573,2,0,P|383:109|351:94,1,70,2|2,0:2|0:3,0:0:0:0:
308,9,136003,1,8,0:3:0:0:
210,93,136217,1,10,0:2:0:0:
0,23,136431,6,0,L|147:29,1,140,12|2,0:3|0:2,0:0:0:0:
210,93,137074,1,2,0:0:0:0:
137,161,137288,2,0,P|124:197|137:231,1,70,10|0,0:2|0:0,0:0:0:0:
285,157,137717,1,2,0:2:0:0:
210,93,137931,1,8,0:0:0:0:
385,137,138145,6,0,P|424:136|450:113,1,70,8|0,0:3|0:0,0:0:0:0:
307,1,138574,2,0,P|268:2|242:25,1,70,2|0,0:2|0:0,0:0:0:0:
159,185,139003,2,0,P|120:184|94:161,1,70,4|0,0:0|0:0,0:0:0:0:
67,62,139431,1,2,0:0:0:0:
16,214,139645,1,4,0:2:0:0:
12,129,139860,5,12,0:3:0:0:
67,62,140074,1,2,0:0:0:0:
147,47,140288,1,0,0:0:0:0:
224,78,140503,1,2,0:0:0:0:
323,206,140717,5,10,0:2:0:0:
399,238,140931,1,2,0:0:0:0:
471,201,141145,1,4,0:0:0:0:
511,58,141360,5,10,0:2:0:0:
468,122,141574,1,0,0:0:0:0:
471,201,141788,5,8,0:2:0:0:
511,58,142002,1,8,0:2:0:0:
432,53,142217,1,2,0:1:0:0:
432,53,142324,1,0,0:0:0:0:
432,53,142431,1,10,0:2:0:0:
362,98,142645,1,8,0:2:0:0:
120,33,142860,1,8,0:3:0:0:
120,33,143288,6,0,L|104:160,2,125.999996154785,4|2|10,0:3|0:0|0:2,0:0:0:0:
120,33,144573,1,2,0:1:0:0:
185,11,144788,2,0,P|217:8|242:23,2,62.9999980773926,2|0|2,0:0|0:0|0:0,0:0:0:0:
120,33,145431,1,8,0:3:0:0:
154,164,145645,1,2,0:0:0:0:
154,164,145752,1,0,0:0:0:0:
154,164,145859,2,0,P|117:116|58:130,1,125.999996154785,10|0,0:2|0:0,0:0:0:0:
238,252,146502,1,2,0:2:0:0:
388,199,146716,6,0,P|403:152|391:120,1,62.9999980773926,4|0,0:0|0:0,0:0:0:0:
345,58,147145,1,8,0:2:0:0:
345,58,147359,2,0,L|269:65,1,62.9999980773926,0|10,0:0|0:2,0:0:0:0:
93,160,147788,1,2,0:2:0:0:
47,92,148002,1,2,0:0:0:0:
219,46,148216,6,0,L|350:58,1,125.999996154785,10|8,0:2|0:2,0:0:0:0:
427,86,148859,1,8,0:2:0:0:
369,141,149073,1,10,0:2:0:0:
156,174,149288,5,8,0:3:0:0:
73,134,149502,1,2,0:0:0:0:
54,117,149609,1,0,0:0:0:0:
43,94,149716,1,8,0:3:0:0:
42,69,149823,1,2,0:0:0:0:
50,46,149930,1,2,0:0:0:0:
66,28,150038,1,0,0:0:0:0:
90,19,150145,6,0,L|194:30,1,105,12|0,0:3|0:0,0:0:0:0:
218,40,150573,2,0,L|291:30,1,70,2|0,0:0|0:0,0:0:0:0:
358,56,150895,1,0,0:0:0:0:
358,56,151002,2,0,L|431:46,1,70,8|2,0:1|0:0,0:0:0:0:
492,163,151431,1,2,0:2:0:0:
345,296,151645,6,0,P|325:233|378:194,1,140,10|4,0:2|0:0,0:0:0:0:
492,163,152288,1,2,0:0:0:0:
446,217,152502,1,0,0:0:0:0:
215,142,152716,5,10,0:2:0:0:
112,204,152931,1,2,0:0:0:0:
93,225,153039,1,0,0:0:0:0:
83,253,153146,1,2,0:2:0:0:
84,283,153253,1,2,0:0:0:0:
97,311,153360,1,2,0:0:0:0:
120,331,153467,1,0,0:0:0:0:
148,342,153573,6,0,P|194:322|258:375,1,140,12|4,0:3|0:2,0:0:0:0:
342,302,154216,1,2,0:0:0:0:
416,238,154431,2,0,P|452:231|486:248,1,70,10|0,0:2|0:0,0:0:0:0:
342,302,154859,1,8,0:0:0:0:
294,144,155073,6,0,L|305:73,1,70,10|2,0:2|0:0,0:0:0:0:
226,202,155502,1,2,0:2:0:0:
140,210,155716,1,2,0:0:0:0:
14,142,155931,2,0,P|51:135|80:150,1,70,4|10,0:0|0:2,0:0:0:0:
294,144,156359,1,2,0:0:0:0:
294,144,156466,1,0,0:0:0:0:
294,144,156573,1,8,0:2:0:0:
368,264,156788,1,2,0:2:0:0:
484,100,157002,6,0,P|425:131|433:197,1,140,12|2,0:3|0:0,0:0:0:0:
512,296,157645,2,0,P|475:284|442:295,1,70,4|8,0:0|0:2,0:0:0:0:
341,344,158073,1,2,0:0:0:0:
252,354,158288,1,8,0:0:0:0:
64,254,158502,6,0,P|120:241|163:304,1,140,10|2,0:2|0:1,0:0:0:0:
277,252,159145,1,2,0:2:0:0:
401,270,159359,1,2,0:0:0:0:
401,270,159466,1,0,0:0:0:0:
401,270,159573,2,0,L|471:258,1,70,8|0,0:2|0:0,0:0:0:0:
233,358,160002,2,0,L|303:346,1,70,10|0,0:2|0:0,0:0:0:0:
109,295,160431,6,0,L|80:142,1,140,12|0,0:3|0:0,0:0:0:0:
115,35,161073,1,2,0:0:0:0:
187,88,161288,2,0,P|223:94|252:80,1,70,10|0,0:2|0:0,0:0:0:0:
350,73,161716,1,4,0:0:0:0:
449,242,161931,6,0,P|425:198|480:138,1,140,2|8,0:2|0:3,0:0:0:0:
463,250,162573,1,2,0:2:0:0:
400,313,162788,1,2,0:0:0:0:
229,226,163002,5,8,0:1:0:0:
199,219,163109,1,0,0:0:0:0:
170,226,163216,1,2,0:0:0:0:
147,245,163323,1,0,0:0:0:0:
139,274,163431,1,8,0:3:0:0:
142,303,163538,1,2,0:0:0:0:
160,326,163645,1,2,0:0:0:0:
186,338,163752,1,0,0:0:0:0:
216,338,163859,6,0,P|258:283|229:226,1,140,12|2,0:1|0:0,0:0:0:0:
164,136,164502,1,2,0:1:0:0:
259,71,164716,2,0,P|270:36|260:4,1,70,10|0,0:2|0:0,0:0:0:0:
164,136,165145,1,8,0:0:0:0:
183,297,165359,1,10,0:2:0:0:
249,211,165573,2,0,L|333:200,1,70,4|0,0:1|0:0,0:0:0:0:
183,297,166002,2,0,L|39:286,1,140,8|10,0:3|0:2,0:0:0:0:
13,140,166752,5,2,0:0:0:0:
13,140,166859,1,2,0:2:0:0:
99,116,167073,1,2,0:2:0:0:
185,92,167288,1,12,0:3:0:0:
303,230,167502,1,8,0:0:0:0:
275,140,167716,1,2,0:0:0:0:
375,164,167931,1,2,0:0:0:0:
375,164,168038,1,0,0:0:0:0:
375,164,168145,2,0,P|399:163|411:159,3,35,10|0|0|0,0:2|0:0|0:0|0:0,0:0:0:0:
465,115,168573,2,0,P|475:93|478:81,3,35,2|0|2|0,0:2|0:0|0:2|0:0,0:0:0:0:
475,16,169002,5,6,0:1:0:0:
387,29,169216,1,2,0:2:0:0:
308,170,169431,1,8,0:0:0:0:
128,55,169645,1,2,0:0:0:0:
128,55,169752,1,0,0:0:0:0:
128,55,169859,1,10,0:2:0:0:
211,26,170073,1,4,0:0:0:0:
308,170,170288,2,0,P|317:204|303:240,1,70,0|0,0:3|0:0,0:0:0:0:
136,194,170716,6,0,L|127:53,1,140,12|2,0:3|0:0,0:0:0:0:
230,209,171359,2,0,L|225:281,1,70,2|10,0:0|0:2,0:0:0:0:
299,355,171788,1,8,0:0:0:0:
373,313,172002,1,4,0:0:0:0:
507,347,172216,6,0,P|476:362|443:354,1,70,10|0,0:2|0:0,0:0:0:0:
366,220,172645,1,2,0:0:0:0:
366,220,172752,1,0,0:0:0:0:
366,220,172859,1,2,0:2:0:0:
327,136,173073,1,8,0:0:0:0:
395,12,173288,6,0,L|389:99,1,70,10|0,0:2|0:0,0:0:0:0:
327,136,173609,1,2,0:2:0:0:
327,136,173716,2,0,P|294:144|259:126,1,70,4|0,0:1|0:0,0:0:0:0:
223,65,174038,1,0,0:0:0:0:
223,65,174145,6,0,P|148:48|102:94,1,140,4|2,0:2|0:2,0:0:0:0:
28,226,174788,2,0,P|62:224|92:244,1,70,8|8,0:0|0:2,0:0:0:0:
142,332,175216,1,2,0:0:0:0:
234,286,175431,1,4,0:0:0:0:
346,362,175645,5,8,0:2:0:0:
346,362,175752,2,0,P|331:317|398:262,1,140,2|0,0:2|0:0,0:0:0:0:
437,214,176288,2,0,P|421:183|427:148,1,70,4|0,0:3|0:0,0:0:0:0:
458,94,176609,1,0,0:0:0:0:
458,94,176716,1,10,0:2:0:0:
277,29,176931,5,8,0:0:0:0:
202,100,177145,1,2,0:2:0:0:
90,45,177359,1,8,0:2:0:0:
65,241,177573,6,0,P|90:192|38:136,1,140,12|8,0:3|0:0,0:0:0:0:
56,249,178216,1,2,0:0:0:0:
200,357,178431,2,0,P|174:308|226:252,1,140,8|8,0:3|0:0,0:0:0:0:
295,260,179074,1,2,0:0:0:0:
479,159,179288,5,8,0:3:0:0:
443,227,179502,1,2,0:0:0:0:
451,298,179716,1,8,0:0:0:0:
261,344,179931,1,2,0:0:0:0:
261,344,180038,1,0,0:0:0:0:
261,344,180145,2,0,P|235:348|223:344,3,35,2|0|0|0,0:2|0:0|0:0|0:0,0:0:0:0:
170,311,180573,2,0,P|153:290|151:278,3,35,10|0|2|0,0:2|0:0|0:0|0:0,0:0:0:0:
85,278,181002,6,0,L|63:25,1,245,12|2,0:3|0:0,0:0:0:0:
63,20,181859,1,10,0:2:0:0:
63,20,182288,1,2,0:0:0:0:
202,73,182502,2,0,P|169:82|137:71,1,70,10|0,0:2|0:0,0:0:0:0:
277,33,182931,1,2,0:0:0:0:
424,98,183145,1,2,0:2:0:0:
424,98,183573,5,8,0:2:0:0:
279,141,183788,1,8,0:0:0:0:
343,92,184002,1,2,0:2:0:0:
261,229,184216,1,8,0:2:0:0:
145,327,184431,5,10,0:2:0:0:
145,327,184859,1,8,0:0:0:0:
102,276,185073,1,2,0:0:0:0:
35,291,185288,1,10,0:2:0:0:
35,291,185716,5,8,0:2:0:0:
211,350,185931,1,10,0:0:0:0:
35,291,186359,5,2,0:0:0:0:
211,350,186574,1,10,0:2:0:0:
211,350,187002,5,8,0:2:0:0:
156,252,187216,1,2,0:2:0:0:
210,101,187431,1,8,0:3:0:0:
210,101,187859,5,6,0:1:0:0:
256,192,187966,12,0,193431,3:0:0:0:
298,216,193752,6,0,L|293:261,1,41.9999987182618,4|0,0:0|3:0,0:0:0:0:
292,271,194716,5,4,3:2:0:0:
292,271,195573,1,2,0:0:0:0:
245,227,196002,1,0,0:0:0:0:
183,240,196431,1,8,0:3:0:0:
142,288,196859,1,2,0:2:0:0:
81,304,197288,1,0,0:0:0:0:
20,285,197716,1,2,0:0:0:0:
117,119,198145,5,4,0:3:0:0:
117,119,199002,1,2,0:0:0:0:
152,171,199431,1,0,0:0:0:0:
140,232,199859,1,8,0:3:0:0:
142,294,200288,1,2,0:2:0:0:
192,331,200716,1,2,0:0:0:0:
254,323,201145,1,0,0:0:0:0:
292,272,201573,5,4,0:3:0:0:
337,227,202002,1,2,0:0:0:0:
400,225,202431,1,2,0:2:0:0:
439,273,202859,1,0,0:0:0:0:
430,335,203288,1,4,0:1:0:0:
372,310,203716,1,0,0:0:0:0:
354,249,204145,1,2,0:2:0:0:
361,186,204573,1,0,0:0:0:0:
385,127,205002,5,8,0:3:0:0:
385,127,205859,1,2,0:0:0:0:
342,81,206073,1,0,0:0:0:0:
279,90,206288,1,2,0:1:0:0:
232,132,206502,1,2,0:2:0:0:
172,152,206716,1,0,0:0:0:0:
113,128,206931,5,0,0:0:0:0:
112,137,207359,5,2,0:0:0:0:
165,88,208002,5,4,0:0:0:0:
113,128,208431,5,12,0:3:0:0:
55,152,208645,1,0,0:0:0:0:
33,210,208859,1,2,0:2:0:0:
49,270,209073,1,2,0:0:0:0:
99,308,209288,1,0,0:3:0:0:
160,318,209502,1,0,0:0:0:0:
222,308,209716,1,6,0:1:0:0:
271,269,209931,1,0,0:0:0:0:
297,211,210145,1,0,0:2:0:0:
295,148,210359,1,2,0:0:0:0:
273,89,210573,1,0,0:0:0:0:
295,30,210788,5,4,0:2:0:0:
295,30,211216,1,2,0:0:0:0:
353,7,211431,1,0,0:2:0:0:
412,27,211645,1,2,0:2:0:0:
441,82,211860,5,8,0:3:0:0:
441,82,212288,1,0,0:0:0:0:
425,143,212502,5,2,0:0:0:0:
425,143,212931,1,0,0:0:0:0:
388,194,213145,5,2,0:2:0:0:
388,194,213788,1,4,0:1:0:0:
355,248,214002,1,2,0:0:0:0:
362,310,214216,1,0,0:0:0:0:
409,351,214431,1,8,0:3:0:0:
471,358,214645,1,2,0:0:0:0:
447,299,214859,1,0,0:0:0:0:
387,277,215073,1,2,0:2:0:0:
324,288,215288,5,4,0:3:0:0:
324,288,215716,1,2,0:0:0:0:
324,288,216145,1,4,0:2:0:0:
324,288,216573,1,2,0:2:0:0:
263,306,216788,1,0,0:0:0:0:
201,295,217002,5,4,0:3:0:0:
201,295,217431,1,2,0:0:0:0:
201,295,217859,1,2,0:2:0:0:
201,295,218288,1,4,0:2:0:0:
31,351,218716,5,12,0:3:0:0:
31,351,219145,5,8,0:2:0:0:
230,298,219359,5,8,0:2:0:0:
115,276,219573,5,8,0:2:0:0:
328,243,219788,5,8,0:2:0:0:
394,176,220002,5,8,0:2:0:0:
166,60,220216,5,10,0:2:0:0:
166,60,220645,6,0,L|160:60,1,5.24999983978272,2|0,0:0|3:0,0:0:0:0:
95,64,220859,6,0,L|89:64,1,5.24999983978272,2|0,0:0|3:0,0:0:0:0:
25,68,221073,6,0,L|19:68,1,5.24999983978272,2|0,0:0|3:0,0:0:0:0:
166,60,221502,6,0,L|162:95,1,31.4999990386963,8|12,0:3|0:3,0:0:0:0:
264,118,222359,1,2,0:0:0:0:
264,118,222466,1,0,0:0:0:0:
264,118,222573,2,0,P|300:131|330:122,1,70,2|0,0:2|0:0,0:0:0:0:
396,58,223002,1,10,0:2:0:0:
483,159,223216,2,0,P|483:193|464:222,1,70,0|2,0:0|0:2,0:0:0:0:
272,277,223645,2,0,P|336:262|373:317,1,140,4|2,0:0|0:0,0:0:0:0:
207,358,224288,5,2,0:2:0:0:
115,363,224502,1,0,0:0:0:0:
24,238,224716,2,0,P|58:232|89:249,1,70,10|0,0:2|0:0,0:0:0:0:
207,358,225145,1,2,0:2:0:0:
265,221,225359,1,4,0:2:0:0:
409,303,225573,2,0,P|336:334|291:297,1,140,12|2,0:3|0:0,0:0:0:0:
298,141,226216,1,0,0:0:0:0:
152,236,226431,6,0,P|191:269|242:260,1,105,10|0,0:2|0:0,0:0:0:0:
280,207,226859,2,0,P|316:211|344:192,1,70,2|4,0:0|0:0,0:0:0:0:
428,47,227288,2,0,P|464:42|492:62,1,70,2|0,0:2|0:2,0:0:0:0:
374,113,227716,1,2,0:0:0:0:
200,15,227931,1,2,0:0:0:0:
200,15,228038,1,0,0:0:0:0:
200,15,228145,2,0,L|343:32,1,140,10|4,0:2|0:2,0:0:0:0:
472,152,228788,1,4,0:1:0:0:
336,297,229002,6,0,P|311:243|366:186,1,140,12|2,0:3|0:0,0:0:0:0:
432,86,229645,1,0,0:0:0:0:
432,86,229752,1,0,0:0:0:0:
432,86,229859,2,0,L|361:75,1,70,10|0,0:2|0:0,0:0:0:0:
247,143,230288,2,0,L|176:132,1,70,2|0,0:0|0:0,0:0:0:0:
40,84,230716,6,0,P|26:49|34:16,1,70,4|0,0:3|0:0,0:0:0:0:
247,143,231145,2,0,P|261:108|253:75,1,70,2|0,0:0|0:0,0:0:0:0:
104,298,231573,2,0,P|90:263|98:230,1,70,10|0,0:2|0:0,0:0:0:0:
280,359,232002,1,2,0:2:0:0:
204,303,232216,1,4,0:1:0:0:
409,270,232431,6,0,P|345:286|308:232,1,140,8|2,0:3|0:2,0:0:0:0:
326,139,233073,1,0,0:0:0:0:
326,139,233181,1,0,0:0:0:0:
326,139,233288,1,8,0:2:0:0:
415,110,233502,1,2,0:0:0:0:
256,15,233716,1,4,0:3:0:0:
332,39,233931,6,0,P|363:45|397:29,1,70,8|2,0:2|0:0,0:0:0:0:
256,15,234359,1,2,0:2:0:0:
200,72,234573,2,0,P|150:91|100:64,1,105,8|2,0:2|0:0,0:0:0:0:
100,59,235002,1,4,0:1:0:0:
256,15,235216,1,8,0:2:0:0:
351,122,235431,1,4,0:2:0:0:
371,134,235538,1,2,0:0:0:0:
395,138,235645,1,2,0:0:0:0:
419,136,235752,1,0,0:0:0:0:
442,128,235859,6,0,P|388:121|362:191,1,140,12|4,0:3|0:0,0:0:0:0:
263,225,236502,1,2,0:0:0:0:
199,178,236716,2,0,P|165:172|135:189,1,70,10|0,0:2|0:0,0:0:0:0:
64,318,237145,1,2,0:1:0:0:
41,231,237359,1,4,0:2:0:0:
76,83,237573,6,0,P|88:128|78:153,2,70,2|0|0,0:2|0:0|0:0,0:0:0:0:
170,172,238216,2,0,P|199:189|234:187,1,70,2|10,0:0|0:2,0:0:0:0:
313,242,238645,2,0,L|453:252,1,140,2|2,0:0|0:2,0:0:0:0:
402,144,239288,6,0,P|400:105|442:137,1,105,12|0,0:3|3:0,0:0:0:0:
427,157,239717,2,0,P|410:163|393:162,1,35,2|0,0:0|3:0,0:0:0:0:
249,167,239931,2,0,P|263:207|289:173,1,105,4|0,0:0|3:0,0:0:0:0:
274,154,240360,2,0,P|257:147|240:148,1,35,2|0,0:0|3:0,0:0:0:0:
123,185,240573,6,0,L|106:330,1,140,10|2,0:2|0:2,0:0:0:0:
180,384,241216,1,2,0:0:0:0:
260,319,241431,1,2,0:0:0:0:
260,319,241538,2,0,P|321:303|355:328,1,105,0|8,0:0|0:2,0:0:0:0:
428,362,242073,1,2,0:0:0:0:
469,293,242288,1,4,0:0:0:0:
445,215,242502,1,2,0:2:0:0:
309,91,242716,6,0,P|361:118|419:68,1,140,12|2,0:3|0:2,0:0:0:0:
454,15,243252,1,0,0:2:0:0:
454,15,243359,2,0,P|457:35|466:51,1,35,2|0,0:1|0:0,0:0:0:0:
506,106,243573,2,0,L|492:250,1,140,10|2,0:2|0:0,0:0:0:0:
428,318,244216,1,4,0:0:0:0:
323,221,244431,6,0,P|291:216|256:235,1,70,4|0,0:3|0:0,0:0:0:0:
160,296,244859,2,0,P|129:279|95:284,1,70,2|0,0:2|0:0,0:0:0:0:
11,352,245288,1,10,0:2:0:0:
71,197,245502,1,8,0:2:0:0:
42,72,245716,1,8,0:2:0:0:
254,184,245931,1,8,0:0:0:0:
346,96,246145,6,0,P|381:90|412:105,2,70,12|0|2,0:3|0:0|0:2,0:0:0:0:
254,184,246788,1,2,0:0:0:0:
120,100,247002,2,0,P|85:94|54:109,2,70,10|0|2,0:2|0:0|0:0,0:0:0:0:
254,184,247645,5,10,0:1:0:0:
254,184,248073,1,8,0:2:0:0:
178,309,248288,1,8,0:3:0:0:
381,267,248502,1,2,0:0:0:0:
381,267,248609,1,0,0:0:0:0:
381,267,248716,1,10,0:2:0:0:
178,309,248931,1,4,0:1:0:0:
286,319,249145,1,8,0:2:0:0:
143,218,249359,5,2,0:2:0:0:
143,218,249466,1,2,0:0:0:0:
143,218,249573,2,0,P|93:214|72:229,1,77.0000023498536,12|0,0:3|0:0,0:0:0:0:
148,368,250002,2,0,P|180:376|227:354,1,77.0000023498536,2|0,0:2|0:0,0:0:0:0:
404,199,250431,1,10,0:2:0:0:
360,266,250645,1,2,0:0:0:0:
376,339,250859,1,2,0:2:0:0:
474,188,251073,6,0,P|427:131|353:150,1,154.000004699707,8|8,0:0|0:2,0:0:0:0:
263,251,251716,1,2,0:2:0:0:
246,262,251823,2,0,P|211:268|176:246,1,77.0000023498536,2|0,0:2|0:0,0:0:0:0:
154,185,252145,2,0,L|160:102,1,77.0000023498536,10|0,0:2|0:0,0:0:0:0:
130,47,252466,1,0,0:0:0:0:
130,47,252573,1,4,0:1:0:0:
279,19,252788,1,10,0:2:0:0:
460,131,253002,6,0,P|487:177|445:245,1,115.50000352478,12|2,0:3|0:0,0:0:0:0:
456,241,253431,1,2,0:2:0:0:
328,275,253645,1,0,0:0:0:0:
216,191,253859,2,0,P|174:180|144:191,1,77.0000023498536,10|0,0:2|0:0,0:0:0:0:
283,213,254288,1,2,0:1:0:0:
283,213,254395,2,0,P|287:191|284:173,1,38.5000011749268,2|2,0:2|0:2,0:0:0:0:
390,243,254716,6,0,P|398:284|376:326,1,77.0000023498536,8|0,0:3|0:0,0:0:0:0:
195,230,255145,2,0,P|126:209|87:270,1,154.000004699707,4|10,0:1|0:2,0:0:0:0:
250,290,255788,1,2,0:1:0:0:
354,154,256002,2,0,P|422:133|446:155,1,77.0000023498536,4|2,0:2|0:2,0:0:0:0:
480,169,256323,1,0,0:0:0:0:
480,169,256431,5,12,0:3:0:0:
428,270,256645,1,0,0:0:0:0:
297,189,256859,2,0,P|287:153|301:113,1,77.0000023498536,8|0,0:0|0:0,0:0:0:0:
164,270,257288,2,0,P|235:254|272:317,1,154.000004699707,10|2,0:2|0:0,0:0:0:0:
358,375,257931,1,0,0:0:0:0:
358,375,258038,1,0,0:0:0:0:
358,375,258145,1,2,0:2:0:0:
481,232,258359,5,8,0:2:0:0:
490,314,258573,1,8,0:3:0:0:
403,202,258788,1,2,0:0:0:0:
457,40,259002,1,10,0:2:0:0:
344,15,259216,1,2,0:0:0:0:
256,90,259431,1,10,0:0:0:0:
57,31,259645,1,8,0:2:0:0:
57,31,259752,1,8,0:2:0:0:
57,31,259859,6,0,L|134:24,1,77.0000023498536,8|2,0:3|0:0,0:0:0:0:
204,58,260181,1,0,0:0:0:0:
204,58,260288,1,2,0:2:0:0:
350,29,260502,1,0,0:0:0:0:
283,85,260716,1,10,0:2:0:0:
204,58,260931,1,2,0:0:0:0:
61,164,261145,1,8,0:0:0:0:
283,85,261359,5,10,0:2:0:0:
283,85,261788,1,8,0:2:0:0:
430,159,262002,1,8,0:3:0:0:
324,278,262216,1,2,0:0:0:0:
324,278,262323,1,0,0:0:0:0:
324,278,262431,2,0,P|321:305|325:321,1,38.5000011749268,2|0,0:2|3:0,0:0:0:0:
367,367,262645,2,0,P|393:374|409:373,1,38.5000011749268,4|0,0:1|3:0,0:0:0:0:
466,347,262859,2,0,P|487:317|488:274,1,77.0000023498536,4|0,0:2|0:0,0:0:0:0:
461,213,263181,1,2,0:0:0:0:
461,213,263288,6,0,L|343:199,1,115.50000352478,12|0,0:3|0:0,0:0:0:0:
297,151,263716,2,0,L|182:164,1,115.50000352478,2|0,0:2|0:0,0:0:0:0:
128,211,264145,2,0,P|162:151|104:96,1,154.000004699707,10|2,0:2|0:0,0:0:0:0:
210,14,264788,2,0,P|231:82|303:82,1,154.000004699707,4|2,0:0|0:0,0:0:0:0:
368,18,265431,1,2,0:2:0:0:
487,95,265645,1,0,0:0:0:0:
487,95,265752,1,0,0:0:0:0:
487,95,265859,5,10,0:2:0:0:
434,163,266073,1,2,0:0:0:0:
432,244,266288,1,2,0:2:0:0:
363,209,266502,1,2,0:0:0:0:
248,307,266716,6,0,L|369:290,1,115.50000352478,12|0,0:0|3:0,0:0:0:0:
389,312,267145,2,0,P|375:292|376:271,1,38.5000011749268,2|0,0:0|3:0,0:0:0:0:
283,185,267359,2,0,L|162:168,1,115.50000352478,2|0,0:2|3:0,0:0:0:0:
142,190,267788,2,0,P|156:170|155:149,1,38.5000011749268,2|0,0:0|3:0,0:0:0:0:
232,57,268002,6,0,L|392:41,1,154.000004699707,10|2,0:2|0:2,0:0:0:0:
463,96,268645,1,0,0:0:0:0:
463,96,268752,1,0,0:0:0:0:
463,96,268859,1,2,0:0:0:0:
463,96,269288,2,0,P|451:134|461:168,1,77.0000023498536,10|0,0:2|0:0,0:0:0:0:
512,233,269716,1,8,0:3:0:0:
392,336,269931,1,2,0:2:0:0:
198,220,270145,6,0,P|256:208|293:288,1,154.000004699707,12|2,0:1|0:2,0:0:0:0:
246,357,270788,1,2,0:0:0:0:
145,258,271002,2,0,P|132:222|143:184,1,77.0000023498536,10|0,0:2|0:0,0:0:0:0:
244,63,271431,1,2,0:2:0:0:
40,30,271645,6,0,L|130:22,1,77.0000023498536,8|2,0:0|0:0,0:0:0:0:
244,63,272073,1,0,0:0:0:0:
311,118,272288,1,4,0:0:0:0:
398,113,272502,1,2,0:0:0:0:
490,277,272716,5,8,0:2:0:0:
421,209,272931,1,8,0:2:0:0:
398,113,273145,1,8,0:2:0:0:
244,63,273359,1,8,0:1:0:0:
153,213,273573,6,0,P|224:225|257:161,1,154.000004699707,4|2,0:1|0:0,0:0:0:0:
346,112,274216,1,0,0:0:0:0:
346,112,274323,1,0,0:0:0:0:
346,112,274431,2,0,P|384:109|415:130,1,77.0000023498536,10|0,0:2|0:0,0:0:0:0:
461,243,274859,1,4,0:0:0:0:
511,42,275073,5,8,0:3:0:0:
511,42,275514,5,2,0:0:0:0:
421,82,275734,1,2,0:2:0:0:
375,163,275955,1,2,0:0:0:0:
304,206,276175,5,8,0:2:0:0:
234,198,276433,5,8,0:2:0:0:
191,145,276709,5,8,0:3:0:0:
204,82,277018,6,0,P|206:77|210:73,1,9.33333333333333,0|8,0:0|0:3,0:0:0:0:
256,192,277355,12,0,290725,3:0:0:0:
