osu file format v14

[General]
AudioFilename: audio.mp3
AudioLeadIn: 0
PreviewTime: 21992
Countdown: 0
SampleSet: Soft
StackLeniency: 0.7
Mode: 3
LetterboxInBreaks: 0
SpecialStyle: 0
WidescreenStoryboard: 1

[Editor]
DistanceSpacing: 1.4
BeatDivisor: 8
GridSize: 8
TimelineZoom: 1.4

[Metadata]
Title:Gou Zhi Qi Shi
TitleUnicode:勾指起誓
Artist:Ling Yuan yousa
ArtistUnicode:泠鸢yousa
Creator:Madoka2574
Version:Rin's Easy
Source:
Tags:ExNeko Shima_Rin Shima Rin Tofu1222 Chinese ilem 洛天依 翻唱 小清新 Bilibili 哔哩哔哩动画 2:3 cover Vocaloid Luo Tianyi Pinky Swear Indie Pop
BeatmapID:2372774
BeatmapSetID:1135268

[Difficulty]
HPDrainRate:7
CircleSize:4
OverallDifficulty:7
ApproachRate:5
SliderMultiplier:1.4
SliderTickRate:1

[Events]
//Background and Video events
0,0,"BG.jpg",0,0
Video,-432,"video.mp4"
//Break Periods
//Storyboard Layer 0 (Background)
//Storyboard Layer 1 (Fail)
//Storyboard Layer 2 (Pass)
//Storyboard Layer 3 (Foreground)
//Storyboard Layer 4 (Overlay)
//Storyboard Sound Samples

[TimingPoints]
110,705.882352941176,4,2,1,25,1,0
22698,-100,4,2,1,40,0,0
67874,-100,4,2,1,40,0,1
89757,-100,4,2,1,40,0,0
135639,-100,4,2,1,40,0,1
157521,-100,4,2,1,40,0,0
158227,-100,4,2,1,30,0,0
169521,-100,4,2,1,40,0,1
175168,-100,4,2,1,30,0,0

[HitObjects]
64,192,110,5,0,0:0:0:0:
448,192,110,1,0,0:0:0:0:
192,192,462,1,0,0:0:0:0:
320,192,815,1,0,0:0:0:0:
64,192,1168,1,0,0:0:0:0:
192,192,1168,1,0,0:0:0:0:
448,192,1521,1,0,0:0:0:0:
320,192,1874,1,0,0:0:0:0:
192,192,2227,1,0,0:0:0:0:
448,192,2580,1,0,0:0:0:0:
64,192,2933,1,0,0:0:0:0:
192,192,2933,1,0,0:0:0:0:
320,192,3286,1,0,0:0:0:0:
64,192,3639,1,0,0:0:0:0:
320,192,3992,1,0,0:0:0:0:
448,192,3992,1,0,0:0:0:0:
64,192,4345,128,0,4698:0:0:0:0:
192,192,5051,128,0,5404:0:0:0:0:
320,192,5757,1,0,0:0:0:0:
448,192,5757,1,0,0:0:0:0:
192,192,6109,1,0,0:0:0:0:
320,192,6462,1,0,0:0:0:0:
64,192,6815,1,0,0:0:0:0:
448,192,6815,1,0,0:0:0:0:
192,192,7168,1,0,0:0:0:0:
320,192,7521,1,0,0:0:0:0:
448,192,7874,1,0,0:0:0:0:
64,192,8227,1,0,0:0:0:0:
192,192,8227,1,0,0:0:0:0:
320,192,8933,1,0,0:0:0:0:
64,192,9286,1,0,0:0:0:0:
448,192,9639,1,0,0:0:0:0:
192,192,9992,1,0,0:0:0:0:
320,192,10345,1,0,0:0:0:0:
448,192,10698,1,0,0:0:0:0:
192,192,11051,1,0,0:0:0:0:
64,192,11404,5,4,0:0:0:0:
448,192,11404,1,0,0:0:0:0:
320,192,11757,1,0,0:0:0:0:
64,192,12109,1,8,0:0:0:0:
192,192,12109,1,0,0:0:0:0:
448,192,12462,1,0,0:0:0:0:
64,192,12815,1,0,0:0:0:0:
192,192,13168,1,4,0:0:0:0:
320,192,13521,1,8,0:0:0:0:
448,192,13521,1,0,0:0:0:0:
64,192,13874,1,0,0:0:0:0:
192,192,14227,1,4,0:0:0:0:
320,192,14580,1,0,0:0:0:0:
64,192,14933,1,8,0:0:0:0:
448,192,14933,1,0,0:0:0:0:
192,192,15286,1,0,0:0:0:0:
320,192,15639,1,0,0:0:0:0:
64,192,15992,1,4,0:0:0:0:
320,192,16345,1,8,0:0:0:0:
448,192,16345,1,0,0:0:0:0:
192,192,16698,1,0,0:0:0:0:
64,192,17051,1,4,0:0:0:0:
448,192,17404,1,0,0:0:0:0:
192,192,17757,1,8,0:0:0:0:
320,192,17757,1,0,0:0:0:0:
64,192,18109,1,0,0:0:0:0:
320,192,18462,1,0,0:0:0:0:
448,192,18815,1,4,0:0:0:0:
64,192,19168,1,8,0:0:0:0:
192,192,19168,1,0,0:0:0:0:
320,192,19521,1,0,0:0:0:0:
448,192,19521,1,0,0:0:0:0:
192,192,20227,1,0,0:0:0:0:
64,192,20580,1,0,0:0:0:0:
448,192,20933,1,0,0:0:0:0:
320,192,21286,128,0,21639:0:0:0:0:
192,192,21639,128,2,21992:0:0:0:0:
64,192,21992,1,8,0:0:0:0:
448,192,21992,1,0,0:0:0:0:
192,192,22345,1,0,0:0:0:0:
320,192,22698,1,2,0:0:0:0:
448,192,23051,1,4,0:0:0:0:
64,192,23404,1,8,0:0:0:0:
192,192,23404,1,0,0:0:0:0:
320,192,23757,1,4,0:0:0:0:
64,192,24109,1,0,0:0:0:0:
192,192,24462,1,6,0:0:0:0:
320,192,24815,1,8,0:0:0:0:
448,192,24815,1,0,0:0:0:0:
64,192,25168,1,4,0:0:0:0:
192,192,25521,1,2,0:0:0:0:
320,192,25874,1,4,0:0:0:0:
64,192,26227,1,8,0:0:0:0:
448,192,26227,1,0,0:0:0:0:
192,192,26580,1,6,0:0:0:0:
320,192,26933,1,0,0:0:0:0:
64,192,27639,1,8,0:0:0:0:
192,192,27639,1,2,0:0:0:0:
320,192,27992,1,4,0:0:0:0:
64,192,28345,1,2,0:0:0:0:
192,192,28698,1,4,0:0:0:0:
320,192,29051,1,8,0:0:0:0:
448,192,29051,1,0,0:0:0:0:
64,192,29404,1,4,0:0:0:0:
320,192,29757,1,0,0:0:0:0:
192,192,30109,1,6,0:0:0:0:
64,192,30462,1,8,0:0:0:0:
448,192,30462,1,0,0:0:0:0:
192,192,30992,1,8,0:0:0:0:
448,192,31168,1,2,0:0:0:0:
320,192,31521,1,4,0:0:0:0:
64,192,31874,1,8,0:0:0:0:
192,192,31874,1,0,0:0:0:0:
448,192,32227,1,6,0:0:0:0:
64,192,32580,1,0,0:0:0:0:
320,192,33286,1,8,0:0:0:0:
448,192,33286,1,2,0:0:0:0:
192,192,33639,1,4,0:0:0:0:
64,192,33992,1,2,0:0:0:0:
448,192,34345,1,4,0:0:0:0:
192,192,34698,1,8,0:0:0:0:
320,192,34698,1,0,0:0:0:0:
64,192,35051,1,4,0:0:0:0:
448,192,35404,1,0,0:0:0:0:
320,192,35757,1,6,0:0:0:0:
64,192,36109,1,8,0:0:0:0:
192,192,36109,1,0,0:0:0:0:
320,192,36815,1,2,0:0:0:0:
64,192,37168,1,4,0:0:0:0:
192,192,37345,1,4,0:0:0:0:
320,192,37521,1,8,0:0:0:0:
448,192,37521,1,0,0:0:0:0:
64,192,37874,1,6,0:0:0:0:
320,192,38227,1,0,0:0:0:0:
64,192,38933,1,2,0:0:0:0:
192,192,38933,1,8,0:0:0:0:
320,192,39286,1,4,0:0:0:0:
448,192,39639,1,2,0:0:0:0:
192,192,39992,1,4,0:0:0:0:
320,192,40345,1,8,0:0:0:0:
448,192,40345,1,0,0:0:0:0:
64,192,40698,1,4,0:0:0:0:
192,192,41051,1,0,0:0:0:0:
320,192,41404,1,6,0:0:0:0:
64,192,41757,1,8,0:0:0:0:
448,192,41757,1,0,0:0:0:0:
320,192,42462,1,2,0:0:0:0:
448,192,42815,1,4,0:0:0:0:
64,192,43168,1,8,0:0:0:0:
192,192,43168,1,0,0:0:0:0:
320,192,43521,1,6,0:0:0:0:
64,192,43874,1,0,0:0:0:0:
192,192,44580,1,8,0:0:0:0:
320,192,44580,1,2,0:0:0:0:
64,192,44933,1,4,0:0:0:0:
448,192,45286,1,2,0:0:0:0:
192,192,45639,1,4,0:0:0:0:
64,192,45992,1,8,0:0:0:0:
320,192,45992,1,0,0:0:0:0:
448,192,46345,1,4,0:0:0:0:
320,192,46521,1,4,0:0:0:0:
192,192,46698,1,0,0:0:0:0:
64,192,47051,1,6,0:0:0:0:
192,192,47404,1,8,0:0:0:0:
448,192,47404,1,0,0:0:0:0:
320,192,48109,1,2,0:0:0:0:
64,192,48462,1,4,0:0:0:0:
320,192,48639,1,4,0:0:0:0:
192,192,48815,1,8,0:0:0:0:
448,192,48815,1,0,0:0:0:0:
320,192,49168,1,6,0:0:0:0:
192,192,49521,1,0,0:0:0:0:
64,192,50227,1,2,0:0:0:0:
320,192,50227,1,8,0:0:0:0:
192,192,50580,1,6,0:0:0:0:
448,192,50933,1,2,0:0:0:0:
320,192,51286,1,4,0:0:0:0:
64,192,51639,1,8,0:0:0:0:
448,192,51639,1,0,0:0:0:0:
192,192,51992,1,4,0:0:0:0:
448,192,52168,1,4,0:0:0:0:
320,192,52345,1,0,0:0:0:0:
64,192,52698,1,6,0:0:0:0:
320,192,53051,1,8,0:0:0:0:
448,192,53051,1,0,0:0:0:0:
192,192,53757,1,2,0:0:0:0:
320,192,54109,1,4,0:0:0:0:
192,192,54286,1,4,0:0:0:0:
64,192,54462,1,8,0:0:0:0:
448,192,54462,1,0,0:0:0:0:
320,192,54815,1,6,0:0:0:0:
192,192,55168,1,0,0:0:0:0:
64,192,55874,1,8,0:0:0:0:
448,192,55874,1,2,0:0:0:0:
192,192,56227,1,4,0:0:0:0:
320,192,56227,1,2,0:0:0:0:
64,192,56580,1,2,0:0:0:0:
448,192,56580,1,0,0:0:0:0:
320,192,56933,1,4,0:0:0:0:
64,192,57286,1,8,0:0:0:0:
192,192,57286,1,0,0:0:0:0:
320,192,57639,1,4,0:0:0:0:
192,192,57815,1,4,0:0:0:0:
64,192,57992,1,0,0:0:0:0:
448,192,57992,1,0,0:0:0:0:
192,192,58345,1,6,0:0:0:0:
320,192,58698,1,8,0:0:0:0:
448,192,58698,1,0,0:0:0:0:
64,192,59404,1,2,0:0:0:0:
192,192,59404,1,0,0:0:0:0:
320,192,59757,1,4,0:0:0:0:
64,192,60109,1,8,0:0:0:0:
448,192,60109,1,0,0:0:0:0:
192,192,60462,1,6,0:0:0:0:
320,192,60815,1,0,0:0:0:0:
64,192,61521,1,2,0:0:0:0:
192,192,61521,1,8,0:0:0:0:
320,192,61874,1,6,0:0:0:0:
64,192,62227,1,2,0:0:0:0:
192,192,62580,1,4,0:0:0:0:
320,192,62933,1,8,0:0:0:0:
448,192,62933,1,0,0:0:0:0:
64,192,63286,1,4,0:0:0:0:
192,192,63462,1,4,0:0:0:0:
320,192,63639,1,0,0:0:0:0:
192,192,63992,1,6,0:0:0:0:
64,192,64345,1,8,0:0:0:0:
448,192,64345,1,0,0:0:0:0:
192,192,65051,1,2,0:0:0:0:
320,192,65404,1,4,0:0:0:0:
192,192,65580,1,4,0:0:0:0:
64,192,65757,1,8,0:0:0:0:
448,192,65757,1,0,0:0:0:0:
192,192,66109,1,6,0:0:0:0:
320,192,66462,1,0,0:0:0:0:
64,192,66815,1,6,0:0:0:0:
448,192,67168,128,10,67521:0:0:0:0:
192,192,67521,128,6,67874:0:0:0:0:
64,192,67874,1,2,0:0:0:0:
448,192,68227,1,4,0:0:0:0:
192,192,68580,1,8,0:0:0:0:
448,192,68580,1,0,0:0:0:0:
320,192,68933,128,4,69286:0:0:0:0:
64,192,69286,1,0,0:0:0:0:
448,192,69639,1,6,0:0:0:0:
192,192,69992,1,8,0:0:0:0:
448,192,69992,1,0,0:0:0:0:
320,192,70345,128,4,70698:0:0:0:0:
64,192,70698,1,2,0:0:0:0:
320,192,71051,128,4,71404:0:0:0:0:
64,192,71404,1,8,0:0:0:0:
448,192,71404,1,0,0:0:0:0:
320,192,71757,128,6,72109:0:0:0:0:
64,192,72109,1,0,0:0:0:0:
320,192,72462,1,6,0:0:0:0:
320,192,72815,1,2,0:0:0:0:
448,192,72815,1,8,0:0:0:0:
64,192,73168,1,6,0:0:0:0:
192,192,73521,1,2,0:0:0:0:
320,192,73874,1,4,0:0:0:0:
320,192,74227,1,8,0:0:0:0:
448,192,74227,1,0,0:0:0:0:
64,192,74580,128,4,74933:0:0:0:0:
448,192,74933,128,0,75286:0:0:0:0:
192,192,75286,128,6,75639:0:0:0:0:
320,192,75639,128,8,75992:0:0:0:0:
448,192,75639,1,0,0:0:0:0:
64,192,75992,128,4,76345:0:0:0:0:
192,192,76345,1,2,0:0:0:0:
448,192,76698,1,4,0:0:0:0:
64,192,77051,1,8,0:0:0:0:
192,192,77051,1,0,0:0:0:0:
320,192,77404,128,6,77757:0:0:0:0:
64,192,77757,1,0,0:0:0:0:
192,192,78109,128,6,78462:0:0:0:0:
64,192,78462,1,8,0:0:0:0:
320,192,78462,128,2,78815:0:0:0:0:
448,192,78815,1,6,0:0:0:0:
64,192,79168,1,2,0:0:0:0:
448,192,79521,1,4,0:0:0:0:
192,192,79874,1,8,0:0:0:0:
448,192,79874,1,0,0:0:0:0:
320,192,80227,128,4,80580:0:0:0:0:
64,192,80580,1,0,0:0:0:0:
448,192,80933,1,6,0:0:0:0:
192,192,81286,1,8,0:0:0:0:
448,192,81286,1,0,0:0:0:0:
320,192,81639,128,4,81992:0:0:0:0:
64,192,81992,128,2,82345:0:0:0:0:
192,192,82345,128,4,82698:0:0:0:0:
320,192,82698,128,8,83051:0:0:0:0:
448,192,82698,1,0,0:0:0:0:
64,192,83051,128,6,83404:0:0:0:0:
192,192,83404,128,0,83757:0:0:0:0:
320,192,83757,128,6,84109:0:0:0:0:
64,192,84109,1,2,0:0:0:0:
448,192,84109,128,8,84462:0:0:0:0:
192,192,84462,128,6,84815:0:0:0:0:
320,192,84815,128,2,85168:0:0:0:0:
64,192,85168,128,4,85521:0:0:0:0:
320,192,85521,1,8,0:0:0:0:
448,192,85521,128,0,85874:0:0:0:0:
192,192,85874,128,4,86227:0:0:0:0:
448,192,86227,128,0,86580:0:0:0:0:
320,192,86580,128,6,86933:0:0:0:0:
64,192,86933,1,8,0:0:0:0:
192,192,86933,128,0,87286:0:0:0:0:
320,192,87286,128,4,87639:0:0:0:0:
448,192,87639,1,2,0:0:0:0:
192,192,87992,1,4,0:0:0:0:
64,192,88345,1,8,0:0:0:0:
192,192,88345,1,0,0:0:0:0:
448,192,88698,1,6,0:0:0:0:
192,192,89051,128,0,89757:0:0:0:0:
64,192,89757,1,8,0:0:0:0:
448,192,89757,1,2,0:0:0:0:
192,192,90109,1,6,0:0:0:0:
320,192,90462,1,2,0:0:0:0:
64,192,90815,1,4,0:0:0:0:
192,192,91168,1,8,0:0:0:0:
448,192,91168,1,0,0:0:0:0:
320,192,91521,1,4,0:0:0:0:
64,192,91874,1,0,0:0:0:0:
320,192,92227,1,6,0:0:0:0:
192,192,92580,1,8,0:0:0:0:
448,192,92580,1,0,0:0:0:0:
64,192,92933,1,4,0:0:0:0:
320,192,93286,1,2,0:0:0:0:
192,192,93639,1,4,0:0:0:0:
320,192,93815,1,4,0:0:0:0:
64,192,93992,1,8,0:0:0:0:
448,192,93992,1,0,0:0:0:0:
320,192,94345,1,6,0:0:0:0:
192,192,94698,1,0,0:0:0:0:
64,192,95404,1,8,0:0:0:0:
448,192,95404,1,2,0:0:0:0:
320,192,95757,1,6,0:0:0:0:
192,192,96109,1,2,0:0:0:0:
448,192,96462,1,4,0:0:0:0:
64,192,96815,1,8,0:0:0:0:
320,192,96815,1,0,0:0:0:0:
192,192,97168,1,4,0:0:0:0:
320,192,97521,1,0,0:0:0:0:
64,192,97874,1,6,0:0:0:0:
192,192,98227,1,8,0:0:0:0:
448,192,98227,1,0,0:0:0:0:
64,192,98757,1,8,0:0:0:0:
320,192,98933,1,2,0:0:0:0:
192,192,99286,1,4,0:0:0:0:
64,192,99639,1,8,0:0:0:0:
448,192,99639,1,0,0:0:0:0:
192,192,99992,1,6,0:0:0:0:
320,192,100345,1,0,0:0:0:0:
192,192,101051,1,8,0:0:0:0:
448,192,101051,1,2,0:0:0:0:
320,192,101404,1,6,0:0:0:0:
64,192,101757,1,2,0:0:0:0:
192,192,102109,1,4,0:0:0:0:
320,192,102462,1,8,0:0:0:0:
448,192,102462,1,0,0:0:0:0:
64,192,102815,1,4,0:0:0:0:
192,192,103168,1,0,0:0:0:0:
320,192,103521,1,6,0:0:0:0:
64,192,103874,1,8,0:0:0:0:
448,192,103874,1,0,0:0:0:0:
320,192,104580,1,2,0:0:0:0:
192,192,104933,1,4,0:0:0:0:
64,192,105286,1,8,0:0:0:0:
448,192,105286,1,0,0:0:0:0:
192,192,105639,1,6,0:0:0:0:
320,192,105992,1,0,0:0:0:0:
64,192,106698,1,2,0:0:0:0:
448,192,106698,1,8,0:0:0:0:
192,192,107051,1,6,0:0:0:0:
320,192,107404,1,2,0:0:0:0:
64,192,107757,1,4,0:0:0:0:
192,192,108109,1,8,0:0:0:0:
448,192,108109,1,0,0:0:0:0:
320,192,108462,1,4,0:0:0:0:
64,192,108815,1,0,0:0:0:0:
192,192,109168,1,6,0:0:0:0:
320,192,109521,1,8,0:0:0:0:
448,192,109521,1,0,0:0:0:0:
64,192,110051,1,8,0:0:0:0:
320,192,110227,1,2,0:0:0:0:
192,192,110580,1,4,0:0:0:0:
64,192,110933,1,8,0:0:0:0:
448,192,110933,1,0,0:0:0:0:
320,192,111286,1,6,0:0:0:0:
192,192,111639,1,0,0:0:0:0:
64,192,112345,1,8,0:0:0:0:
448,192,112345,1,2,0:0:0:0:
192,192,112698,1,6,0:0:0:0:
320,192,113051,1,2,0:0:0:0:
64,192,113404,1,4,0:0:0:0:
192,192,113757,1,8,0:0:0:0:
448,192,113757,1,0,0:0:0:0:
320,192,114109,1,4,0:0:0:0:
192,192,114286,1,4,0:0:0:0:
64,192,114462,1,0,0:0:0:0:
448,192,114815,1,6,0:0:0:0:
64,192,115168,1,8,0:0:0:0:
320,192,115168,1,0,0:0:0:0:
192,192,115874,1,2,0:0:0:0:
448,192,116227,1,4,0:0:0:0:
192,192,116404,1,4,0:0:0:0:
64,192,116580,1,8,0:0:0:0:
320,192,116580,1,0,0:0:0:0:
192,192,116933,1,6,0:0:0:0:
320,192,117286,1,0,0:0:0:0:
192,192,117992,1,2,0:0:0:0:
448,192,117992,1,8,0:0:0:0:
64,192,118345,1,6,0:0:0:0:
320,192,118698,1,2,0:0:0:0:
192,192,119051,1,4,0:0:0:0:
64,192,119404,1,8,0:0:0:0:
448,192,119404,1,0,0:0:0:0:
320,192,119757,1,4,0:0:0:0:
448,192,119933,1,4,0:0:0:0:
192,192,120109,1,0,0:0:0:0:
64,192,120462,1,6,0:0:0:0:
320,192,120815,1,8,0:0:0:0:
448,192,120815,1,0,0:0:0:0:
320,192,121521,1,2,0:0:0:0:
64,192,121874,1,4,0:0:0:0:
320,192,122051,1,4,0:0:0:0:
192,192,122227,1,8,0:0:0:0:
448,192,122227,1,0,0:0:0:0:
320,192,122580,1,6,0:0:0:0:
192,192,122933,1,0,0:0:0:0:
320,192,123639,1,8,0:0:0:0:
448,192,123639,1,2,0:0:0:0:
64,192,123992,1,4,0:0:0:0:
192,192,123992,1,2,0:0:0:0:
320,192,124345,1,2,0:0:0:0:
448,192,124345,1,0,0:0:0:0:
192,192,124698,1,4,0:0:0:0:
64,192,125051,1,8,0:0:0:0:
448,192,125051,1,0,0:0:0:0:
320,192,125404,1,4,0:0:0:0:
448,192,125580,1,4,0:0:0:0:
64,192,125757,1,0,0:0:0:0:
192,192,125757,1,0,0:0:0:0:
320,192,126109,1,6,0:0:0:0:
64,192,126462,1,8,0:0:0:0:
448,192,126462,1,0,0:0:0:0:
192,192,127168,1,2,0:0:0:0:
320,192,127168,1,0,0:0:0:0:
448,192,127521,1,4,0:0:0:0:
64,192,127874,1,8,0:0:0:0:
192,192,127874,1,0,0:0:0:0:
320,192,128227,1,6,0:0:0:0:
448,192,128580,1,0,0:0:0:0:
64,192,129286,1,2,0:0:0:0:
320,192,129286,1,8,0:0:0:0:
192,192,129639,1,6,0:0:0:0:
448,192,129992,1,2,0:0:0:0:
320,192,130345,1,4,0:0:0:0:
64,192,130698,1,8,0:0:0:0:
192,192,130698,1,0,0:0:0:0:
448,192,131051,1,4,0:0:0:0:
320,192,131227,1,4,0:0:0:0:
192,192,131404,1,0,0:0:0:0:
320,192,131757,1,6,0:0:0:0:
64,192,132109,1,8,0:0:0:0:
448,192,132109,1,0,0:0:0:0:
320,192,132815,1,2,0:0:0:0:
192,192,133168,1,4,0:0:0:0:
320,192,133345,1,4,0:0:0:0:
64,192,133521,1,8,0:0:0:0:
448,192,133521,1,0,0:0:0:0:
192,192,133874,1,6,0:0:0:0:
320,192,134227,1,0,0:0:0:0:
64,192,134580,1,6,0:0:0:0:
448,192,134933,128,10,135286:0:0:0:0:
192,192,135286,128,6,135639:0:0:0:0:
64,192,135639,1,2,0:0:0:0:
448,192,135992,1,4,0:0:0:0:
192,192,136345,1,8,0:0:0:0:
448,192,136345,1,0,0:0:0:0:
320,192,136698,128,4,137051:0:0:0:0:
64,192,137051,1,0,0:0:0:0:
448,192,137404,1,6,0:0:0:0:
192,192,137757,1,8,0:0:0:0:
448,192,137757,1,0,0:0:0:0:
320,192,138109,128,4,138462:0:0:0:0:
64,192,138462,1,2,0:0:0:0:
320,192,138815,128,4,139168:0:0:0:0:
64,192,139168,1,8,0:0:0:0:
448,192,139168,1,0,0:0:0:0:
320,192,139521,128,6,139874:0:0:0:0:
64,192,139874,1,0,0:0:0:0:
320,192,140227,1,6,0:0:0:0:
320,192,140580,1,2,0:0:0:0:
448,192,140580,1,8,0:0:0:0:
64,192,140933,1,6,0:0:0:0:
192,192,141286,1,2,0:0:0:0:
320,192,141639,1,4,0:0:0:0:
320,192,141992,1,8,0:0:0:0:
448,192,141992,1,0,0:0:0:0:
64,192,142345,128,4,142698:0:0:0:0:
448,192,142698,128,0,143051:0:0:0:0:
192,192,143051,128,6,143404:0:0:0:0:
320,192,143404,128,8,143757:0:0:0:0:
448,192,143404,1,0,0:0:0:0:
64,192,143757,128,4,144109:0:0:0:0:
192,192,144109,1,2,0:0:0:0:
448,192,144462,1,4,0:0:0:0:
64,192,144815,1,8,0:0:0:0:
192,192,144815,1,0,0:0:0:0:
320,192,145168,128,6,145521:0:0:0:0:
64,192,145521,1,0,0:0:0:0:
192,192,145874,128,6,146227:0:0:0:0:
64,192,146227,1,8,0:0:0:0:
320,192,146227,128,2,146580:0:0:0:0:
448,192,146580,1,6,0:0:0:0:
64,192,146933,1,2,0:0:0:0:
448,192,147286,1,4,0:0:0:0:
192,192,147639,1,8,0:0:0:0:
448,192,147639,1,0,0:0:0:0:
320,192,147992,128,4,148345:0:0:0:0:
64,192,148345,1,0,0:0:0:0:
448,192,148698,1,6,0:0:0:0:
192,192,149051,1,8,0:0:0:0:
448,192,149051,1,0,0:0:0:0:
320,192,149404,128,4,149757:0:0:0:0:
64,192,149757,128,2,150109:0:0:0:0:
192,192,150109,128,4,150462:0:0:0:0:
320,192,150462,128,8,150815:0:0:0:0:
448,192,150462,1,0,0:0:0:0:
64,192,150815,128,6,151168:0:0:0:0:
192,192,151168,128,0,151521:0:0:0:0:
320,192,151521,128,6,151874:0:0:0:0:
64,192,151874,1,2,0:0:0:0:
448,192,151874,128,8,152227:0:0:0:0:
192,192,152227,128,6,152580:0:0:0:0:
320,192,152580,128,2,152933:0:0:0:0:
64,192,152933,128,4,153286:0:0:0:0:
320,192,153286,1,8,0:0:0:0:
448,192,153286,128,0,153639:0:0:0:0:
192,192,153639,128,4,153992:0:0:0:0:
448,192,153992,128,0,154345:0:0:0:0:
320,192,154345,128,6,154698:0:0:0:0:
64,192,154698,1,8,0:0:0:0:
192,192,154698,128,0,155051:0:0:0:0:
320,192,155051,128,4,155404:0:0:0:0:
448,192,155404,1,2,0:0:0:0:
192,192,155757,1,4,0:0:0:0:
64,192,156109,1,8,0:0:0:0:
192,192,156109,1,0,0:0:0:0:
448,192,156462,1,6,0:0:0:0:
192,192,156815,128,0,157521:0:0:0:0:
64,192,157521,1,8,0:0:0:0:
448,192,157521,1,2,0:0:0:0:
192,192,157874,1,4,0:0:0:0:
320,192,157874,1,2,0:0:0:0:
64,192,158227,1,2,0:0:0:0:
448,192,158227,1,0,0:0:0:0:
320,192,158580,1,0,0:0:0:0:
64,192,158933,1,0,0:0:0:0:
192,192,158933,1,0,0:0:0:0:
320,192,159286,1,0,0:0:0:0:
192,192,159462,1,0,0:0:0:0:
64,192,159639,1,0,0:0:0:0:
448,192,159639,1,0,0:0:0:0:
192,192,159992,1,2,0:0:0:0:
320,192,160345,1,0,0:0:0:0:
448,192,160345,1,0,0:0:0:0:
64,192,161051,1,2,0:0:0:0:
192,192,161051,1,0,0:0:0:0:
320,192,161404,1,0,0:0:0:0:
192,192,161580,1,0,0:0:0:0:
64,192,161757,1,0,0:0:0:0:
448,192,162109,1,0,0:0:0:0:
192,192,162462,1,0,0:0:0:0:
320,192,163168,1,0,0:0:0:0:
448,192,163521,1,2,0:0:0:0:
64,192,163874,1,2,0:0:0:0:
192,192,164227,1,0,0:0:0:0:
320,192,164580,1,0,0:0:0:0:
448,192,164933,1,0,0:0:0:0:
64,192,165109,1,0,0:0:0:0:
192,192,165286,1,0,0:0:0:0:
320,192,165639,1,2,0:0:0:0:
64,192,165992,1,0,0:0:0:0:
192,192,166698,1,2,0:0:0:0:
320,192,167051,1,0,0:0:0:0:
448,192,167227,1,0,0:0:0:0:
64,192,167404,1,0,0:0:0:0:
448,192,167757,1,0,0:0:0:0:
192,192,168109,1,0,0:0:0:0:
448,192,168815,1,0,0:0:0:0:
320,192,169168,1,2,0:0:0:0:
192,192,169521,1,2,0:0:0:0:
448,192,169874,1,4,0:0:0:0:
64,192,170227,1,8,0:0:0:0:
192,192,170227,1,0,0:0:0:0:
320,192,170580,1,4,0:0:0:0:
448,192,170757,1,4,0:0:0:0:
192,192,170933,1,0,0:0:0:0:
64,192,171286,1,6,0:0:0:0:
320,192,171639,1,8,0:0:0:0:
448,192,171639,1,0,0:0:0:0:
192,192,172345,1,2,0:0:0:0:
320,192,172698,1,4,0:0:0:0:
64,192,173051,1,8,0:0:0:0:
192,192,173051,1,0,0:0:0:0:
448,192,173404,1,6,0:0:0:0:
64,192,173757,1,0,0:0:0:0:
320,192,174462,1,2,0:0:0:0:
448,192,174462,1,8,0:0:0:0:
192,192,174815,1,6,0:0:0:0:
448,192,175168,1,2,0:0:0:0:
320,192,175521,1,0,0:0:0:0:
64,192,175874,1,0,0:0:0:0:
192,192,176227,1,2,0:0:0:0:
448,192,176404,1,0,0:0:0:0:
320,192,176580,1,2,0:0:0:0:
64,192,176933,1,0,0:0:0:0:
448,192,177286,1,0,0:0:0:0:
192,192,177992,1,2,0:0:0:0:
320,192,178345,1,0,0:0:0:0:
192,192,178521,1,0,0:0:0:0:
64,192,178698,1,0,0:0:0:0:
448,192,179051,1,0,0:0:0:0:
192,192,179404,128,0,180462:0:0:0:0:
