osu file format v14

[General]
AudioFilename: audio.mp3
AudioLeadIn: 0
PreviewTime: 21992
Countdown: 0
SampleSet: Soft
StackLeniency: 0.7
Mode: 3
LetterboxInBreaks: 0
SpecialStyle: 0
WidescreenStoryboard: 0

[Editor]
Bookmarks: 110,11404,20580,22698,45286,66462,67874,90462,113051,134227,135639,158227,169521,175168
DistanceSpacing: 1.4
BeatDivisor: 8
GridSize: 8
TimelineZoom: 1.4

[Metadata]
Title:Gou Zhi Qi Shi
TitleUnicode:勾指起誓
Artist:Ling Yuan yousa
ArtistUnicode:泠鸢yousa
Creator:Madoka2574
Version:Pinky Swear
Source:
Tags:ExNeko Shima_Rin Shima Rin Tofu1222 Chinese ilem 洛天依 翻唱 小清新 Bilibili 哔哩哔哩动画 2:3 cover Vocaloid Luo Tianyi Pinky Swear Indie Pop
BeatmapID:2371009
BeatmapSetID:1135268

[Difficulty]
HPDrainRate:8
CircleSize:4
OverallDifficulty:8
ApproachRate:5
SliderMultiplier:1.4
SliderTickRate:1

[Events]
//Background and Video events
0,0,"BG.jpg",0,0
Video,-432,"video.mp4"
//Break Periods
//Storyboard Layer 0 (Background)
//Storyboard Layer 1 (Fail)
//Storyboard Layer 2 (Pass)
//Storyboard Layer 3 (Foreground)
//Storyboard Layer 4 (Overlay)
//Storyboard Sound Samples

[TimingPoints]
110,705.882352941176,4,2,1,25,1,0
22698,-100,4,2,1,40,0,0
67874,-100,4,2,1,40,0,1
89757,-100,4,2,1,40,0,0
135639,-100,4,2,1,40,0,1
157521,-100,4,2,1,40,0,0
158227,-100,4,2,1,30,0,0
169521,-100,4,2,1,40,0,1
175168,-100,4,2,1,30,0,0

[HitObjects]
320,192,110,5,0,0:0:0:0:
448,192,110,1,0,0:0:0:0:
64,192,286,1,0,0:0:0:0:
192,192,462,1,0,0:0:0:0:
320,192,639,1,0,0:0:0:0:
448,192,815,1,0,0:0:0:0:
192,192,1168,1,0,0:0:0:0:
320,192,1168,1,0,0:0:0:0:
64,192,1521,1,0,0:0:0:0:
320,192,1521,1,0,0:0:0:0:
448,192,1698,1,0,0:0:0:0:
64,192,1874,1,0,0:0:0:0:
192,192,2051,1,0,0:0:0:0:
320,192,2227,1,0,0:0:0:0:
64,192,2580,1,0,0:0:0:0:
448,192,2580,1,0,0:0:0:0:
64,192,2933,1,0,0:0:0:0:
192,192,2933,1,0,0:0:0:0:
320,192,3109,1,0,0:0:0:0:
448,192,3286,1,0,0:0:0:0:
64,192,3462,1,0,0:0:0:0:
192,192,3639,1,0,0:0:0:0:
320,192,3992,1,0,0:0:0:0:
448,192,3992,1,0,0:0:0:0:
64,192,4345,1,0,0:0:0:0:
448,192,4345,1,0,0:0:0:0:
192,192,4521,1,0,0:0:0:0:
320,192,4698,1,0,0:0:0:0:
64,192,5051,1,0,0:0:0:0:
192,192,5051,1,0,0:0:0:0:
448,192,5227,1,0,0:0:0:0:
320,192,5315,1,0,0:0:0:0:
192,192,5404,1,0,0:0:0:0:
64,192,5757,1,0,0:0:0:0:
448,192,5757,1,0,0:0:0:0:
192,192,5933,1,0,0:0:0:0:
320,192,6109,1,0,0:0:0:0:
192,192,6286,1,0,0:0:0:0:
448,192,6462,1,0,0:0:0:0:
64,192,6815,1,0,0:0:0:0:
320,192,6815,1,0,0:0:0:0:
192,192,7168,1,0,0:0:0:0:
448,192,7168,1,0,0:0:0:0:
64,192,7345,1,0,0:0:0:0:
320,192,7521,1,0,0:0:0:0:
192,192,7698,1,0,0:0:0:0:
448,192,7874,1,0,0:0:0:0:
192,192,8227,1,0,0:0:0:0:
320,192,8227,1,0,0:0:0:0:
64,192,8404,1,0,0:0:0:0:
64,192,8757,1,0,0:0:0:0:
192,192,8933,1,0,0:0:0:0:
320,192,9109,1,0,0:0:0:0:
448,192,9286,1,0,0:0:0:0:
64,192,9462,1,0,0:0:0:0:
320,192,9639,1,0,0:0:0:0:
192,192,9815,1,0,0:0:0:0:
448,192,9992,1,0,0:0:0:0:
320,192,10168,1,0,0:0:0:0:
64,192,10345,1,0,0:0:0:0:
320,192,10521,1,0,0:0:0:0:
192,192,10698,1,0,0:0:0:0:
448,192,10874,1,0,0:0:0:0:
192,192,11051,1,0,0:0:0:0:
64,192,11227,1,0,0:0:0:0:
320,192,11404,5,4,0:0:0:0:
448,192,11404,1,0,0:0:0:0:
64,192,11580,1,0,0:0:0:0:
192,192,11757,1,0,0:0:0:0:
320,192,11933,1,0,0:0:0:0:
64,192,12109,1,8,0:0:0:0:
448,192,12109,128,0,12286:0:0:0:0:
192,192,12462,1,0,0:0:0:0:
320,192,12462,1,0,0:0:0:0:
64,192,12815,1,0,0:0:0:0:
192,192,12815,1,0,0:0:0:0:
320,192,12992,1,0,0:0:0:0:
448,192,13168,1,4,0:0:0:0:
192,192,13345,1,0,0:0:0:0:
64,192,13521,128,8,13698:0:0:0:0:
320,192,13521,1,0,0:0:0:0:
192,192,13874,1,0,0:0:0:0:
448,192,13874,1,0,0:0:0:0:
64,192,14227,1,4,0:0:0:0:
320,192,14227,1,0,0:0:0:0:
192,192,14404,1,0,0:0:0:0:
448,192,14580,1,0,0:0:0:0:
64,192,14757,1,0,0:0:0:0:
192,192,14933,128,8,15109:0:0:0:0:
320,192,14933,1,0,0:0:0:0:
320,192,15286,1,0,0:0:0:0:
448,192,15286,1,0,0:0:0:0:
64,192,15639,1,0,0:0:0:0:
192,192,15639,1,0,0:0:0:0:
320,192,15815,1,0,0:0:0:0:
192,192,15992,1,4,0:0:0:0:
448,192,15992,1,0,0:0:0:0:
64,192,16345,1,8,0:0:0:0:
320,192,16345,128,0,16521:0:0:0:0:
192,192,16521,1,0,0:0:0:0:
64,192,16698,1,0,0:0:0:0:
448,192,16698,128,0,16874:0:0:0:0:
192,192,17051,1,4,0:0:0:0:
320,192,17051,1,0,0:0:0:0:
448,192,17227,1,0,0:0:0:0:
192,192,17404,1,0,0:0:0:0:
320,192,17580,1,0,0:0:0:0:
64,192,17757,128,8,17933:0:0:0:0:
448,192,17757,1,0,0:0:0:0:
192,192,18109,1,0,0:0:0:0:
448,192,18109,1,0,0:0:0:0:
64,192,18462,1,0,0:0:0:0:
320,192,18462,1,0,0:0:0:0:
448,192,18639,1,0,0:0:0:0:
64,192,18815,1,4,0:0:0:0:
192,192,18992,1,0,0:0:0:0:
320,192,19168,128,8,19345:0:0:0:0:
448,192,19168,1,0,0:0:0:0:
64,192,19521,1,0,0:0:0:0:
448,192,19521,1,0,0:0:0:0:
192,192,19698,1,0,0:0:0:0:
320,192,20051,1,0,0:0:0:0:
64,192,20227,1,0,0:0:0:0:
448,192,20404,1,0,0:0:0:0:
192,192,20580,1,0,0:0:0:0:
320,192,20668,1,0,0:0:0:0:
448,192,20757,1,0,0:0:0:0:
320,192,20933,1,0,0:0:0:0:
192,192,21109,1,0,0:0:0:0:
64,192,21286,1,0,0:0:0:0:
192,192,21374,1,0,0:0:0:0:
320,192,21462,1,0,0:0:0:0:
448,192,21551,1,0,0:0:0:0:
64,192,21639,1,2,0:0:0:0:
192,192,21639,1,0,0:0:0:0:
448,192,21727,1,0,0:0:0:0:
320,192,21815,1,0,0:0:0:0:
192,192,21904,1,0,0:0:0:0:
64,192,21992,1,8,0:0:0:0:
448,192,21992,1,0,0:0:0:0:
192,192,22168,1,2,0:0:0:0:
320,192,22168,1,0,0:0:0:0:
448,192,22345,1,0,0:0:0:0:
64,192,22521,1,2,0:0:0:0:
192,192,22521,1,0,0:0:0:0:
64,192,22698,1,2,0:0:0:0:
192,192,22698,1,0,0:0:0:0:
320,192,23051,1,4,0:0:0:0:
320,192,23227,1,4,0:0:0:0:
64,192,23404,1,8,0:0:0:0:
448,192,23404,1,0,0:0:0:0:
192,192,23757,1,4,0:0:0:0:
192,192,23933,1,4,0:0:0:0:
448,192,24109,1,0,0:0:0:0:
64,192,24462,1,4,0:0:0:0:
320,192,24462,1,2,0:0:0:0:
64,192,24815,1,8,0:0:0:0:
448,192,24815,1,0,0:0:0:0:
192,192,24992,1,2,0:0:0:0:
320,192,24992,1,0,0:0:0:0:
448,192,25168,1,4,0:0:0:0:
64,192,25345,1,8,0:0:0:0:
192,192,25345,1,0,0:0:0:0:
320,192,25521,1,2,0:0:0:0:
448,192,25521,1,0,0:0:0:0:
64,192,25874,1,4,0:0:0:0:
64,192,26051,1,4,0:0:0:0:
320,192,26227,1,8,0:0:0:0:
448,192,26227,1,0,0:0:0:0:
64,192,26580,1,4,0:0:0:0:
192,192,26580,1,2,0:0:0:0:
64,192,26757,1,4,0:0:0:0:
192,192,26757,1,2,0:0:0:0:
448,192,26933,1,0,0:0:0:0:
64,192,27109,1,2,0:0:0:0:
320,192,27109,1,0,0:0:0:0:
64,192,27286,1,4,0:0:0:0:
320,192,27286,1,2,0:0:0:0:
192,192,27639,1,8,0:0:0:0:
448,192,27639,1,2,0:0:0:0:
320,192,27815,1,2,0:0:0:0:
448,192,27815,1,0,0:0:0:0:
64,192,27992,1,4,0:0:0:0:
192,192,28168,1,2,0:0:0:0:
320,192,28168,1,0,0:0:0:0:
192,192,28345,1,2,0:0:0:0:
320,192,28345,1,0,0:0:0:0:
64,192,28698,1,4,0:0:0:0:
64,192,28874,1,4,0:0:0:0:
192,192,29051,1,8,0:0:0:0:
448,192,29051,1,0,0:0:0:0:
320,192,29404,1,4,0:0:0:0:
320,192,29580,1,4,0:0:0:0:
64,192,29757,1,0,0:0:0:0:
320,192,30109,1,4,0:0:0:0:
448,192,30109,1,2,0:0:0:0:
192,192,30462,1,8,0:0:0:0:
448,192,30462,1,0,0:0:0:0:
64,192,30639,1,2,0:0:0:0:
320,192,30639,1,0,0:0:0:0:
448,192,30815,1,4,0:0:0:0:
64,192,30992,1,8,0:0:0:0:
192,192,30992,1,0,0:0:0:0:
320,192,31168,1,2,0:0:0:0:
448,192,31168,1,0,0:0:0:0:
192,192,31521,1,4,0:0:0:0:
192,192,31698,1,4,0:0:0:0:
64,192,31874,1,8,0:0:0:0:
320,192,31874,1,0,0:0:0:0:
320,192,32227,1,4,0:0:0:0:
448,192,32227,1,2,0:0:0:0:
320,192,32404,1,4,0:0:0:0:
448,192,32404,1,2,0:0:0:0:
192,192,32580,1,0,0:0:0:0:
64,192,32757,1,2,0:0:0:0:
448,192,32757,1,0,0:0:0:0:
64,192,32933,1,4,0:0:0:0:
448,192,32933,1,2,0:0:0:0:
192,192,33286,1,8,0:0:0:0:
448,192,33286,1,2,0:0:0:0:
64,192,33462,1,2,0:0:0:0:
448,192,33462,1,0,0:0:0:0:
320,192,33639,1,4,0:0:0:0:
64,192,33815,1,2,0:0:0:0:
192,192,33815,1,0,0:0:0:0:
64,192,33992,1,2,0:0:0:0:
192,192,33992,1,0,0:0:0:0:
320,192,34345,1,4,0:0:0:0:
320,192,34521,1,4,0:0:0:0:
64,192,34698,1,8,0:0:0:0:
448,192,34698,1,0,0:0:0:0:
192,192,35051,1,4,0:0:0:0:
192,192,35227,1,4,0:0:0:0:
320,192,35404,1,0,0:0:0:0:
192,192,35757,1,2,0:0:0:0:
448,192,35757,1,4,0:0:0:0:
64,192,36109,1,8,0:0:0:0:
448,192,36109,1,0,0:0:0:0:
192,192,36286,1,2,0:0:0:0:
320,192,36286,1,0,0:0:0:0:
64,192,36462,1,4,0:0:0:0:
320,192,36639,1,8,0:0:0:0:
448,192,36639,1,0,0:0:0:0:
64,192,36815,1,2,0:0:0:0:
192,192,36815,1,0,0:0:0:0:
320,192,37168,1,4,0:0:0:0:
320,192,37345,1,4,0:0:0:0:
64,192,37521,1,8,0:0:0:0:
448,192,37521,1,0,0:0:0:0:
192,192,37874,1,2,0:0:0:0:
320,192,37874,1,4,0:0:0:0:
192,192,38051,1,2,0:0:0:0:
320,192,38051,1,4,0:0:0:0:
448,192,38227,1,0,0:0:0:0:
64,192,38404,1,2,0:0:0:0:
192,192,38404,1,0,0:0:0:0:
64,192,38580,1,2,0:0:0:0:
192,192,38580,1,4,0:0:0:0:
320,192,38933,1,2,0:0:0:0:
448,192,38933,1,8,0:0:0:0:
64,192,39109,1,2,0:0:0:0:
320,192,39109,1,0,0:0:0:0:
192,192,39286,1,4,0:0:0:0:
64,192,39462,1,2,0:0:0:0:
448,192,39462,1,0,0:0:0:0:
64,192,39639,1,2,0:0:0:0:
448,192,39639,1,0,0:0:0:0:
192,192,39992,1,4,0:0:0:0:
192,192,40168,1,4,0:0:0:0:
64,192,40345,1,8,0:0:0:0:
448,192,40345,1,0,0:0:0:0:
320,192,40698,1,4,0:0:0:0:
320,192,40874,1,4,0:0:0:0:
64,192,41051,1,0,0:0:0:0:
192,192,41404,1,4,0:0:0:0:
448,192,41404,1,2,0:0:0:0:
64,192,41757,1,8,0:0:0:0:
192,192,41757,1,0,0:0:0:0:
320,192,41933,1,2,0:0:0:0:
448,192,41933,1,0,0:0:0:0:
64,192,42109,1,4,0:0:0:0:
192,192,42286,1,8,0:0:0:0:
448,192,42286,1,0,0:0:0:0:
64,192,42462,1,2,0:0:0:0:
320,192,42462,1,0,0:0:0:0:
448,192,42815,1,4,0:0:0:0:
448,192,42992,1,4,0:0:0:0:
64,192,43168,1,8,0:0:0:0:
192,192,43168,1,0,0:0:0:0:
320,192,43521,1,4,0:0:0:0:
448,192,43521,1,2,0:0:0:0:
320,192,43698,1,4,0:0:0:0:
448,192,43698,1,2,0:0:0:0:
64,192,43874,1,0,0:0:0:0:
192,192,44051,1,2,0:0:0:0:
448,192,44051,1,0,0:0:0:0:
192,192,44227,1,4,0:0:0:0:
448,192,44227,1,2,0:0:0:0:
64,192,44580,1,8,0:0:0:0:
320,192,44580,1,2,0:0:0:0:
64,192,44757,1,2,0:0:0:0:
192,192,44757,1,0,0:0:0:0:
448,192,44933,1,4,0:0:0:0:
192,192,45109,1,2,0:0:0:0:
320,192,45109,1,0,0:0:0:0:
192,192,45286,1,2,0:0:0:0:
320,192,45286,1,0,0:0:0:0:
64,192,45639,1,4,0:0:0:0:
64,192,45815,1,4,0:0:0:0:
320,192,45992,1,8,0:0:0:0:
448,192,45992,1,0,0:0:0:0:
192,192,46345,1,4,0:0:0:0:
192,192,46521,1,4,0:0:0:0:
448,192,46698,1,0,0:0:0:0:
192,192,47051,1,2,0:0:0:0:
320,192,47051,1,4,0:0:0:0:
64,192,47404,1,8,0:0:0:0:
448,192,47404,1,0,0:0:0:0:
192,192,47580,1,2,0:0:0:0:
320,192,47580,1,0,0:0:0:0:
64,192,47757,1,4,0:0:0:0:
320,192,47933,1,8,0:0:0:0:
448,192,47933,1,0,0:0:0:0:
64,192,48109,1,2,0:0:0:0:
192,192,48109,1,0,0:0:0:0:
448,192,48462,1,4,0:0:0:0:
448,192,48639,1,4,0:0:0:0:
64,192,48815,1,8,0:0:0:0:
320,192,48815,1,0,0:0:0:0:
192,192,49168,1,2,0:0:0:0:
320,192,49168,1,4,0:0:0:0:
192,192,49345,1,2,0:0:0:0:
320,192,49345,1,4,0:0:0:0:
448,192,49521,1,0,0:0:0:0:
64,192,49698,1,2,0:0:0:0:
192,192,49698,1,0,0:0:0:0:
64,192,49874,1,2,0:0:0:0:
192,192,49874,1,4,0:0:0:0:
64,192,50227,1,2,0:0:0:0:
448,192,50227,1,8,0:0:0:0:
64,192,50404,1,2,0:0:0:0:
320,192,50404,1,0,0:0:0:0:
192,192,50580,1,4,0:0:0:0:
448,192,50580,1,2,0:0:0:0:
320,192,50757,1,2,0:0:0:0:
448,192,50757,1,0,0:0:0:0:
64,192,50933,1,2,0:0:0:0:
192,192,50933,1,0,0:0:0:0:
320,192,51286,1,4,0:0:0:0:
320,192,51462,1,4,0:0:0:0:
192,192,51639,1,8,0:0:0:0:
448,192,51639,1,0,0:0:0:0:
64,192,51992,1,4,0:0:0:0:
64,192,52168,1,4,0:0:0:0:
448,192,52345,1,0,0:0:0:0:
64,192,52698,1,4,0:0:0:0:
320,192,52698,1,2,0:0:0:0:
192,192,53051,1,8,0:0:0:0:
448,192,53051,1,0,0:0:0:0:
64,192,53227,1,2,0:0:0:0:
320,192,53227,1,0,0:0:0:0:
448,192,53404,1,4,0:0:0:0:
64,192,53580,1,8,0:0:0:0:
192,192,53580,1,0,0:0:0:0:
320,192,53757,1,2,0:0:0:0:
448,192,53757,1,0,0:0:0:0:
192,192,54109,1,4,0:0:0:0:
192,192,54286,1,4,0:0:0:0:
64,192,54462,1,8,0:0:0:0:
448,192,54462,1,0,0:0:0:0:
192,192,54815,1,4,0:0:0:0:
320,192,54815,1,2,0:0:0:0:
192,192,54992,1,4,0:0:0:0:
320,192,54992,1,2,0:0:0:0:
64,192,55168,1,0,0:0:0:0:
320,192,55345,1,2,0:0:0:0:
448,192,55345,1,0,0:0:0:0:
320,192,55521,1,4,0:0:0:0:
448,192,55521,1,2,0:0:0:0:
64,192,55874,1,8,0:0:0:0:
192,192,55874,1,2,0:0:0:0:
320,192,55874,1,0,0:0:0:0:
64,192,56051,1,2,0:0:0:0:
448,192,56051,1,0,0:0:0:0:
192,192,56227,1,4,0:0:0:0:
320,192,56227,1,2,0:0:0:0:
448,192,56227,1,0,0:0:0:0:
64,192,56404,1,2,0:0:0:0:
320,192,56404,1,0,0:0:0:0:
64,192,56580,1,2,0:0:0:0:
192,192,56580,1,0,0:0:0:0:
448,192,56580,1,0,0:0:0:0:
448,192,56933,1,4,0:0:0:0:
448,192,57109,1,4,0:0:0:0:
64,192,57286,1,8,0:0:0:0:
192,192,57286,1,0,0:0:0:0:
320,192,57286,1,0,0:0:0:0:
192,192,57639,1,4,0:0:0:0:
192,192,57815,1,4,0:0:0:0:
64,192,57992,1,0,0:0:0:0:
448,192,57992,1,0,0:0:0:0:
192,192,58345,1,2,0:0:0:0:
320,192,58345,1,4,0:0:0:0:
64,192,58698,1,8,0:0:0:0:
320,192,58698,1,0,0:0:0:0:
448,192,58698,1,0,0:0:0:0:
64,192,58874,1,2,0:0:0:0:
192,192,58874,1,0,0:0:0:0:
448,192,59051,1,4,0:0:0:0:
64,192,59227,1,8,0:0:0:0:
320,192,59227,1,0,0:0:0:0:
192,192,59404,1,2,0:0:0:0:
320,192,59404,1,0,0:0:0:0:
448,192,59404,1,0,0:0:0:0:
448,192,59757,1,4,0:0:0:0:
448,192,59933,1,4,0:0:0:0:
64,192,60109,1,8,0:0:0:0:
192,192,60109,1,0,0:0:0:0:
320,192,60462,1,2,0:0:0:0:
448,192,60462,1,4,0:0:0:0:
320,192,60639,1,2,0:0:0:0:
448,192,60639,1,4,0:0:0:0:
192,192,60815,1,0,0:0:0:0:
64,192,60992,1,2,0:0:0:0:
320,192,60992,1,0,0:0:0:0:
64,192,61168,1,2,0:0:0:0:
320,192,61168,1,4,0:0:0:0:
192,192,61521,1,2,0:0:0:0:
448,192,61521,1,8,0:0:0:0:
192,192,61698,1,2,0:0:0:0:
320,192,61698,1,0,0:0:0:0:
64,192,61874,1,4,0:0:0:0:
448,192,61874,1,2,0:0:0:0:
192,192,62051,1,2,0:0:0:0:
448,192,62051,1,0,0:0:0:0:
64,192,62227,1,2,0:0:0:0:
320,192,62227,1,0,0:0:0:0:
192,192,62580,1,4,0:0:0:0:
192,192,62757,1,4,0:0:0:0:
320,192,62933,1,8,0:0:0:0:
448,192,62933,1,0,0:0:0:0:
64,192,63286,1,4,0:0:0:0:
64,192,63462,1,4,0:0:0:0:
320,192,63639,1,0,0:0:0:0:
192,192,63992,1,4,0:0:0:0:
448,192,63992,1,2,0:0:0:0:
64,192,64345,1,8,0:0:0:0:
448,192,64345,1,0,0:0:0:0:
192,192,64521,1,2,0:0:0:0:
320,192,64521,1,0,0:0:0:0:
64,192,64698,1,4,0:0:0:0:
320,192,64874,1,8,0:0:0:0:
448,192,64874,1,0,0:0:0:0:
64,192,65051,1,2,0:0:0:0:
192,192,65051,1,0,0:0:0:0:
320,192,65404,1,4,0:0:0:0:
320,192,65580,1,4,0:0:0:0:
64,192,65757,1,8,0:0:0:0:
448,192,65757,1,0,0:0:0:0:
192,192,66109,1,4,0:0:0:0:
448,192,66109,1,2,0:0:0:0:
192,192,66286,1,4,0:0:0:0:
448,192,66286,1,2,0:0:0:0:
320,192,66462,128,0,66551:0:0:0:0:
64,192,66639,1,2,0:0:0:0:
192,192,66639,1,0,0:0:0:0:
64,192,66815,1,4,0:0:0:0:
192,192,66815,128,2,66904:0:0:0:0:
64,192,67168,128,8,67257:0:0:0:0:
448,192,67168,1,2,0:0:0:0:
192,192,67257,128,0,67345:0:0:0:0:
320,192,67345,128,2,67433:0:0:0:0:
448,192,67345,1,0,0:0:0:0:
64,192,67521,1,4,0:0:0:0:
192,192,67521,128,2,67609:0:0:0:0:
320,192,67698,128,2,67786:0:0:0:0:
448,192,67698,1,0,0:0:0:0:
64,192,67874,128,2,67962:0:0:0:0:
192,192,67874,1,0,0:0:0:0:
448,192,68227,128,4,68315:0:0:0:0:
192,192,68404,1,4,0:0:0:0:
64,192,68580,1,8,0:0:0:0:
448,192,68580,128,0,68757:0:0:0:0:
320,192,68933,128,4,69109:0:0:0:0:
64,192,69109,128,4,69198:0:0:0:0:
64,192,69286,128,0,69374:0:0:0:0:
64,192,69639,1,2,0:0:0:0:
448,192,69639,128,4,69727:0:0:0:0:
320,192,69992,1,8,0:0:0:0:
448,192,69992,128,0,70168:0:0:0:0:
64,192,70168,1,2,0:0:0:0:
192,192,70168,1,0,0:0:0:0:
320,192,70345,128,4,70521:0:0:0:0:
64,192,70521,128,8,70609:0:0:0:0:
448,192,70521,1,0,0:0:0:0:
64,192,70698,128,2,70786:0:0:0:0:
320,192,70698,1,0,0:0:0:0:
320,192,71051,128,4,71227:0:0:0:0:
64,192,71227,128,4,71315:0:0:0:0:
64,192,71404,128,8,71492:0:0:0:0:
192,192,71404,1,0,0:0:0:0:
320,192,71757,128,2,71845:0:0:0:0:
448,192,71757,1,4,0:0:0:0:
64,192,71933,128,2,72021:0:0:0:0:
448,192,71933,1,4,0:0:0:0:
64,192,72109,128,0,72286:0:0:0:0:
192,192,72286,1,2,0:0:0:0:
320,192,72286,1,0,0:0:0:0:
320,192,72462,1,2,0:0:0:0:
448,192,72462,128,4,72639:0:0:0:0:
64,192,72815,1,2,0:0:0:0:
320,192,72815,128,8,72904:0:0:0:0:
448,192,72904,128,0,72992:0:0:0:0:
64,192,72992,1,2,0:0:0:0:
192,192,72992,1,0,0:0:0:0:
320,192,73168,128,4,73257:0:0:0:0:
448,192,73168,1,2,0:0:0:0:
64,192,73345,128,2,73433:0:0:0:0:
192,192,73345,1,0,0:0:0:0:
64,192,73521,128,2,73698:0:0:0:0:
320,192,73521,1,0,0:0:0:0:
448,192,73874,128,4,74051:0:0:0:0:
192,192,74051,1,4,0:0:0:0:
64,192,74227,1,8,0:0:0:0:
448,192,74227,128,0,74404:0:0:0:0:
192,192,74580,128,4,74757:0:0:0:0:
320,192,74757,128,4,74845:0:0:0:0:
64,192,74933,128,0,75109:0:0:0:0:
448,192,75109,128,0,75198:0:0:0:0:
192,192,75286,1,4,0:0:0:0:
320,192,75286,128,2,75462:0:0:0:0:
64,192,75462,128,0,75551:0:0:0:0:
192,192,75639,128,8,75727:0:0:0:0:
448,192,75639,1,0,0:0:0:0:
64,192,75815,1,2,0:0:0:0:
320,192,75815,128,0,75992:0:0:0:0:
448,192,75992,128,4,76080:0:0:0:0:
64,192,76168,1,8,0:0:0:0:
192,192,76168,128,0,76257:0:0:0:0:
320,192,76345,128,2,76521:0:0:0:0:
448,192,76345,1,0,0:0:0:0:
64,192,76521,128,0,76609:0:0:0:0:
448,192,76698,128,4,76874:0:0:0:0:
320,192,76874,1,4,0:0:0:0:
64,192,77051,1,8,0:0:0:0:
192,192,77051,128,0,77227:0:0:0:0:
448,192,77227,128,0,77315:0:0:0:0:
192,192,77404,128,4,77580:0:0:0:0:
320,192,77404,1,2,0:0:0:0:
64,192,77580,128,4,77668:0:0:0:0:
320,192,77580,1,2,0:0:0:0:
448,192,77757,128,0,77933:0:0:0:0:
192,192,77933,1,2,0:0:0:0:
320,192,77933,128,0,78021:0:0:0:0:
64,192,78109,128,4,78286:0:0:0:0:
192,192,78109,1,2,0:0:0:0:
448,192,78286,128,0,78374:0:0:0:0:
192,192,78462,128,8,78551:0:0:0:0:
320,192,78462,1,2,0:0:0:0:
64,192,78639,128,2,78727:0:0:0:0:
448,192,78639,1,0,0:0:0:0:
64,192,78815,128,4,79168:0:0:0:0:
320,192,78815,1,2,0:0:0:0:
448,192,78992,1,2,0:0:0:0:
192,192,79168,1,2,0:0:0:0:
320,192,79168,128,0,79345:0:0:0:0:
448,192,79521,128,4,79698:0:0:0:0:
192,192,79698,1,4,0:0:0:0:
64,192,79874,1,8,0:0:0:0:
448,192,79874,128,0,80051:0:0:0:0:
192,192,80227,128,4,80404:0:0:0:0:
320,192,80404,128,4,80492:0:0:0:0:
64,192,80580,128,0,80757:0:0:0:0:
192,192,80933,1,2,0:0:0:0:
448,192,80933,128,4,81109:0:0:0:0:
320,192,81286,1,8,0:0:0:0:
448,192,81286,128,0,81462:0:0:0:0:
64,192,81462,1,2,0:0:0:0:
192,192,81462,1,0,0:0:0:0:
320,192,81639,128,4,81815:0:0:0:0:
64,192,81815,128,8,81992:0:0:0:0:
192,192,81815,1,0,0:0:0:0:
320,192,81992,1,2,0:0:0:0:
448,192,81992,128,0,82080:0:0:0:0:
192,192,82168,128,0,82257:0:0:0:0:
320,192,82345,128,4,82433:0:0:0:0:
448,192,82521,128,4,82609:0:0:0:0:
192,192,82698,128,8,82786:0:0:0:0:
320,192,82698,1,0,0:0:0:0:
64,192,82874,128,0,82962:0:0:0:0:
192,192,83051,1,2,0:0:0:0:
320,192,83051,128,4,83139:0:0:0:0:
192,192,83227,1,2,0:0:0:0:
448,192,83227,128,4,83315:0:0:0:0:
64,192,83404,128,0,83492:0:0:0:0:
192,192,83580,128,2,83668:0:0:0:0:
320,192,83580,1,0,0:0:0:0:
64,192,83757,128,2,83845:0:0:0:0:
320,192,83757,1,4,0:0:0:0:
448,192,83933,128,0,84021:0:0:0:0:
64,192,84109,1,2,0:0:0:0:
192,192,84109,128,8,84198:0:0:0:0:
320,192,84198,128,0,84286:0:0:0:0:
448,192,84286,128,2,84374:0:0:0:0:
192,192,84374,128,0,84462:0:0:0:0:
64,192,84462,128,4,84551:0:0:0:0:
320,192,84462,1,2,0:0:0:0:
192,192,84639,1,2,0:0:0:0:
448,192,84639,128,0,84727:0:0:0:0:
64,192,84815,128,2,84904:0:0:0:0:
320,192,84815,1,0,0:0:0:0:
192,192,84992,128,0,85080:0:0:0:0:
320,192,85168,128,4,85257:0:0:0:0:
192,192,85345,128,4,85433:0:0:0:0:
64,192,85521,128,8,85609:0:0:0:0:
448,192,85521,1,0,0:0:0:0:
192,192,85698,128,0,85786:0:0:0:0:
448,192,85874,128,4,85962:0:0:0:0:
192,192,86051,128,4,86139:0:0:0:0:
320,192,86227,128,0,86315:0:0:0:0:
448,192,86404,128,0,86492:0:0:0:0:
64,192,86580,1,4,0:0:0:0:
320,192,86580,128,2,86668:0:0:0:0:
192,192,86757,128,0,86845:0:0:0:0:
64,192,86933,128,8,87021:0:0:0:0:
320,192,86933,1,0,0:0:0:0:
192,192,87109,128,2,87198:0:0:0:0:
448,192,87109,1,0,0:0:0:0:
320,192,87286,128,4,87462:0:0:0:0:
64,192,87462,1,8,0:0:0:0:
448,192,87462,128,0,87639:0:0:0:0:
192,192,87639,128,2,87815:0:0:0:0:
320,192,87639,1,0,0:0:0:0:
64,192,87992,128,4,88168:0:0:0:0:
320,192,88168,1,4,0:0:0:0:
64,192,88345,128,8,88521:0:0:0:0:
448,192,88345,1,0,0:0:0:0:
64,192,88698,1,4,0:0:0:0:
448,192,88698,128,2,88874:0:0:0:0:
64,192,88874,1,4,0:0:0:0:
320,192,88874,1,2,0:0:0:0:
192,192,89051,128,0,89757:0:0:0:0:
320,192,89227,1,2,0:0:0:0:
448,192,89227,1,0,0:0:0:0:
320,192,89404,1,4,0:0:0:0:
448,192,89404,1,2,0:0:0:0:
64,192,89757,1,8,0:0:0:0:
448,192,89757,1,2,0:0:0:0:
64,192,89933,1,2,0:0:0:0:
320,192,89933,1,0,0:0:0:0:
192,192,90109,1,4,0:0:0:0:
448,192,90109,1,2,0:0:0:0:
320,192,90286,1,2,0:0:0:0:
448,192,90286,1,0,0:0:0:0:
64,192,90462,1,2,0:0:0:0:
192,192,90462,128,0,90639:0:0:0:0:
320,192,90639,128,0,90815:0:0:0:0:
448,192,90815,128,4,90992:0:0:0:0:
64,192,90992,128,4,91168:0:0:0:0:
192,192,91168,128,8,91345:0:0:0:0:
320,192,91168,1,0,0:0:0:0:
448,192,91521,1,4,0:0:0:0:
448,192,91698,1,4,0:0:0:0:
320,192,91874,128,0,92051:0:0:0:0:
64,192,92051,128,0,92227:0:0:0:0:
192,192,92227,128,4,92404:0:0:0:0:
448,192,92227,1,2,0:0:0:0:
320,192,92404,128,0,92580:0:0:0:0:
64,192,92580,128,8,92757:0:0:0:0:
448,192,92580,1,0,0:0:0:0:
192,192,92757,1,2,0:0:0:0:
320,192,92757,1,0,0:0:0:0:
64,192,92933,1,4,0:0:0:0:
320,192,93109,1,8,0:0:0:0:
448,192,93109,1,0,0:0:0:0:
64,192,93286,1,2,0:0:0:0:
192,192,93286,128,0,93462:0:0:0:0:
448,192,93462,128,0,93639:0:0:0:0:
320,192,93639,128,4,93815:0:0:0:0:
64,192,93815,128,4,93992:0:0:0:0:
192,192,93992,1,8,0:0:0:0:
448,192,93992,128,0,94168:0:0:0:0:
320,192,94345,1,4,0:0:0:0:
448,192,94345,1,2,0:0:0:0:
320,192,94521,1,4,0:0:0:0:
448,192,94521,1,2,0:0:0:0:
64,192,94698,128,0,94874:0:0:0:0:
192,192,94874,128,2,95051:0:0:0:0:
448,192,94874,1,0,0:0:0:0:
320,192,95051,128,4,95227:0:0:0:0:
448,192,95051,1,2,0:0:0:0:
64,192,95404,1,8,0:0:0:0:
448,192,95404,128,2,95580:0:0:0:0:
64,192,95580,1,2,0:0:0:0:
320,192,95580,128,0,95757:0:0:0:0:
192,192,95757,128,4,95933:0:0:0:0:
448,192,95757,1,2,0:0:0:0:
64,192,95933,1,2,0:0:0:0:
448,192,95933,1,0,0:0:0:0:
192,192,96109,1,2,0:0:0:0:
320,192,96109,128,0,96286:0:0:0:0:
64,192,96286,128,0,96462:0:0:0:0:
448,192,96462,128,4,96639:0:0:0:0:
192,192,96639,128,4,96815:0:0:0:0:
64,192,96815,1,8,0:0:0:0:
320,192,96815,128,0,96992:0:0:0:0:
192,192,97168,128,4,97257:0:0:0:0:
448,192,97168,1,0,0:0:0:0:
448,192,97345,1,4,0:0:0:0:
320,192,97521,128,0,97698:0:0:0:0:
64,192,97698,128,0,97874:0:0:0:0:
320,192,97874,1,4,0:0:0:0:
448,192,97874,128,2,97962:0:0:0:0:
192,192,98051,128,0,98139:0:0:0:0:
64,192,98227,128,8,98404:0:0:0:0:
320,192,98227,1,0,0:0:0:0:
192,192,98404,128,2,98492:0:0:0:0:
448,192,98404,1,0,0:0:0:0:
320,192,98580,128,4,98668:0:0:0:0:
64,192,98757,1,8,0:0:0:0:
192,192,98757,1,0,0:0:0:0:
320,192,98933,1,2,0:0:0:0:
448,192,98933,128,0,99109:0:0:0:0:
64,192,99109,128,0,99286:0:0:0:0:
192,192,99286,128,4,99462:0:0:0:0:
320,192,99462,128,4,99639:0:0:0:0:
64,192,99639,1,8,0:0:0:0:
448,192,99639,128,0,99815:0:0:0:0:
64,192,99992,1,4,0:0:0:0:
320,192,99992,1,2,0:0:0:0:
64,192,100168,1,4,0:0:0:0:
320,192,100168,1,2,0:0:0:0:
192,192,100345,128,0,100433:0:0:0:0:
64,192,100521,1,2,0:0:0:0:
448,192,100521,1,0,0:0:0:0:
64,192,100698,1,4,0:0:0:0:
448,192,100698,128,2,100786:0:0:0:0:
192,192,101051,1,8,0:0:0:0:
320,192,101051,128,2,101139:0:0:0:0:
192,192,101227,1,2,0:0:0:0:
448,192,101227,1,0,0:0:0:0:
64,192,101404,128,4,101492:0:0:0:0:
320,192,101404,1,2,0:0:0:0:
192,192,101580,1,2,0:0:0:0:
320,192,101580,1,0,0:0:0:0:
64,192,101757,1,2,0:0:0:0:
448,192,101757,128,0,101933:0:0:0:0:
192,192,101933,128,0,102109:0:0:0:0:
320,192,102109,128,4,102286:0:0:0:0:
64,192,102286,128,4,102462:0:0:0:0:
192,192,102462,128,8,102639:0:0:0:0:
448,192,102462,1,0,0:0:0:0:
320,192,102815,1,4,0:0:0:0:
320,192,102992,1,4,0:0:0:0:
192,192,103168,128,0,103345:0:0:0:0:
448,192,103345,128,0,103521:0:0:0:0:
64,192,103521,1,2,0:0:0:0:
320,192,103521,128,4,103698:0:0:0:0:
192,192,103698,128,0,103874:0:0:0:0:
64,192,103874,1,8,0:0:0:0:
448,192,103874,128,0,104051:0:0:0:0:
192,192,104051,1,2,0:0:0:0:
320,192,104051,1,0,0:0:0:0:
448,192,104227,1,4,0:0:0:0:
64,192,104404,1,8,0:0:0:0:
192,192,104404,1,0,0:0:0:0:
320,192,104580,128,2,104757:0:0:0:0:
448,192,104580,1,0,0:0:0:0:
64,192,104757,128,0,104933:0:0:0:0:
192,192,104933,128,4,105109:0:0:0:0:
448,192,105109,128,4,105286:0:0:0:0:
64,192,105286,1,8,0:0:0:0:
320,192,105286,128,0,105462:0:0:0:0:
192,192,105639,1,2,0:0:0:0:
448,192,105639,1,4,0:0:0:0:
192,192,105815,1,2,0:0:0:0:
448,192,105815,1,4,0:0:0:0:
64,192,105992,128,0,106168:0:0:0:0:
192,192,106168,128,2,106345:0:0:0:0:
448,192,106168,1,0,0:0:0:0:
320,192,106345,1,2,0:0:0:0:
448,192,106345,128,4,106521:0:0:0:0:
64,192,106698,1,2,0:0:0:0:
320,192,106698,128,8,106874:0:0:0:0:
64,192,106874,1,2,0:0:0:0:
448,192,106874,128,0,107051:0:0:0:0:
192,192,107051,128,4,107227:0:0:0:0:
320,192,107051,1,2,0:0:0:0:
64,192,107227,1,2,0:0:0:0:
320,192,107227,1,0,0:0:0:0:
192,192,107404,1,2,0:0:0:0:
448,192,107404,128,0,107580:0:0:0:0:
64,192,107580,128,0,107757:0:0:0:0:
320,192,107757,128,4,107933:0:0:0:0:
192,192,107933,128,4,108109:0:0:0:0:
64,192,108109,1,8,0:0:0:0:
448,192,108109,128,0,108286:0:0:0:0:
192,192,108462,128,4,108551:0:0:0:0:
320,192,108462,1,0,0:0:0:0:
320,192,108639,1,4,0:0:0:0:
64,192,108815,128,0,108992:0:0:0:0:
320,192,108992,128,0,109168:0:0:0:0:
64,192,109168,1,4,0:0:0:0:
448,192,109168,128,2,109257:0:0:0:0:
192,192,109345,128,0,109433:0:0:0:0:
320,192,109521,1,8,0:0:0:0:
448,192,109521,128,0,109698:0:0:0:0:
64,192,109698,128,2,109786:0:0:0:0:
192,192,109698,1,0,0:0:0:0:
448,192,109874,128,4,109962:0:0:0:0:
192,192,110051,1,8,0:0:0:0:
320,192,110051,1,0,0:0:0:0:
64,192,110227,128,2,110404:0:0:0:0:
448,192,110227,1,0,0:0:0:0:
320,192,110404,128,0,110580:0:0:0:0:
192,192,110580,128,4,110757:0:0:0:0:
448,192,110757,128,4,110933:0:0:0:0:
64,192,110933,128,8,111109:0:0:0:0:
320,192,110933,1,0,0:0:0:0:
320,192,111286,1,4,0:0:0:0:
448,192,111286,1,2,0:0:0:0:
320,192,111462,1,4,0:0:0:0:
448,192,111462,1,2,0:0:0:0:
192,192,111639,128,0,111727:0:0:0:0:
64,192,111815,1,2,0:0:0:0:
448,192,111815,1,0,0:0:0:0:
64,192,111992,1,4,0:0:0:0:
320,192,111992,128,2,112080:0:0:0:0:
192,192,112345,1,8,0:0:0:0:
448,192,112345,128,2,112433:0:0:0:0:
192,192,112521,1,2,0:0:0:0:
320,192,112521,1,0,0:0:0:0:
64,192,112698,128,4,112786:0:0:0:0:
448,192,112698,1,2,0:0:0:0:
192,192,112874,1,2,0:0:0:0:
448,192,112874,1,0,0:0:0:0:
64,192,113051,1,2,0:0:0:0:
320,192,113051,128,0,113139:0:0:0:0:
64,192,113404,1,4,0:0:0:0:
448,192,113404,128,0,113492:0:0:0:0:
64,192,113580,1,4,0:0:0:0:
192,192,113757,1,8,0:0:0:0:
448,192,113757,128,0,113845:0:0:0:0:
64,192,114109,128,4,114198:0:0:0:0:
320,192,114109,1,0,0:0:0:0:
192,192,114286,128,4,114374:0:0:0:0:
320,192,114286,1,0,0:0:0:0:
448,192,114462,128,0,114551:0:0:0:0:
64,192,114815,1,2,0:0:0:0:
192,192,114815,128,4,114904:0:0:0:0:
192,192,115168,128,8,115257:0:0:0:0:
320,192,115168,1,0,0:0:0:0:
64,192,115345,1,2,0:0:0:0:
448,192,115345,1,0,0:0:0:0:
320,192,115521,128,4,115609:0:0:0:0:
192,192,115698,128,8,115786:0:0:0:0:
448,192,115698,1,0,0:0:0:0:
64,192,115874,128,2,115962:0:0:0:0:
320,192,115874,1,0,0:0:0:0:
192,192,116227,1,4,0:0:0:0:
320,192,116227,128,0,116315:0:0:0:0:
192,192,116404,1,4,0:0:0:0:
64,192,116580,1,8,0:0:0:0:
448,192,116580,128,0,116668:0:0:0:0:
64,192,116933,128,2,117021:0:0:0:0:
448,192,116933,1,4,0:0:0:0:
320,192,117109,1,2,0:0:0:0:
448,192,117109,1,4,0:0:0:0:
192,192,117286,128,0,117374:0:0:0:0:
64,192,117462,1,2,0:0:0:0:
320,192,117462,1,0,0:0:0:0:
64,192,117639,1,2,0:0:0:0:
448,192,117639,128,4,117727:0:0:0:0:
192,192,117992,128,2,118080:0:0:0:0:
448,192,117992,1,8,0:0:0:0:
64,192,118168,1,2,0:0:0:0:
448,192,118168,1,0,0:0:0:0:
192,192,118345,1,4,0:0:0:0:
320,192,118345,128,2,118433:0:0:0:0:
64,192,118521,128,2,118609:0:0:0:0:
192,192,118521,1,0,0:0:0:0:
320,192,118698,1,2,0:0:0:0:
448,192,118698,128,0,118786:0:0:0:0:
64,192,119051,128,4,119139:0:0:0:0:
448,192,119051,1,0,0:0:0:0:
448,192,119227,1,4,0:0:0:0:
64,192,119404,128,8,119492:0:0:0:0:
320,192,119404,1,0,0:0:0:0:
64,192,119757,1,4,0:0:0:0:
320,192,119757,128,0,119845:0:0:0:0:
64,192,119933,1,4,0:0:0:0:
448,192,119933,128,0,120021:0:0:0:0:
192,192,120109,128,0,120198:0:0:0:0:
64,192,120462,1,4,0:0:0:0:
448,192,120462,128,2,120551:0:0:0:0:
192,192,120815,1,8,0:0:0:0:
448,192,120815,128,0,120904:0:0:0:0:
64,192,120992,1,2,0:0:0:0:
320,192,120992,1,0,0:0:0:0:
192,192,121168,128,4,121257:0:0:0:0:
320,192,121345,128,8,121433:0:0:0:0:
448,192,121345,1,0,0:0:0:0:
64,192,121521,128,2,121609:0:0:0:0:
192,192,121521,1,0,0:0:0:0:
192,192,121874,1,4,0:0:0:0:
320,192,121874,128,0,121962:0:0:0:0:
192,192,122051,1,4,0:0:0:0:
64,192,122227,128,8,122315:0:0:0:0:
448,192,122227,1,0,0:0:0:0:
192,192,122580,128,4,122668:0:0:0:0:
448,192,122580,1,2,0:0:0:0:
320,192,122757,1,4,0:0:0:0:
448,192,122757,1,2,0:0:0:0:
64,192,122933,128,0,123021:0:0:0:0:
192,192,123109,1,2,0:0:0:0:
320,192,123109,1,0,0:0:0:0:
192,192,123286,1,4,0:0:0:0:
320,192,123286,1,2,0:0:0:0:
64,192,123639,1,8,0:0:0:0:
192,192,123639,1,2,0:0:0:0:
448,192,123639,1,0,0:0:0:0:
320,192,123815,1,2,0:0:0:0:
448,192,123815,1,0,0:0:0:0:
64,192,123992,1,4,0:0:0:0:
192,192,123992,1,2,0:0:0:0:
320,192,123992,1,0,0:0:0:0:
192,192,124168,1,2,0:0:0:0:
448,192,124168,1,0,0:0:0:0:
64,192,124345,1,2,0:0:0:0:
320,192,124345,1,0,0:0:0:0:
448,192,124345,128,0,124698:0:0:0:0:
192,192,124698,1,4,0:0:0:0:
192,192,124874,1,4,0:0:0:0:
64,192,125051,128,8,125404:0:0:0:0:
320,192,125051,1,0,0:0:0:0:
448,192,125051,1,0,0:0:0:0:
448,192,125404,1,4,0:0:0:0:
448,192,125580,1,4,0:0:0:0:
64,192,125757,1,0,0:0:0:0:
320,192,125757,128,0,126109:0:0:0:0:
192,192,126109,1,2,0:0:0:0:
448,192,126109,1,4,0:0:0:0:
64,192,126462,1,8,0:0:0:0:
192,192,126462,128,0,126815:0:0:0:0:
448,192,126462,1,0,0:0:0:0:
320,192,126639,1,2,0:0:0:0:
448,192,126639,1,0,0:0:0:0:
64,192,126815,1,4,0:0:0:0:
192,192,126992,1,8,0:0:0:0:
320,192,126992,1,0,0:0:0:0:
64,192,127168,1,2,0:0:0:0:
320,192,127168,1,0,0:0:0:0:
448,192,127168,128,0,127521:0:0:0:0:
192,192,127521,1,4,0:0:0:0:
192,192,127698,1,4,0:0:0:0:
320,192,127874,1,8,0:0:0:0:
448,192,127874,1,0,0:0:0:0:
64,192,128227,1,2,0:0:0:0:
320,192,128227,1,4,0:0:0:0:
64,192,128404,1,2,0:0:0:0:
320,192,128404,1,4,0:0:0:0:
448,192,128580,1,0,0:0:0:0:
64,192,128757,1,2,0:0:0:0:
192,192,128757,1,0,0:0:0:0:
64,192,128933,1,2,0:0:0:0:
192,192,128933,1,4,0:0:0:0:
64,192,129286,1,2,0:0:0:0:
320,192,129286,1,8,0:0:0:0:
192,192,129462,1,2,0:0:0:0:
320,192,129462,1,0,0:0:0:0:
64,192,129639,1,4,0:0:0:0:
448,192,129639,1,2,0:0:0:0:
64,192,129815,1,2,0:0:0:0:
320,192,129815,1,0,0:0:0:0:
192,192,129992,1,2,0:0:0:0:
448,192,129992,1,0,0:0:0:0:
64,192,130345,1,4,0:0:0:0:
64,192,130521,1,4,0:0:0:0:
192,192,130698,1,8,0:0:0:0:
320,192,130698,1,0,0:0:0:0:
448,192,131051,1,4,0:0:0:0:
448,192,131227,1,4,0:0:0:0:
64,192,131404,1,0,0:0:0:0:
192,192,131757,1,4,0:0:0:0:
448,192,131757,1,2,0:0:0:0:
64,192,132109,1,8,0:0:0:0:
320,192,132109,1,0,0:0:0:0:
192,192,132286,1,2,0:0:0:0:
448,192,132286,1,0,0:0:0:0:
64,192,132462,1,4,0:0:0:0:
320,192,132639,1,8,0:0:0:0:
448,192,132639,1,0,0:0:0:0:
64,192,132815,1,2,0:0:0:0:
192,192,132815,1,0,0:0:0:0:
320,192,133168,1,4,0:0:0:0:
320,192,133345,1,4,0:0:0:0:
64,192,133521,1,8,0:0:0:0:
448,192,133521,1,0,0:0:0:0:
192,192,133874,1,4,0:0:0:0:
320,192,133874,1,2,0:0:0:0:
192,192,134051,1,4,0:0:0:0:
320,192,134051,1,2,0:0:0:0:
448,192,134227,128,0,134315:0:0:0:0:
64,192,134404,1,2,0:0:0:0:
320,192,134404,1,0,0:0:0:0:
64,192,134580,128,4,134668:0:0:0:0:
320,192,134580,1,2,0:0:0:0:
192,192,134933,128,8,135021:0:0:0:0:
448,192,134933,1,2,0:0:0:0:
64,192,135021,128,0,135109:0:0:0:0:
320,192,135109,128,2,135198:0:0:0:0:
448,192,135109,1,0,0:0:0:0:
64,192,135286,128,4,135374:0:0:0:0:
192,192,135286,1,2,0:0:0:0:
320,192,135462,1,2,0:0:0:0:
448,192,135462,128,0,135551:0:0:0:0:
64,192,135639,1,2,0:0:0:0:
192,192,135639,128,0,135727:0:0:0:0:
64,192,135992,128,4,136080:0:0:0:0:
320,192,135992,1,0,0:0:0:0:
320,192,136168,1,4,0:0:0:0:
64,192,136345,128,8,136521:0:0:0:0:
448,192,136345,1,0,0:0:0:0:
192,192,136698,1,4,0:0:0:0:
448,192,136698,128,0,136874:0:0:0:0:
192,192,136874,1,4,0:0:0:0:
320,192,136874,128,0,136962:0:0:0:0:
320,192,137051,128,0,137139:0:0:0:0:
64,192,137404,128,2,137492:0:0:0:0:
320,192,137404,1,4,0:0:0:0:
64,192,137757,128,8,137933:0:0:0:0:
448,192,137757,1,0,0:0:0:0:
192,192,137933,1,2,0:0:0:0:
320,192,137933,1,0,0:0:0:0:
448,192,138109,128,4,138286:0:0:0:0:
192,192,138286,1,8,0:0:0:0:
320,192,138286,128,0,138374:0:0:0:0:
64,192,138462,1,2,0:0:0:0:
320,192,138462,128,0,138551:0:0:0:0:
192,192,138815,1,4,0:0:0:0:
448,192,138815,128,0,138992:0:0:0:0:
192,192,138992,1,4,0:0:0:0:
320,192,138992,128,0,139080:0:0:0:0:
64,192,139168,1,8,0:0:0:0:
320,192,139168,128,0,139257:0:0:0:0:
192,192,139521,1,2,0:0:0:0:
448,192,139521,128,4,139609:0:0:0:0:
192,192,139698,1,2,0:0:0:0:
320,192,139698,128,4,139786:0:0:0:0:
320,192,139874,128,0,140051:0:0:0:0:
64,192,140051,1,2,0:0:0:0:
448,192,140051,1,0,0:0:0:0:
192,192,140227,128,2,140404:0:0:0:0:
448,192,140227,1,4,0:0:0:0:
64,192,140580,128,2,140668:0:0:0:0:
320,192,140580,1,8,0:0:0:0:
192,192,140668,128,0,140757:0:0:0:0:
320,192,140757,1,2,0:0:0:0:
448,192,140757,1,0,0:0:0:0:
64,192,140933,1,4,0:0:0:0:
448,192,140933,128,2,141021:0:0:0:0:
64,192,141109,1,2,0:0:0:0:
320,192,141109,128,0,141198:0:0:0:0:
192,192,141286,1,2,0:0:0:0:
320,192,141286,128,0,141462:0:0:0:0:
192,192,141639,128,4,141815:0:0:0:0:
448,192,141639,1,0,0:0:0:0:
448,192,141815,1,4,0:0:0:0:
192,192,141992,128,8,142168:0:0:0:0:
320,192,141992,1,0,0:0:0:0:
64,192,142345,128,4,142521:0:0:0:0:
320,192,142345,1,0,0:0:0:0:
192,192,142521,128,4,142609:0:0:0:0:
320,192,142521,1,0,0:0:0:0:
448,192,142698,128,0,142874:0:0:0:0:
64,192,142874,128,0,142962:0:0:0:0:
192,192,143051,128,4,143227:0:0:0:0:
320,192,143051,1,2,0:0:0:0:
448,192,143227,128,0,143315:0:0:0:0:
64,192,143404,1,8,0:0:0:0:
320,192,143404,128,0,143492:0:0:0:0:
192,192,143580,128,2,143757:0:0:0:0:
448,192,143580,1,0,0:0:0:0:
64,192,143757,128,4,143845:0:0:0:0:
320,192,143933,128,8,144021:0:0:0:0:
448,192,143933,1,0,0:0:0:0:
64,192,144109,1,2,0:0:0:0:
192,192,144109,128,0,144286:0:0:0:0:
320,192,144286,128,0,144374:0:0:0:0:
64,192,144462,1,4,0:0:0:0:
448,192,144462,128,0,144639:0:0:0:0:
64,192,144639,1,4,0:0:0:0:
320,192,144815,128,8,144992:0:0:0:0:
448,192,144815,1,0,0:0:0:0:
64,192,144992,128,0,145080:0:0:0:0:
192,192,145168,1,4,0:0:0:0:
320,192,145168,128,2,145345:0:0:0:0:
192,192,145345,1,4,0:0:0:0:
448,192,145345,128,2,145433:0:0:0:0:
64,192,145521,128,0,145698:0:0:0:0:
192,192,145698,128,2,145786:0:0:0:0:
320,192,145698,1,0,0:0:0:0:
320,192,145874,1,4,0:0:0:0:
448,192,145874,128,2,146051:0:0:0:0:
64,192,146051,128,0,146139:0:0:0:0:
192,192,146227,1,8,0:0:0:0:
320,192,146227,128,2,146315:0:0:0:0:
64,192,146404,1,2,0:0:0:0:
448,192,146404,128,0,146492:0:0:0:0:
192,192,146580,1,4,0:0:0:0:
448,192,146580,128,2,146933:0:0:0:0:
64,192,146757,1,2,0:0:0:0:
192,192,146933,128,2,147109:0:0:0:0:
320,192,146933,1,0,0:0:0:0:
64,192,147286,128,4,147462:0:0:0:0:
320,192,147286,1,0,0:0:0:0:
320,192,147462,1,4,0:0:0:0:
64,192,147639,128,8,147815:0:0:0:0:
448,192,147639,1,0,0:0:0:0:
64,192,147992,1,4,0:0:0:0:
320,192,147992,128,0,148168:0:0:0:0:
64,192,148168,1,4,0:0:0:0:
192,192,148168,128,0,148257:0:0:0:0:
448,192,148345,128,0,148521:0:0:0:0:
64,192,148698,128,2,148874:0:0:0:0:
320,192,148698,1,4,0:0:0:0:
64,192,149051,128,8,149227:0:0:0:0:
448,192,149051,1,0,0:0:0:0:
192,192,149227,1,2,0:0:0:0:
320,192,149227,1,0,0:0:0:0:
192,192,149404,128,4,149580:0:0:0:0:
320,192,149580,1,8,0:0:0:0:
448,192,149580,128,0,149757:0:0:0:0:
64,192,149757,128,2,149845:0:0:0:0:
192,192,149757,1,0,0:0:0:0:
320,192,149933,128,0,150021:0:0:0:0:
64,192,150109,1,4,0:0:0:0:
192,192,150109,128,0,150198:0:0:0:0:
64,192,150286,1,4,0:0:0:0:
448,192,150286,128,0,150374:0:0:0:0:
192,192,150462,1,8,0:0:0:0:
320,192,150462,128,0,150551:0:0:0:0:
64,192,150639,128,0,150727:0:0:0:0:
192,192,150815,128,2,150904:0:0:0:0:
448,192,150815,1,4,0:0:0:0:
320,192,150992,128,2,151080:0:0:0:0:
448,192,150992,1,4,0:0:0:0:
64,192,151168,128,0,151257:0:0:0:0:
192,192,151345,1,2,0:0:0:0:
448,192,151345,128,0,151433:0:0:0:0:
64,192,151521,128,2,151609:0:0:0:0:
192,192,151521,1,4,0:0:0:0:
320,192,151698,128,0,151786:0:0:0:0:
64,192,151874,1,2,0:0:0:0:
192,192,151874,128,8,151962:0:0:0:0:
448,192,151962,128,0,152051:0:0:0:0:
320,192,152051,128,2,152139:0:0:0:0:
64,192,152139,128,0,152227:0:0:0:0:
192,192,152227,128,4,152315:0:0:0:0:
448,192,152227,1,2,0:0:0:0:
64,192,152404,1,2,0:0:0:0:
320,192,152404,128,0,152492:0:0:0:0:
192,192,152580,1,2,0:0:0:0:
448,192,152580,128,0,152668:0:0:0:0:
64,192,152757,128,0,152845:0:0:0:0:
320,192,152933,128,4,153021:0:0:0:0:
448,192,152933,1,0,0:0:0:0:
64,192,153109,128,4,153198:0:0:0:0:
448,192,153109,1,0,0:0:0:0:
192,192,153286,128,8,153374:0:0:0:0:
320,192,153286,1,0,0:0:0:0:
64,192,153462,128,0,153551:0:0:0:0:
320,192,153639,1,4,0:0:0:0:
448,192,153639,128,0,153727:0:0:0:0:
64,192,153815,128,4,153904:0:0:0:0:
320,192,153815,1,0,0:0:0:0:
448,192,153992,128,0,154080:0:0:0:0:
192,192,154168,128,0,154257:0:0:0:0:
64,192,154345,1,4,0:0:0:0:
320,192,154345,128,2,154433:0:0:0:0:
448,192,154521,128,0,154609:0:0:0:0:
64,192,154698,128,8,154786:0:0:0:0:
192,192,154698,1,0,0:0:0:0:
320,192,154874,128,2,154962:0:0:0:0:
448,192,154874,1,0,0:0:0:0:
192,192,155051,128,4,155227:0:0:0:0:
64,192,155227,1,8,0:0:0:0:
320,192,155227,128,0,155404:0:0:0:0:
192,192,155404,1,2,0:0:0:0:
448,192,155404,128,0,155580:0:0:0:0:
192,192,155757,1,4,0:0:0:0:
320,192,155757,128,0,155933:0:0:0:0:
192,192,155933,1,4,0:0:0:0:
64,192,156109,1,8,0:0:0:0:
320,192,156109,128,0,156286:0:0:0:0:
192,192,156462,1,4,0:0:0:0:
448,192,156462,128,2,156639:0:0:0:0:
192,192,156639,1,4,0:0:0:0:
320,192,156639,1,2,0:0:0:0:
64,192,156815,128,0,157521:0:0:0:0:
320,192,156992,1,2,0:0:0:0:
448,192,156992,1,0,0:0:0:0:
320,192,157168,1,4,0:0:0:0:
448,192,157168,1,2,0:0:0:0:
192,192,157521,1,8,0:0:0:0:
320,192,157521,1,2,0:0:0:0:
448,192,157521,1,0,0:0:0:0:
320,192,157698,1,2,0:0:0:0:
448,192,157698,1,0,0:0:0:0:
64,192,157874,1,4,0:0:0:0:
192,192,157874,1,2,0:0:0:0:
448,192,157874,1,0,0:0:0:0:
64,192,158051,1,2,0:0:0:0:
320,192,158051,1,0,0:0:0:0:
192,192,158227,1,2,0:0:0:0:
320,192,158227,1,0,0:0:0:0:
448,192,158227,1,0,0:0:0:0:
448,192,158580,1,0,0:0:0:0:
64,192,158933,1,0,0:0:0:0:
320,192,158933,1,0,0:0:0:0:
192,192,159286,1,0,0:0:0:0:
320,192,159462,1,0,0:0:0:0:
64,192,159639,1,0,0:0:0:0:
448,192,159639,1,0,0:0:0:0:
320,192,159992,1,2,0:0:0:0:
448,192,159992,1,0,0:0:0:0:
192,192,160345,1,0,0:0:0:0:
320,192,160345,1,0,0:0:0:0:
64,192,160698,1,0,0:0:0:0:
320,192,160874,1,0,0:0:0:0:
64,192,161051,1,2,0:0:0:0:
192,192,161051,1,0,0:0:0:0:
448,192,161051,1,0,0:0:0:0:
320,192,161404,1,0,0:0:0:0:
192,192,161757,1,0,0:0:0:0:
448,192,162109,1,0,0:0:0:0:
64,192,162462,1,0,0:0:0:0:
320,192,162815,1,2,0:0:0:0:
448,192,162815,1,0,0:0:0:0:
64,192,163168,1,0,0:0:0:0:
192,192,163521,1,2,0:0:0:0:
448,192,163521,1,0,0:0:0:0:
320,192,163698,1,0,0:0:0:0:
64,192,163874,1,2,0:0:0:0:
448,192,163874,1,0,0:0:0:0:
320,192,164227,1,0,0:0:0:0:
192,192,164580,1,0,0:0:0:0:
64,192,164933,1,0,0:0:0:0:
448,192,165109,1,0,0:0:0:0:
192,192,165286,1,0,0:0:0:0:
64,192,165639,1,2,0:0:0:0:
320,192,165639,1,0,0:0:0:0:
64,192,165992,1,0,0:0:0:0:
192,192,166168,1,0,0:0:0:0:
448,192,166345,1,0,0:0:0:0:
320,192,166521,1,0,0:0:0:0:
64,192,166698,1,2,0:0:0:0:
192,192,166698,1,0,0:0:0:0:
320,192,167051,1,0,0:0:0:0:
192,192,167404,1,0,0:0:0:0:
448,192,167757,1,0,0:0:0:0:
64,192,168109,1,0,0:0:0:0:
192,192,168462,1,2,0:0:0:0:
448,192,168462,1,0,0:0:0:0:
320,192,168815,1,0,0:0:0:0:
64,192,169168,1,2,0:0:0:0:
192,192,169168,1,0,0:0:0:0:
320,192,169345,1,0,0:0:0:0:
64,192,169521,1,2,0:0:0:0:
448,192,169521,1,0,0:0:0:0:
320,192,169874,1,4,0:0:0:0:
320,192,170051,1,4,0:0:0:0:
64,192,170227,1,8,0:0:0:0:
192,192,170227,1,0,0:0:0:0:
448,192,170227,1,0,0:0:0:0:
64,192,170580,1,4,0:0:0:0:
64,192,170757,1,4,0:0:0:0:
320,192,170933,1,0,0:0:0:0:
192,192,171286,1,2,0:0:0:0:
448,192,171286,1,4,0:0:0:0:
64,192,171639,1,8,0:0:0:0:
320,192,171639,1,0,0:0:0:0:
448,192,171639,1,0,0:0:0:0:
192,192,171815,1,2,0:0:0:0:
320,192,171815,1,0,0:0:0:0:
64,192,171992,1,4,0:0:0:0:
320,192,172168,1,8,0:0:0:0:
448,192,172168,1,0,0:0:0:0:
64,192,172345,1,2,0:0:0:0:
192,192,172345,1,0,0:0:0:0:
448,192,172698,1,4,0:0:0:0:
448,192,172874,1,4,0:0:0:0:
64,192,173051,1,8,0:0:0:0:
192,192,173051,1,0,0:0:0:0:
320,192,173051,1,0,0:0:0:0:
64,192,173404,1,4,0:0:0:0:
192,192,173404,1,2,0:0:0:0:
64,192,173580,1,2,0:0:0:0:
192,192,173580,1,4,0:0:0:0:
448,192,173757,1,0,0:0:0:0:
192,192,173933,1,2,0:0:0:0:
320,192,173933,1,0,0:0:0:0:
192,192,174109,1,2,0:0:0:0:
320,192,174109,1,4,0:0:0:0:
64,192,174462,1,2,0:0:0:0:
320,192,174462,1,8,0:0:0:0:
448,192,174462,1,0,0:0:0:0:
64,192,174639,1,2,0:0:0:0:
192,192,174639,1,0,0:0:0:0:
320,192,174815,1,2,0:0:0:0:
448,192,174815,1,4,0:0:0:0:
192,192,174992,1,2,0:0:0:0:
320,192,174992,1,0,0:0:0:0:
64,192,175168,1,2,0:0:0:0:
448,192,175168,1,0,0:0:0:0:
320,192,175521,1,0,0:0:0:0:
192,192,175874,1,0,0:0:0:0:
320,192,176227,1,2,0:0:0:0:
448,192,176227,1,0,0:0:0:0:
192,192,176404,1,0,0:0:0:0:
64,192,176580,1,2,0:0:0:0:
448,192,176580,1,0,0:0:0:0:
320,192,176933,1,0,0:0:0:0:
192,192,177286,1,0,0:0:0:0:
64,192,177462,1,0,0:0:0:0:
320,192,177639,1,2,0:0:0:0:
448,192,177639,1,0,0:0:0:0:
64,192,177992,1,2,0:0:0:0:
192,192,177992,1,0,0:0:0:0:
448,192,178345,1,0,0:0:0:0:
64,192,178698,1,0,0:0:0:0:
192,192,178874,1,0,0:0:0:0:
320,192,178962,1,0,0:0:0:0:
448,192,179051,1,0,0:0:0:0:
64,192,179404,128,0,180286:0:0:0:0:
192,192,179404,128,0,180286:0:0:0:0:
