osu file format v14

[General]
AudioFilename: audio.mp3
AudioLeadIn: 0
PreviewTime: 18120
Countdown: 0
SampleSet: Soft
StackLeniency: 0.7
Mode: 3
LetterboxInBreaks: 0
SpecialStyle: 0
WidescreenStoryboard: 1

[Editor]
Bookmarks: 6120,18120,30120,42120,54120,66120,78120,90120,102120,114120,126120,138120
DistanceSpacing: 0.5
BeatDivisor: 4
GridSize: 4
TimelineZoom: 1.3

[Metadata]
Title:Da Xi (Sped Up Ver.)
TitleUnicode:大喜 (Sped Up Ver.)
Artist:Ling Yuan yousa
ArtistUnicode:泠鸢yousa
Creator:ExNeko
Version:hyahya's 4K Hard
Source:
Tags:音阙诗听 interestingcn Chinese [Crz]hinako1804 hinako1804 lovely_hyahya MTF_Hua Electronic pop c-pop cpop
BeatmapID:3056731
BeatmapSetID:1489889

[Difficulty]
HPDrainRate:7
CircleSize:4
OverallDifficulty:7
ApproachRate:5
SliderMultiplier:1.4
SliderTickRate:1

[Events]
//Background and Video events
0,0,"bg.jpg",0,0
//Break Periods
//Storyboard Layer 0 (Background)
//Storyboard Layer 1 (Fail)
//Storyboard Layer 2 (Pass)
//Storyboard Layer 3 (Foreground)
//Storyboard Layer 4 (Overlay)
//Storyboard Sound Samples

[TimingPoints]
120,375,4,2,1,20,1,0
54120,-100,4,2,1,20,0,1
66120,-100,4,2,1,20,0,0
126120,-100,4,2,1,20,0,1
138120,-100,4,2,1,20,0,0

[HitObjects]
320,192,120,5,0,0:0:0:0:
64,192,120,1,0,0:0:0:0:
320,192,495,1,0,0:0:0:0:
320,192,870,1,0,0:0:0:0:
320,192,1245,1,0,0:0:0:0:
320,192,1620,1,0,0:0:0:0:
448,192,1620,1,0,0:0:0:0:
192,192,3120,1,0,0:0:0:0:
64,192,3120,1,0,0:0:0:0:
192,192,3495,1,0,0:0:0:0:
192,192,3870,1,0,0:0:0:0:
64,192,4245,1,0,0:0:0:0:
192,192,4620,1,0,0:0:0:0:
320,192,4620,1,0,0:0:0:0:
448,192,4807,128,0,6120:0:0:0:0:
192,192,6120,1,0,0:0:0:0:
64,192,6120,1,0,0:0:0:0:
320,192,6401,1,0,0:0:0:0:
448,192,6495,1,0,0:0:0:0:
64,192,6682,1,0,0:0:0:0:
192,192,6870,1,0,0:0:0:0:
448,192,7057,1,0,0:0:0:0:
320,192,7151,1,0,0:0:0:0:
192,192,7245,1,0,0:0:0:0:
320,192,7432,1,0,0:0:0:0:
64,192,7620,1,0,0:0:0:0:
448,192,7620,1,0,0:0:0:0:
320,192,7901,1,0,0:0:0:0:
448,192,7995,1,0,0:0:0:0:
192,192,8182,1,0,0:0:0:0:
64,192,8370,1,0,0:0:0:0:
320,192,8463,1,0,0:0:0:0:
192,192,8557,1,0,0:0:0:0:
448,192,8651,1,0,0:0:0:0:
64,192,8745,1,0,0:0:0:0:
320,192,8932,1,0,0:0:0:0:
192,192,9120,1,0,0:0:0:0:
64,192,9120,1,0,0:0:0:0:
320,192,9401,1,0,0:0:0:0:
448,192,9495,1,0,0:0:0:0:
64,192,9682,1,0,0:0:0:0:
192,192,9870,1,0,0:0:0:0:
448,192,10057,1,0,0:0:0:0:
64,192,10151,1,0,0:0:0:0:
320,192,10245,1,0,0:0:0:0:
192,192,10432,1,0,0:0:0:0:
320,192,10620,1,0,0:0:0:0:
448,192,10620,1,0,0:0:0:0:
192,192,10901,1,0,0:0:0:0:
64,192,10995,1,0,0:0:0:0:
320,192,11182,1,0,0:0:0:0:
448,192,11370,1,0,0:0:0:0:
192,192,11463,1,0,0:0:0:0:
320,192,11557,1,0,0:0:0:0:
64,192,11651,1,0,0:0:0:0:
448,192,11745,1,0,0:0:0:0:
192,192,11932,1,0,0:0:0:0:
448,192,12120,1,0,0:0:0:0:
320,192,12120,1,0,0:0:0:0:
64,192,12401,1,0,0:0:0:0:
192,192,12495,1,0,0:0:0:0:
448,192,12682,1,0,0:0:0:0:
320,192,12870,1,0,0:0:0:0:
64,192,13057,1,0,0:0:0:0:
448,192,13151,1,0,0:0:0:0:
192,192,13245,1,0,0:0:0:0:
320,192,13432,1,0,0:0:0:0:
64,192,13620,1,0,0:0:0:0:
192,192,13620,1,0,0:0:0:0:
448,192,13901,1,0,0:0:0:0:
320,192,13995,1,0,0:0:0:0:
192,192,14182,1,0,0:0:0:0:
448,192,14370,1,0,0:0:0:0:
192,192,14463,1,0,0:0:0:0:
320,192,14557,1,0,0:0:0:0:
64,192,14651,1,0,0:0:0:0:
448,192,14745,1,0,0:0:0:0:
192,192,14932,1,0,0:0:0:0:
64,192,15120,1,0,0:0:0:0:
448,192,15120,1,0,0:0:0:0:
64,192,15401,1,0,0:0:0:0:
192,192,15495,1,0,0:0:0:0:
448,192,15682,1,0,0:0:0:0:
320,192,15870,1,0,0:0:0:0:
192,192,16057,1,0,0:0:0:0:
448,192,16151,1,0,0:0:0:0:
320,192,16245,1,0,0:0:0:0:
64,192,16432,1,0,0:0:0:0:
320,192,16620,1,0,0:0:0:0:
448,192,16620,1,0,0:0:0:0:
64,192,16901,1,0,0:0:0:0:
192,192,16995,1,0,0:0:0:0:
64,192,17182,1,0,0:0:0:0:
320,192,17370,1,0,0:0:0:0:
448,192,17463,1,0,0:0:0:0:
192,192,17557,1,0,0:0:0:0:
320,192,17651,1,0,0:0:0:0:
64,192,17745,1,0,0:0:0:0:
448,192,17932,1,0,0:0:0:0:
320,192,18120,1,0,0:0:0:0:
64,192,18307,1,0,0:0:0:0:
192,192,18495,1,0,0:0:0:0:
448,192,18682,1,0,0:0:0:0:
320,192,19057,1,0,0:0:0:0:
192,192,19245,1,0,0:0:0:0:
448,192,19620,1,0,0:0:0:0:
64,192,19807,1,0,0:0:0:0:
192,192,19995,1,0,0:0:0:0:
320,192,20182,1,0,0:0:0:0:
320,192,21120,1,0,0:0:0:0:
64,192,21307,1,0,0:0:0:0:
192,192,21495,1,0,0:0:0:0:
448,192,21682,1,0,0:0:0:0:
320,192,22057,1,0,0:0:0:0:
64,192,22245,1,0,0:0:0:0:
192,192,22432,1,0,0:0:0:0:
448,192,22620,1,0,0:0:0:0:
192,192,22807,1,0,0:0:0:0:
320,192,22995,1,0,0:0:0:0:
448,192,23182,1,0,0:0:0:0:
192,192,23557,1,0,0:0:0:0:
448,192,24120,1,0,0:0:0:0:
64,192,24307,1,0,0:0:0:0:
192,192,24495,1,0,0:0:0:0:
448,192,24682,1,0,0:0:0:0:
64,192,25057,1,0,0:0:0:0:
320,192,25245,1,0,0:0:0:0:
320,192,25620,1,0,0:0:0:0:
64,192,25807,1,0,0:0:0:0:
448,192,25995,1,0,0:0:0:0:
192,192,26182,1,0,0:0:0:0:
448,192,27120,1,0,0:0:0:0:
64,192,27307,1,0,0:0:0:0:
320,192,27495,1,0,0:0:0:0:
448,192,27682,1,0,0:0:0:0:
192,192,28057,1,0,0:0:0:0:
320,192,28245,1,0,0:0:0:0:
448,192,28432,1,0,0:0:0:0:
320,192,28620,1,0,0:0:0:0:
64,192,28807,1,0,0:0:0:0:
192,192,28995,1,0,0:0:0:0:
448,192,29182,1,0,0:0:0:0:
192,192,29557,1,0,0:0:0:0:
320,192,29745,1,0,0:0:0:0:
192,192,29932,1,0,0:0:0:0:
64,192,30120,1,0,0:0:0:0:
448,192,30120,1,0,0:0:0:0:
320,192,30307,1,0,0:0:0:0:
64,192,30495,1,0,0:0:0:0:
448,192,30495,1,0,0:0:0:0:
192,192,30682,1,0,0:0:0:0:
64,192,30870,1,0,0:0:0:0:
448,192,30870,1,0,0:0:0:0:
320,192,31057,1,0,0:0:0:0:
448,192,31151,1,0,0:0:0:0:
64,192,31151,1,0,0:0:0:0:
192,192,31245,1,0,0:0:0:0:
448,192,31432,1,0,0:0:0:0:
192,192,31432,1,0,0:0:0:0:
64,192,31620,1,0,0:0:0:0:
320,192,31620,1,0,0:0:0:0:
448,192,31807,1,0,0:0:0:0:
64,192,31995,1,0,0:0:0:0:
320,192,31995,1,0,0:0:0:0:
192,192,32182,1,0,0:0:0:0:
448,192,32276,1,0,0:0:0:0:
64,192,32370,1,0,0:0:0:0:
320,192,32370,1,0,0:0:0:0:
64,192,32557,1,0,0:0:0:0:
448,192,32651,1,0,0:0:0:0:
192,192,32651,1,0,0:0:0:0:
64,192,32745,1,0,0:0:0:0:
320,192,32932,1,0,0:0:0:0:
64,192,32932,1,0,0:0:0:0:
192,192,33120,1,0,0:0:0:0:
448,192,33120,1,0,0:0:0:0:
320,192,33307,1,0,0:0:0:0:
192,192,33495,1,0,0:0:0:0:
448,192,33495,1,0,0:0:0:0:
64,192,33682,1,0,0:0:0:0:
192,192,33870,1,0,0:0:0:0:
448,192,33870,1,0,0:0:0:0:
64,192,34057,1,0,0:0:0:0:
192,192,34151,1,0,0:0:0:0:
448,192,34151,1,0,0:0:0:0:
320,192,34245,1,0,0:0:0:0:
192,192,34432,1,0,0:0:0:0:
320,192,34432,1,0,0:0:0:0:
64,192,34620,1,0,0:0:0:0:
448,192,34620,1,0,0:0:0:0:
320,192,34807,1,0,0:0:0:0:
64,192,34995,1,0,0:0:0:0:
448,192,34995,1,0,0:0:0:0:
192,192,35182,1,0,0:0:0:0:
64,192,35370,1,0,0:0:0:0:
448,192,35370,1,0,0:0:0:0:
192,192,35557,1,0,0:0:0:0:
448,192,35651,1,0,0:0:0:0:
64,192,35651,1,0,0:0:0:0:
320,192,35745,1,0,0:0:0:0:
192,192,35932,1,0,0:0:0:0:
320,192,35932,1,0,0:0:0:0:
64,192,36120,1,0,0:0:0:0:
448,192,36120,1,0,0:0:0:0:
64,192,36307,1,0,0:0:0:0:
320,192,36307,1,0,0:0:0:0:
448,192,36495,1,0,0:0:0:0:
192,192,36495,1,0,0:0:0:0:
448,192,36682,1,0,0:0:0:0:
64,192,36682,1,0,0:0:0:0:
192,192,36870,1,0,0:0:0:0:
320,192,36870,1,0,0:0:0:0:
192,192,37057,1,0,0:0:0:0:
448,192,37057,1,0,0:0:0:0:
320,192,37245,1,0,0:0:0:0:
64,192,37245,1,0,0:0:0:0:
320,192,37432,1,0,0:0:0:0:
192,192,37432,1,0,0:0:0:0:
64,192,37620,1,0,0:0:0:0:
448,192,37620,1,0,0:0:0:0:
64,192,37807,1,0,0:0:0:0:
192,192,37807,1,0,0:0:0:0:
320,192,37995,1,0,0:0:0:0:
448,192,37995,1,0,0:0:0:0:
320,192,38182,1,0,0:0:0:0:
64,192,38182,1,0,0:0:0:0:
448,192,38370,1,0,0:0:0:0:
192,192,38370,1,0,0:0:0:0:
448,192,38557,1,0,0:0:0:0:
64,192,38557,1,0,0:0:0:0:
448,192,38745,1,0,0:0:0:0:
320,192,38745,1,0,0:0:0:0:
448,192,38932,1,0,0:0:0:0:
192,192,38932,1,0,0:0:0:0:
320,192,39120,1,0,0:0:0:0:
64,192,39120,1,0,0:0:0:0:
448,192,39213,1,0,0:0:0:0:
192,192,39307,1,0,0:0:0:0:
448,192,39401,1,0,0:0:0:0:
64,192,39495,1,0,0:0:0:0:
320,192,39588,1,0,0:0:0:0:
192,192,39682,1,0,0:0:0:0:
448,192,39776,1,0,0:0:0:0:
64,192,39870,1,0,0:0:0:0:
192,192,39963,1,0,0:0:0:0:
448,192,40057,1,0,0:0:0:0:
320,192,40151,1,0,0:0:0:0:
64,192,40245,1,0,0:0:0:0:
448,192,40338,1,0,0:0:0:0:
192,192,40432,1,0,0:0:0:0:
320,192,40526,1,0,0:0:0:0:
64,192,40620,1,0,0:0:0:0:
448,192,40620,1,0,0:0:0:0:
192,192,40807,1,0,0:0:0:0:
64,192,42120,1,0,0:0:0:0:
320,192,42120,1,0,0:0:0:0:
192,192,42307,1,0,0:0:0:0:
320,192,42401,1,0,0:0:0:0:
64,192,42495,1,0,0:0:0:0:
448,192,42495,1,0,0:0:0:0:
192,192,42682,1,0,0:0:0:0:
320,192,42870,1,0,0:0:0:0:
448,192,42870,1,0,0:0:0:0:
192,192,42963,1,0,0:0:0:0:
64,192,43057,1,0,0:0:0:0:
448,192,43245,1,0,0:0:0:0:
192,192,43245,1,0,0:0:0:0:
64,192,43620,1,0,0:0:0:0:
320,192,43620,1,0,0:0:0:0:
448,192,43807,1,0,0:0:0:0:
320,192,43901,1,0,0:0:0:0:
192,192,43995,1,0,0:0:0:0:
64,192,43995,1,0,0:0:0:0:
320,192,44182,1,0,0:0:0:0:
64,192,44370,1,0,0:0:0:0:
448,192,44370,1,0,0:0:0:0:
192,192,44463,1,0,0:0:0:0:
320,192,44557,1,0,0:0:0:0:
192,192,44745,1,0,0:0:0:0:
448,192,44745,1,0,0:0:0:0:
64,192,45120,1,0,0:0:0:0:
320,192,45120,1,0,0:0:0:0:
448,192,45307,1,0,0:0:0:0:
320,192,45401,1,0,0:0:0:0:
192,192,45495,1,0,0:0:0:0:
64,192,45495,1,0,0:0:0:0:
320,192,45682,1,0,0:0:0:0:
448,192,45870,1,0,0:0:0:0:
64,192,45870,1,0,0:0:0:0:
192,192,45963,1,0,0:0:0:0:
320,192,46057,1,0,0:0:0:0:
192,192,46245,1,0,0:0:0:0:
448,192,46245,1,0,0:0:0:0:
320,192,46620,1,0,0:0:0:0:
64,192,46620,1,0,0:0:0:0:
192,192,46807,1,0,0:0:0:0:
448,192,46995,1,0,0:0:0:0:
64,192,46995,1,0,0:0:0:0:
320,192,47182,1,0,0:0:0:0:
448,192,47370,1,0,0:0:0:0:
192,192,47370,1,0,0:0:0:0:
448,192,47557,1,0,0:0:0:0:
64,192,47557,1,0,0:0:0:0:
320,192,47745,1,0,0:0:0:0:
192,192,47745,1,0,0:0:0:0:
64,192,48120,1,0,0:0:0:0:
320,192,48120,1,0,0:0:0:0:
192,192,48307,1,0,0:0:0:0:
320,192,48401,1,0,0:0:0:0:
64,192,48495,1,0,0:0:0:0:
448,192,48495,1,0,0:0:0:0:
192,192,48682,1,0,0:0:0:0:
320,192,48870,1,0,0:0:0:0:
448,192,48870,1,0,0:0:0:0:
192,192,48963,1,0,0:0:0:0:
64,192,49057,1,0,0:0:0:0:
448,192,49245,1,0,0:0:0:0:
192,192,49245,1,0,0:0:0:0:
192,192,49620,1,0,0:0:0:0:
320,192,49620,1,0,0:0:0:0:
320,192,49807,1,0,0:0:0:0:
448,192,49995,1,0,0:0:0:0:
64,192,49995,1,0,0:0:0:0:
64,192,50182,1,0,0:0:0:0:
192,192,50370,1,0,0:0:0:0:
448,192,50370,1,0,0:0:0:0:
448,192,50557,1,0,0:0:0:0:
320,192,50745,1,0,0:0:0:0:
192,192,50745,1,0,0:0:0:0:
192,192,50932,1,0,0:0:0:0:
320,192,51120,1,0,0:0:0:0:
64,192,51120,1,0,0:0:0:0:
64,192,51307,1,0,0:0:0:0:
448,192,51307,1,0,0:0:0:0:
192,192,51495,1,0,0:0:0:0:
320,192,51495,1,0,0:0:0:0:
64,192,51682,1,0,0:0:0:0:
192,192,51682,1,0,0:0:0:0:
448,192,51870,1,0,0:0:0:0:
320,192,51870,1,0,0:0:0:0:
448,192,52057,1,0,0:0:0:0:
192,192,52057,1,0,0:0:0:0:
64,192,52245,1,0,0:0:0:0:
320,192,52245,1,0,0:0:0:0:
64,192,52432,1,0,0:0:0:0:
192,192,52432,1,0,0:0:0:0:
320,192,52620,1,0,0:0:0:0:
448,192,52620,1,0,0:0:0:0:
320,192,52807,1,0,0:0:0:0:
448,192,52807,1,0,0:0:0:0:
64,192,52995,1,0,0:0:0:0:
192,192,52995,1,0,0:0:0:0:
64,192,53182,1,0,0:0:0:0:
192,192,53182,1,0,0:0:0:0:
320,192,53370,1,0,0:0:0:0:
448,192,53370,1,0,0:0:0:0:
320,192,53557,1,0,0:0:0:0:
448,192,53557,1,0,0:0:0:0:
64,192,53745,1,0,0:0:0:0:
192,192,53745,1,0,0:0:0:0:
448,192,53838,1,0,0:0:0:0:
320,192,53932,1,0,0:0:0:0:
192,192,54026,1,0,0:0:0:0:
64,192,54120,128,0,54307:0:0:0:0:
320,192,54120,1,0,0:0:0:0:
448,192,54120,1,0,0:0:0:0:
448,192,54495,128,0,54682:0:0:0:0:
192,192,54495,1,0,0:0:0:0:
320,192,54495,1,0,0:0:0:0:
64,192,54682,1,0,0:0:0:0:
320,192,54870,128,0,55057:0:0:0:0:
192,192,55057,1,0,0:0:0:0:
64,192,55245,128,0,55338:0:0:0:0:
320,192,55245,1,0,0:0:0:0:
448,192,55245,1,0,0:0:0:0:
192,192,55338,128,0,55432:0:0:0:0:
64,192,55432,128,0,55620:0:0:0:0:
320,192,55620,1,0,0:0:0:0:
448,192,55807,128,0,55995:0:0:0:0:
64,192,55901,1,0,0:0:0:0:
192,192,55995,128,0,56182:0:0:0:0:
320,192,55995,1,0,0:0:0:0:
320,192,56182,128,0,56370:0:0:0:0:
64,192,56182,1,0,0:0:0:0:
448,192,56370,128,0,56557:0:0:0:0:
192,192,56557,1,0,0:0:0:0:
320,192,56745,128,0,56932:0:0:0:0:
64,192,56745,1,0,0:0:0:0:
448,192,56745,1,0,0:0:0:0:
192,192,57120,128,0,57307:0:0:0:0:
448,192,57120,1,0,0:0:0:0:
320,192,57495,128,0,57682:0:0:0:0:
64,192,57495,1,0,0:0:0:0:
192,192,57495,1,0,0:0:0:0:
448,192,57682,1,0,0:0:0:0:
64,192,57870,128,0,58057:0:0:0:0:
320,192,58057,1,0,0:0:0:0:
448,192,58245,128,0,58338:0:0:0:0:
192,192,58245,1,0,0:0:0:0:
64,192,58245,1,0,0:0:0:0:
320,192,58338,128,0,58432:0:0:0:0:
448,192,58432,128,0,58620:0:0:0:0:
192,192,58620,1,0,0:0:0:0:
320,192,58807,128,0,58995:0:0:0:0:
64,192,58901,1,0,0:0:0:0:
192,192,58995,128,0,59182:0:0:0:0:
448,192,58995,1,0,0:0:0:0:
320,192,59182,128,0,59370:0:0:0:0:
64,192,59182,1,0,0:0:0:0:
448,192,59370,128,0,59557:0:0:0:0:
320,192,59557,128,0,59745:0:0:0:0:
192,192,59557,1,0,0:0:0:0:
192,192,59745,128,0,59932:0:0:0:0:
448,192,59745,1,0,0:0:0:0:
64,192,59745,1,0,0:0:0:0:
64,192,59932,128,0,60120:0:0:0:0:
192,192,60120,128,0,60307:0:0:0:0:
320,192,60120,1,0,0:0:0:0:
448,192,60495,128,0,60682:0:0:0:0:
64,192,60495,1,0,0:0:0:0:
192,192,60495,1,0,0:0:0:0:
320,192,60682,1,0,0:0:0:0:
192,192,60870,128,0,61057:0:0:0:0:
320,192,61057,1,0,0:0:0:0:
64,192,61245,128,0,61338:0:0:0:0:
320,192,61245,1,0,0:0:0:0:
448,192,61245,1,0,0:0:0:0:
192,192,61338,128,0,61432:0:0:0:0:
64,192,61432,128,0,61620:0:0:0:0:
320,192,61620,1,0,0:0:0:0:
448,192,61807,128,0,61995:0:0:0:0:
192,192,61901,1,0,0:0:0:0:
320,192,61995,128,0,62182:0:0:0:0:
64,192,61995,1,0,0:0:0:0:
448,192,62182,128,0,62370:0:0:0:0:
192,192,62182,1,0,0:0:0:0:
320,192,62370,128,0,62557:0:0:0:0:
64,192,62557,1,0,0:0:0:0:
192,192,62745,128,0,62932:0:0:0:0:
320,192,62745,1,0,0:0:0:0:
448,192,62745,1,0,0:0:0:0:
64,192,63120,128,0,63307:0:0:0:0:
320,192,63120,1,0,0:0:0:0:
320,192,63495,128,0,63682:0:0:0:0:
192,192,63495,1,0,0:0:0:0:
448,192,63495,1,0,0:0:0:0:
64,192,63682,1,0,0:0:0:0:
192,192,63870,128,0,64057:0:0:0:0:
448,192,64057,1,0,0:0:0:0:
448,192,64245,128,0,64338:0:0:0:0:
192,192,64245,1,0,0:0:0:0:
64,192,64245,1,0,0:0:0:0:
320,192,64338,128,0,64432:0:0:0:0:
448,192,64432,128,0,64620:0:0:0:0:
320,192,64620,1,0,0:0:0:0:
192,192,64807,128,0,64995:0:0:0:0:
64,192,64901,1,0,0:0:0:0:
320,192,64995,128,0,65182:0:0:0:0:
448,192,64995,1,0,0:0:0:0:
448,192,65182,128,0,65370:0:0:0:0:
64,192,65182,1,0,0:0:0:0:
192,192,65370,128,0,65557:0:0:0:0:
320,192,65557,128,0,65745:0:0:0:0:
64,192,65557,1,0,0:0:0:0:
64,192,65745,128,0,65932:0:0:0:0:
448,192,65745,1,0,0:0:0:0:
192,192,65932,128,0,66120:0:0:0:0:
320,192,66120,1,0,0:0:0:0:
448,192,66120,1,0,0:0:0:0:
64,192,66307,1,0,0:0:0:0:
320,192,66495,1,0,0:0:0:0:
448,192,66495,1,0,0:0:0:0:
64,192,66682,1,0,0:0:0:0:
320,192,66870,1,0,0:0:0:0:
192,192,66870,1,0,0:0:0:0:
64,192,67057,1,0,0:0:0:0:
192,192,67151,1,0,0:0:0:0:
320,192,67245,1,0,0:0:0:0:
448,192,67245,1,0,0:0:0:0:
64,192,67432,1,0,0:0:0:0:
192,192,67495,1,0,0:0:0:0:
320,192,67557,1,0,0:0:0:0:
448,192,67620,1,0,0:0:0:0:
64,192,67620,1,0,0:0:0:0:
320,192,67807,1,0,0:0:0:0:
64,192,67901,1,0,0:0:0:0:
448,192,67995,1,0,0:0:0:0:
192,192,67995,1,0,0:0:0:0:
64,192,68182,1,0,0:0:0:0:
320,192,68370,1,0,0:0:0:0:
448,192,68370,1,0,0:0:0:0:
192,192,68557,1,0,0:0:0:0:
448,192,68651,1,0,0:0:0:0:
64,192,68745,1,0,0:0:0:0:
320,192,68745,1,0,0:0:0:0:
448,192,68932,1,0,0:0:0:0:
320,192,68995,1,0,0:0:0:0:
192,192,69057,1,0,0:0:0:0:
448,192,69120,1,0,0:0:0:0:
64,192,69120,1,0,0:0:0:0:
192,192,69307,1,0,0:0:0:0:
320,192,69401,1,0,0:0:0:0:
448,192,69495,1,0,0:0:0:0:
64,192,69495,1,0,0:0:0:0:
192,192,69682,1,0,0:0:0:0:
448,192,69870,1,0,0:0:0:0:
320,192,69870,1,0,0:0:0:0:
192,192,70057,1,0,0:0:0:0:
64,192,70151,1,0,0:0:0:0:
320,192,70245,1,0,0:0:0:0:
448,192,70245,1,0,0:0:0:0:
192,192,70432,1,0,0:0:0:0:
64,192,70620,1,0,0:0:0:0:
320,192,70620,1,0,0:0:0:0:
64,192,70807,1,0,0:0:0:0:
448,192,70901,1,0,0:0:0:0:
320,192,70995,1,0,0:0:0:0:
192,192,70995,1,0,0:0:0:0:
448,192,71182,1,0,0:0:0:0:
192,192,71370,1,0,0:0:0:0:
64,192,71370,1,0,0:0:0:0:
320,192,71463,1,0,0:0:0:0:
448,192,71557,1,0,0:0:0:0:
64,192,71651,1,0,0:0:0:0:
192,192,71745,1,0,0:0:0:0:
320,192,71745,1,0,0:0:0:0:
448,192,71932,1,0,0:0:0:0:
320,192,71995,1,0,0:0:0:0:
64,192,72057,1,0,0:0:0:0:
448,192,72120,1,0,0:0:0:0:
192,192,72120,1,0,0:0:0:0:
64,192,72307,1,0,0:0:0:0:
320,192,72495,1,0,0:0:0:0:
448,192,72495,1,0,0:0:0:0:
64,192,72682,1,0,0:0:0:0:
320,192,72870,1,0,0:0:0:0:
192,192,72870,1,0,0:0:0:0:
64,192,73057,1,0,0:0:0:0:
192,192,73151,1,0,0:0:0:0:
320,192,73245,1,0,0:0:0:0:
448,192,73245,1,0,0:0:0:0:
64,192,73432,1,0,0:0:0:0:
192,192,73495,1,0,0:0:0:0:
448,192,73557,1,0,0:0:0:0:
320,192,73620,1,0,0:0:0:0:
64,192,73620,1,0,0:0:0:0:
64,192,73807,1,0,0:0:0:0:
320,192,73901,1,0,0:0:0:0:
448,192,73995,1,0,0:0:0:0:
192,192,73995,1,0,0:0:0:0:
64,192,74182,1,0,0:0:0:0:
448,192,74370,1,0,0:0:0:0:
320,192,74370,1,0,0:0:0:0:
64,192,74557,1,0,0:0:0:0:
320,192,74651,1,0,0:0:0:0:
448,192,74745,1,0,0:0:0:0:
192,192,74745,1,0,0:0:0:0:
320,192,74932,1,0,0:0:0:0:
192,192,74995,1,0,0:0:0:0:
64,192,75057,1,0,0:0:0:0:
448,192,75120,1,0,0:0:0:0:
320,192,75120,1,0,0:0:0:0:
192,192,75307,1,0,0:0:0:0:
320,192,75401,1,0,0:0:0:0:
448,192,75495,1,0,0:0:0:0:
64,192,75495,1,0,0:0:0:0:
192,192,75682,1,0,0:0:0:0:
448,192,75870,1,0,0:0:0:0:
320,192,75870,1,0,0:0:0:0:
64,192,76057,1,0,0:0:0:0:
320,192,76151,1,0,0:0:0:0:
448,192,76245,1,0,0:0:0:0:
192,192,76245,1,0,0:0:0:0:
320,192,76432,1,0,0:0:0:0:
448,192,76620,1,0,0:0:0:0:
64,192,76620,1,0,0:0:0:0:
320,192,76807,1,0,0:0:0:0:
64,192,76901,1,0,0:0:0:0:
192,192,76995,1,0,0:0:0:0:
448,192,76995,1,0,0:0:0:0:
320,192,77182,1,0,0:0:0:0:
192,192,77370,1,0,0:0:0:0:
64,192,77370,1,0,0:0:0:0:
448,192,77463,1,0,0:0:0:0:
320,192,77557,1,0,0:0:0:0:
64,192,77651,1,0,0:0:0:0:
192,192,77745,1,0,0:0:0:0:
448,192,77745,1,0,0:0:0:0:
64,192,77932,1,0,0:0:0:0:
320,192,78120,1,0,0:0:0:0:
64,192,78307,1,0,0:0:0:0:
192,192,78495,1,0,0:0:0:0:
448,192,78682,1,0,0:0:0:0:
320,192,79057,1,0,0:0:0:0:
192,192,79245,1,0,0:0:0:0:
448,192,79620,1,0,0:0:0:0:
64,192,79807,1,0,0:0:0:0:
192,192,79995,1,0,0:0:0:0:
320,192,80182,1,0,0:0:0:0:
64,192,80557,128,0,81120:0:0:0:0:
448,192,81120,1,0,0:0:0:0:
64,192,81307,1,0,0:0:0:0:
192,192,81495,1,0,0:0:0:0:
448,192,81682,1,0,0:0:0:0:
320,192,82057,1,0,0:0:0:0:
64,192,82245,1,0,0:0:0:0:
192,192,82432,1,0,0:0:0:0:
448,192,82620,1,0,0:0:0:0:
192,192,82807,1,0,0:0:0:0:
320,192,82995,1,0,0:0:0:0:
448,192,83182,1,0,0:0:0:0:
192,192,83557,1,0,0:0:0:0:
448,192,83557,128,0,83745:0:0:0:0:
64,192,83745,128,0,83932:0:0:0:0:
448,192,84120,1,0,0:0:0:0:
64,192,84307,1,0,0:0:0:0:
192,192,84495,1,0,0:0:0:0:
448,192,84682,1,0,0:0:0:0:
320,192,84870,1,0,0:0:0:0:
64,192,85057,1,0,0:0:0:0:
320,192,85245,1,0,0:0:0:0:
448,192,85620,1,0,0:0:0:0:
64,192,85807,1,0,0:0:0:0:
192,192,85995,1,0,0:0:0:0:
320,192,86182,1,0,0:0:0:0:
448,192,87120,1,0,0:0:0:0:
64,192,87307,1,0,0:0:0:0:
320,192,87495,1,0,0:0:0:0:
448,192,87682,1,0,0:0:0:0:
192,192,88057,1,0,0:0:0:0:
320,192,88245,1,0,0:0:0:0:
448,192,88432,1,0,0:0:0:0:
320,192,88620,1,0,0:0:0:0:
64,192,88807,1,0,0:0:0:0:
192,192,88995,1,0,0:0:0:0:
448,192,89182,1,0,0:0:0:0:
192,192,89557,1,0,0:0:0:0:
448,192,89745,1,0,0:0:0:0:
320,192,89932,1,0,0:0:0:0:
64,192,90120,1,0,0:0:0:0:
448,192,90120,1,0,0:0:0:0:
192,192,90120,1,0,0:0:0:0:
320,192,90307,1,0,0:0:0:0:
64,192,90495,1,0,0:0:0:0:
448,192,90495,1,0,0:0:0:0:
320,192,90495,1,0,0:0:0:0:
192,192,90682,1,0,0:0:0:0:
64,192,90870,1,0,0:0:0:0:
320,192,90870,1,0,0:0:0:0:
192,192,90870,1,0,0:0:0:0:
448,192,91057,1,0,0:0:0:0:
320,192,91151,1,0,0:0:0:0:
64,192,91245,1,0,0:0:0:0:
448,192,91245,1,0,0:0:0:0:
192,192,91245,1,0,0:0:0:0:
64,192,91432,1,0,0:0:0:0:
192,192,91620,1,0,0:0:0:0:
320,192,91620,1,0,0:0:0:0:
448,192,91620,1,0,0:0:0:0:
64,192,91807,1,0,0:0:0:0:
448,192,91995,1,0,0:0:0:0:
320,192,91995,1,0,0:0:0:0:
64,192,91995,1,0,0:0:0:0:
192,192,92182,1,0,0:0:0:0:
320,192,92276,1,0,0:0:0:0:
64,192,92370,1,0,0:0:0:0:
192,192,92370,1,0,0:0:0:0:
448,192,92370,1,0,0:0:0:0:
64,192,92557,1,0,0:0:0:0:
448,192,92651,1,0,0:0:0:0:
64,192,92745,1,0,0:0:0:0:
320,192,92745,1,0,0:0:0:0:
192,192,92745,1,0,0:0:0:0:
64,192,92932,1,0,0:0:0:0:
448,192,93120,1,0,0:0:0:0:
192,192,93120,1,0,0:0:0:0:
320,192,93120,1,0,0:0:0:0:
64,192,93307,1,0,0:0:0:0:
448,192,93495,1,0,0:0:0:0:
64,192,93495,1,0,0:0:0:0:
192,192,93495,1,0,0:0:0:0:
320,192,93682,1,0,0:0:0:0:
448,192,93870,1,0,0:0:0:0:
192,192,93870,1,0,0:0:0:0:
320,192,93870,1,0,0:0:0:0:
64,192,94057,1,0,0:0:0:0:
192,192,94151,1,0,0:0:0:0:
448,192,94245,1,0,0:0:0:0:
64,192,94245,1,0,0:0:0:0:
320,192,94245,1,0,0:0:0:0:
448,192,94432,1,0,0:0:0:0:
320,192,94620,1,0,0:0:0:0:
192,192,94620,1,0,0:0:0:0:
64,192,94620,1,0,0:0:0:0:
448,192,94807,1,0,0:0:0:0:
64,192,94995,1,0,0:0:0:0:
192,192,94995,1,0,0:0:0:0:
448,192,94995,1,0,0:0:0:0:
320,192,95182,1,0,0:0:0:0:
448,192,95370,1,0,0:0:0:0:
320,192,95370,1,0,0:0:0:0:
64,192,95370,1,0,0:0:0:0:
192,192,95557,1,0,0:0:0:0:
320,192,95651,1,0,0:0:0:0:
448,192,95745,1,0,0:0:0:0:
192,192,95745,1,0,0:0:0:0:
64,192,95745,1,0,0:0:0:0:
320,192,95932,1,0,0:0:0:0:
64,192,96120,1,0,0:0:0:0:
448,192,96120,1,0,0:0:0:0:
192,192,96120,1,0,0:0:0:0:
320,192,96307,1,0,0:0:0:0:
448,192,96307,1,0,0:0:0:0:
64,192,96495,1,0,0:0:0:0:
192,192,96495,1,0,0:0:0:0:
320,192,96495,1,0,0:0:0:0:
64,192,96682,1,0,0:0:0:0:
448,192,96682,1,0,0:0:0:0:
320,192,96870,1,0,0:0:0:0:
448,192,96870,1,0,0:0:0:0:
192,192,96870,1,0,0:0:0:0:
192,192,97057,1,0,0:0:0:0:
64,192,97057,1,0,0:0:0:0:
64,192,97245,1,0,0:0:0:0:
320,192,97245,1,0,0:0:0:0:
448,192,97245,1,0,0:0:0:0:
192,192,97432,1,0,0:0:0:0:
448,192,97432,1,0,0:0:0:0:
64,192,97620,1,0,0:0:0:0:
192,192,97620,1,0,0:0:0:0:
320,192,97620,1,0,0:0:0:0:
64,192,97807,1,0,0:0:0:0:
448,192,97807,1,0,0:0:0:0:
448,192,97995,1,0,0:0:0:0:
320,192,97995,1,0,0:0:0:0:
192,192,97995,1,0,0:0:0:0:
320,192,98182,1,0,0:0:0:0:
64,192,98182,1,0,0:0:0:0:
448,192,98370,1,0,0:0:0:0:
192,192,98370,1,0,0:0:0:0:
64,192,98370,1,0,0:0:0:0:
448,192,98557,1,0,0:0:0:0:
192,192,98557,1,0,0:0:0:0:
448,192,98745,1,0,0:0:0:0:
320,192,98745,1,0,0:0:0:0:
64,192,98745,1,0,0:0:0:0:
448,192,98932,1,0,0:0:0:0:
192,192,98932,1,0,0:0:0:0:
64,192,99120,1,0,0:0:0:0:
320,192,99120,1,0,0:0:0:0:
448,192,99213,1,0,0:0:0:0:
192,192,99307,1,0,0:0:0:0:
64,192,99401,1,0,0:0:0:0:
320,192,99495,1,0,0:0:0:0:
448,192,99495,1,0,0:0:0:0:
192,192,99588,1,0,0:0:0:0:
64,192,99682,1,0,0:0:0:0:
448,192,99776,1,0,0:0:0:0:
64,192,99870,1,0,0:0:0:0:
192,192,99870,1,0,0:0:0:0:
448,192,99963,1,0,0:0:0:0:
320,192,100057,1,0,0:0:0:0:
64,192,100151,1,0,0:0:0:0:
320,192,100245,1,0,0:0:0:0:
448,192,100245,1,0,0:0:0:0:
192,192,100338,1,0,0:0:0:0:
64,192,100432,1,0,0:0:0:0:
448,192,100526,1,0,0:0:0:0:
64,192,100620,1,0,0:0:0:0:
192,192,100620,1,0,0:0:0:0:
192,192,100901,1,0,0:0:0:0:
320,192,101182,1,0,0:0:0:0:
448,192,101463,1,0,0:0:0:0:
192,192,101745,1,0,0:0:0:0:
320,192,102120,128,0,103245:0:0:0:0:
64,192,102120,1,0,0:0:0:0:
448,192,102495,1,0,0:0:0:0:
192,192,102870,1,0,0:0:0:0:
192,192,103245,1,0,0:0:0:0:
448,192,103338,1,0,0:0:0:0:
320,192,103432,1,0,0:0:0:0:
192,192,103620,128,0,104370:0:0:0:0:
320,192,103807,1,0,0:0:0:0:
64,192,103995,1,0,0:0:0:0:
320,192,104182,1,0,0:0:0:0:
448,192,104370,128,0,105120:0:0:0:0:
64,192,104370,1,0,0:0:0:0:
192,192,104745,1,0,0:0:0:0:
64,192,105120,128,0,106620:0:0:0:0:
320,192,105120,1,0,0:0:0:0:
448,192,105495,1,0,0:0:0:0:
192,192,105870,1,0,0:0:0:0:
320,192,106245,1,0,0:0:0:0:
448,192,106338,1,0,0:0:0:0:
192,192,106432,1,0,0:0:0:0:
320,192,106620,128,0,107370:0:0:0:0:
192,192,106807,1,0,0:0:0:0:
64,192,106995,1,0,0:0:0:0:
448,192,107182,1,0,0:0:0:0:
192,192,107370,128,0,108120:0:0:0:0:
64,192,107370,1,0,0:0:0:0:
320,192,107557,1,0,0:0:0:0:
448,192,107745,1,0,0:0:0:0:
320,192,107932,1,0,0:0:0:0:
448,192,108120,128,0,109245:0:0:0:0:
320,192,108213,1,0,0:0:0:0:
192,192,108307,1,0,0:0:0:0:
64,192,108495,1,0,0:0:0:0:
320,192,108495,1,0,0:0:0:0:
192,192,108588,1,0,0:0:0:0:
320,192,108682,1,0,0:0:0:0:
64,192,108870,1,0,0:0:0:0:
320,192,108963,1,0,0:0:0:0:
192,192,109057,1,0,0:0:0:0:
64,192,109245,1,0,0:0:0:0:
320,192,109245,1,0,0:0:0:0:
448,192,109338,1,0,0:0:0:0:
192,192,109432,1,0,0:0:0:0:
448,192,109620,128,0,109807:0:0:0:0:
192,192,109713,1,0,0:0:0:0:
64,192,109807,128,0,110182:0:0:0:0:
320,192,109807,1,0,0:0:0:0:
192,192,109995,1,0,0:0:0:0:
448,192,109995,1,0,0:0:0:0:
320,192,110088,1,0,0:0:0:0:
448,192,110182,128,0,110557:0:0:0:0:
320,192,110370,1,0,0:0:0:0:
192,192,110463,1,0,0:0:0:0:
320,192,110557,128,0,110745:0:0:0:0:
64,192,110745,128,0,111026:0:0:0:0:
192,192,110745,1,0,0:0:0:0:
320,192,110838,1,0,0:0:0:0:
448,192,110932,1,0,0:0:0:0:
320,192,111120,1,0,0:0:0:0:
192,192,111120,1,0,0:0:0:0:
64,192,111120,1,0,0:0:0:0:
448,192,111213,1,0,0:0:0:0:
64,192,111307,1,0,0:0:0:0:
192,192,111495,1,0,0:0:0:0:
320,192,111495,1,0,0:0:0:0:
448,192,111495,1,0,0:0:0:0:
64,192,111682,1,0,0:0:0:0:
192,192,111776,1,0,0:0:0:0:
64,192,111870,1,0,0:0:0:0:
448,192,111870,1,0,0:0:0:0:
320,192,111870,1,0,0:0:0:0:
192,192,112057,1,0,0:0:0:0:
448,192,112245,1,0,0:0:0:0:
64,192,112245,1,0,0:0:0:0:
192,192,112245,1,0,0:0:0:0:
320,192,112338,1,0,0:0:0:0:
448,192,112432,1,0,0:0:0:0:
192,192,112620,1,0,0:0:0:0:
448,192,112620,1,0,0:0:0:0:
64,192,112713,1,0,0:0:0:0:
320,192,112807,128,0,112901:0:0:0:0:
448,192,112901,1,0,0:0:0:0:
64,192,112995,1,0,0:0:0:0:
192,192,112995,128,0,113088:0:0:0:0:
320,192,113088,1,0,0:0:0:0:
448,192,113182,128,0,113276:0:0:0:0:
64,192,113276,1,0,0:0:0:0:
448,192,113370,1,0,0:0:0:0:
320,192,113370,128,0,113463:0:0:0:0:
64,192,113463,1,0,0:0:0:0:
192,192,113557,128,0,113651:0:0:0:0:
448,192,113651,1,0,0:0:0:0:
192,192,113745,1,0,0:0:0:0:
64,192,113745,128,0,113838:0:0:0:0:
320,192,113838,1,0,0:0:0:0:
448,192,113932,128,0,114026:0:0:0:0:
64,192,114026,1,0,0:0:0:0:
320,192,114120,128,0,114307:0:0:0:0:
448,192,114120,1,0,0:0:0:0:
192,192,114120,128,0,114307:0:0:0:0:
448,192,114495,128,0,114682:0:0:0:0:
320,192,114495,1,0,0:0:0:0:
192,192,114495,128,0,114682:0:0:0:0:
64,192,114682,1,0,0:0:0:0:
320,192,114870,128,0,115057:0:0:0:0:
64,192,114870,128,0,115057:0:0:0:0:
192,192,115057,1,0,0:0:0:0:
64,192,115245,128,0,115338:0:0:0:0:
320,192,115245,1,0,0:0:0:0:
448,192,115245,128,0,115432:0:0:0:0:
192,192,115338,128,0,115432:0:0:0:0:
64,192,115432,128,0,115620:0:0:0:0:
320,192,115432,128,0,115620:0:0:0:0:
192,192,115620,1,0,0:0:0:0:
448,192,115807,128,0,115995:0:0:0:0:
64,192,115901,1,0,0:0:0:0:
192,192,115995,128,0,116182:0:0:0:0:
320,192,115995,1,0,0:0:0:0:
320,192,116182,128,0,116370:0:0:0:0:
64,192,116182,1,0,0:0:0:0:
448,192,116370,128,0,116557:0:0:0:0:
192,192,116557,1,0,0:0:0:0:
320,192,116745,128,0,116932:0:0:0:0:
64,192,116745,1,0,0:0:0:0:
448,192,116745,1,0,0:0:0:0:
192,192,117120,128,0,117307:0:0:0:0:
448,192,117120,1,0,0:0:0:0:
64,192,117120,128,0,117307:0:0:0:0:
320,192,117495,128,0,117682:0:0:0:0:
64,192,117495,1,0,0:0:0:0:
192,192,117495,128,0,117682:0:0:0:0:
448,192,117682,1,0,0:0:0:0:
64,192,117870,128,0,118057:0:0:0:0:
448,192,117870,128,0,118057:0:0:0:0:
320,192,118057,1,0,0:0:0:0:
448,192,118245,128,0,118338:0:0:0:0:
192,192,118245,1,0,0:0:0:0:
64,192,118245,128,0,118432:0:0:0:0:
320,192,118338,128,0,118432:0:0:0:0:
448,192,118432,128,0,118620:0:0:0:0:
192,192,118432,128,0,118620:0:0:0:0:
64,192,118620,1,0,0:0:0:0:
320,192,118807,128,0,118995:0:0:0:0:
192,192,118807,1,0,0:0:0:0:
64,192,118901,1,0,0:0:0:0:
192,192,118995,128,0,119182:0:0:0:0:
448,192,118995,1,0,0:0:0:0:
320,192,119182,128,0,119370:0:0:0:0:
64,192,119182,1,0,0:0:0:0:
448,192,119370,128,0,119557:0:0:0:0:
320,192,119557,128,0,119745:0:0:0:0:
192,192,119557,1,0,0:0:0:0:
192,192,119745,128,0,119932:0:0:0:0:
448,192,119745,1,0,0:0:0:0:
64,192,119745,1,0,0:0:0:0:
64,192,119932,128,0,120120:0:0:0:0:
192,192,120120,128,0,120307:0:0:0:0:
320,192,120120,1,0,0:0:0:0:
448,192,120120,128,0,120307:0:0:0:0:
448,192,120495,128,0,120682:0:0:0:0:
192,192,120495,1,0,0:0:0:0:
64,192,120495,128,0,120682:0:0:0:0:
320,192,120682,1,0,0:0:0:0:
192,192,120870,128,0,121057:0:0:0:0:
64,192,120870,128,0,121057:0:0:0:0:
320,192,121057,1,0,0:0:0:0:
64,192,121245,128,0,121338:0:0:0:0:
320,192,121245,1,0,0:0:0:0:
448,192,121245,128,0,121432:0:0:0:0:
192,192,121338,128,0,121432:0:0:0:0:
64,192,121432,128,0,121620:0:0:0:0:
320,192,121432,128,0,121620:0:0:0:0:
448,192,121620,1,0,0:0:0:0:
448,192,121807,128,0,121995:0:0:0:0:
192,192,121901,1,0,0:0:0:0:
320,192,121995,128,0,122182:0:0:0:0:
64,192,121995,1,0,0:0:0:0:
448,192,122182,128,0,122370:0:0:0:0:
192,192,122182,1,0,0:0:0:0:
320,192,122370,128,0,122557:0:0:0:0:
64,192,122557,1,0,0:0:0:0:
192,192,122745,128,0,122932:0:0:0:0:
320,192,122745,1,0,0:0:0:0:
448,192,122745,1,0,0:0:0:0:
64,192,123120,128,0,123307:0:0:0:0:
320,192,123120,1,0,0:0:0:0:
192,192,123120,128,0,123307:0:0:0:0:
320,192,123495,128,0,123682:0:0:0:0:
64,192,123495,1,0,0:0:0:0:
448,192,123495,128,0,123682:0:0:0:0:
192,192,123682,1,0,0:0:0:0:
192,192,123870,128,0,124057:0:0:0:0:
320,192,123870,128,0,124057:0:0:0:0:
448,192,124057,1,0,0:0:0:0:
448,192,124245,128,0,124338:0:0:0:0:
192,192,124245,1,0,0:0:0:0:
64,192,124245,128,0,124432:0:0:0:0:
320,192,124338,128,0,124432:0:0:0:0:
448,192,124432,128,0,124620:0:0:0:0:
192,192,124432,128,0,124620:0:0:0:0:
320,192,124620,1,0,0:0:0:0:
320,192,124807,128,0,124995:0:0:0:0:
64,192,124901,1,0,0:0:0:0:
192,192,124995,128,0,125182:0:0:0:0:
448,192,124995,1,0,0:0:0:0:
448,192,125182,128,0,125370:0:0:0:0:
320,192,125182,1,0,0:0:0:0:
64,192,125370,128,0,125557:0:0:0:0:
320,192,125557,128,0,125745:0:0:0:0:
448,192,125557,1,0,0:0:0:0:
64,192,125745,128,0,125932:0:0:0:0:
448,192,125745,1,0,0:0:0:0:
192,192,125745,1,0,0:0:0:0:
320,192,125932,128,0,126120:0:0:0:0:
448,192,126120,1,0,0:0:0:0:
64,192,126120,128,0,126307:0:0:0:0:
192,192,126495,1,0,0:0:0:0:
448,192,126495,128,0,126682:0:0:0:0:
64,192,126682,1,0,0:0:0:0:
320,192,126870,128,0,127057:0:0:0:0:
192,192,127057,1,0,0:0:0:0:
448,192,127245,1,0,0:0:0:0:
64,192,127245,128,0,127338:0:0:0:0:
192,192,127338,128,0,127432:0:0:0:0:
64,192,127432,128,0,127620:0:0:0:0:
320,192,127620,1,0,0:0:0:0:
320,192,127807,128,0,127995:0:0:0:0:
64,192,127901,1,0,0:0:0:0:
192,192,127995,128,0,128182:0:0:0:0:
448,192,127995,128,0,128370:0:0:0:0:
64,192,128182,128,0,128370:0:0:0:0:
192,192,128370,128,0,128557:0:0:0:0:
320,192,128370,128,0,128745:0:0:0:0:
64,192,128557,1,0,0:0:0:0:
448,192,128745,1,0,0:0:0:0:
192,192,128745,128,0,129120:0:0:0:0:
320,192,129120,1,0,0:0:0:0:
64,192,129120,128,0,129307:0:0:0:0:
448,192,129120,128,0,130057:0:0:0:0:
192,192,129495,1,0,0:0:0:0:
320,192,129495,128,0,129682:0:0:0:0:
64,192,129682,1,0,0:0:0:0:
192,192,129870,128,0,130057:0:0:0:0:
320,192,130057,1,0,0:0:0:0:
64,192,130245,1,0,0:0:0:0:
448,192,130245,128,0,130338:0:0:0:0:
320,192,130338,128,0,130432:0:0:0:0:
448,192,130432,128,0,130620:0:0:0:0:
192,192,130620,1,0,0:0:0:0:
64,192,130620,128,0,130901:0:0:0:0:
320,192,130807,128,0,130995:0:0:0:0:
448,192,130901,1,0,0:0:0:0:
192,192,130995,128,0,131182:0:0:0:0:
64,192,130995,1,0,0:0:0:0:
64,192,131182,1,0,0:0:0:0:
448,192,131182,128,0,131370:0:0:0:0:
320,192,131370,128,0,131557:0:0:0:0:
192,192,131370,128,0,131745:0:0:0:0:
448,192,131557,1,0,0:0:0:0:
64,192,131557,128,0,131745:0:0:0:0:
320,192,131745,1,0,0:0:0:0:
448,192,131745,128,0,132026:0:0:0:0:
192,192,131932,128,0,132120:0:0:0:0:
64,192,132120,128,0,132307:0:0:0:0:
448,192,132120,128,0,133432:0:0:0:0:
320,192,132120,1,0,0:0:0:0:
192,192,132495,1,0,0:0:0:0:
320,192,132495,128,0,132682:0:0:0:0:
64,192,132682,1,0,0:0:0:0:
192,192,132870,128,0,133057:0:0:0:0:
320,192,133057,1,0,0:0:0:0:
320,192,133245,1,0,0:0:0:0:
64,192,133245,128,0,133338:0:0:0:0:
192,192,133338,128,0,133432:0:0:0:0:
64,192,133432,128,0,133620:0:0:0:0:
320,192,133620,1,0,0:0:0:0:
448,192,133807,128,0,133995:0:0:0:0:
192,192,133901,1,0,0:0:0:0:
320,192,133995,128,0,134182:0:0:0:0:
64,192,133995,128,0,134370:0:0:0:0:
192,192,134182,1,0,0:0:0:0:
448,192,134182,128,0,134370:0:0:0:0:
320,192,134370,128,0,134557:0:0:0:0:
192,192,134370,128,0,134745:0:0:0:0:
64,192,134557,1,0,0:0:0:0:
448,192,134745,1,0,0:0:0:0:
64,192,134745,128,0,134932:0:0:0:0:
320,192,134745,128,0,135120:0:0:0:0:
64,192,135120,1,0,0:0:0:0:
192,192,135120,128,0,135307:0:0:0:0:
448,192,135120,128,0,135495:0:0:0:0:
320,192,135495,128,0,135682:0:0:0:0:
192,192,135495,1,0,0:0:0:0:
64,192,135682,1,0,0:0:0:0:
448,192,135870,128,0,136245:0:0:0:0:
192,192,135870,128,0,136057:0:0:0:0:
320,192,136057,1,0,0:0:0:0:
320,192,136245,1,0,0:0:0:0:
64,192,136245,128,0,136338:0:0:0:0:
192,192,136338,128,0,136432:0:0:0:0:
64,192,136432,128,0,136620:0:0:0:0:
192,192,136620,1,0,0:0:0:0:
320,192,136620,128,0,137370:0:0:0:0:
448,192,136807,128,0,136995:0:0:0:0:
64,192,136901,1,0,0:0:0:0:
192,192,136995,128,0,137182:0:0:0:0:
64,192,137182,1,0,0:0:0:0:
448,192,137182,128,0,137370:0:0:0:0:
64,192,137370,128,0,137557:0:0:0:0:
192,192,137370,128,0,137745:0:0:0:0:
448,192,137557,1,0,0:0:0:0:
320,192,137557,128,0,137745:0:0:0:0:
448,192,137745,1,0,0:0:0:0:
64,192,137745,128,0,137932:0:0:0:0:
192,192,137932,128,0,138120:0:0:0:0:
448,192,138120,128,0,138588:0:0:0:0:
