osu file format v14

[General]
AudioFilename: audio.mp3
AudioLeadIn: 0
PreviewTime: 18120
Countdown: 0
SampleSet: Soft
StackLeniency: 0.7
Mode: 3
LetterboxInBreaks: 0
SpecialStyle: 0
WidescreenStoryboard: 1

[Editor]
Bookmarks: 6120,18120,30120,42120,54120,66120,78120,90120,102120,114120,126120,138120
DistanceSpacing: 0.5
BeatDivisor: 4
GridSize: 4
TimelineZoom: 2.2

[Metadata]
Title:Da Xi (Sped Up Ver.)
TitleUnicode:大喜 (Sped Up Ver.)
Artist:Ling Yuan yousa
ArtistUnicode:泠鸢yousa
Creator:ExNeko
Version:hinako's 4K Normal
Source:
Tags:音阙诗听 interestingcn Chinese [Crz]hinako1804 hinako1804 lovely_hyahya MTF_Hua Electronic pop c-pop cpop
BeatmapID:3056735
BeatmapSetID:1489889

[Difficulty]
HPDrainRate:7
CircleSize:4
OverallDifficulty:7
ApproachRate:5
SliderMultiplier:1.4
SliderTickRate:1

[Events]
//Background and Video events
0,0,"bg.jpg",0,0
//Break Periods
//Storyboard Layer 0 (Background)
//Storyboard Layer 1 (Fail)
//Storyboard Layer 2 (Pass)
//Storyboard Layer 3 (Foreground)
//Storyboard Layer 4 (Overlay)
//Storyboard Sound Samples

[TimingPoints]
120,375,4,2,1,20,1,0
54120,-100,4,2,1,20,0,1
66120,-100,4,2,1,20,0,0
126120,-100,4,2,1,20,0,1
138120,-100,4,2,1,20,0,0

[HitObjects]
64,192,120,5,0,0:0:0:0:
448,192,120,1,0,0:0:0:0:
448,192,1620,1,0,0:0:0:0:
192,192,3120,1,0,0:0:0:0:
320,192,4620,1,0,0:0:0:0:
448,192,6120,1,0,0:0:0:0:
64,192,6120,128,0,6495:0:0:0:0:
64,192,6870,128,0,7245:0:0:0:0:
320,192,7620,128,0,8370:0:0:0:0:
448,192,7620,1,0,0:0:0:0:
192,192,8370,128,0,8745:0:0:0:0:
320,192,9120,1,0,0:0:0:0:
64,192,9120,128,0,9495:0:0:0:0:
448,192,9870,128,0,10245:0:0:0:0:
320,192,10245,128,0,10620:0:0:0:0:
192,192,10620,128,0,10995:0:0:0:0:
64,192,10620,1,0,0:0:0:0:
448,192,12120,1,0,0:0:0:0:
64,192,12120,128,0,12495:0:0:0:0:
64,192,12870,128,0,13245:0:0:0:0:
320,192,13620,128,0,14370:0:0:0:0:
448,192,13620,1,0,0:0:0:0:
192,192,14370,128,0,14745:0:0:0:0:
320,192,15120,128,0,15495:0:0:0:0:
64,192,15120,1,0,0:0:0:0:
192,192,15870,128,0,16245:0:0:0:0:
448,192,16245,128,0,16620:0:0:0:0:
320,192,16620,128,0,16995:0:0:0:0:
64,192,16620,1,0,0:0:0:0:
64,192,18120,1,0,0:0:0:0:
448,192,18307,128,0,18495:0:0:0:0:
192,192,18682,1,0,0:0:0:0:
64,192,18870,1,0,0:0:0:0:
320,192,19057,1,0,0:0:0:0:
192,192,19245,1,0,0:0:0:0:
448,192,19620,1,0,0:0:0:0:
192,192,19807,1,0,0:0:0:0:
448,192,19995,1,0,0:0:0:0:
64,192,20182,1,0,0:0:0:0:
320,192,20370,1,0,0:0:0:0:
64,192,21120,1,0,0:0:0:0:
448,192,21307,128,0,21495:0:0:0:0:
192,192,21682,1,0,0:0:0:0:
64,192,21870,1,0,0:0:0:0:
320,192,22057,1,0,0:0:0:0:
192,192,22245,1,0,0:0:0:0:
448,192,22620,1,0,0:0:0:0:
192,192,22807,1,0,0:0:0:0:
448,192,22995,1,0,0:0:0:0:
64,192,23182,1,0,0:0:0:0:
320,192,23370,1,0,0:0:0:0:
64,192,24120,1,0,0:0:0:0:
320,192,24307,128,0,24682:0:0:0:0:
192,192,24682,1,0,0:0:0:0:
448,192,24870,128,0,25057:0:0:0:0:
192,192,25245,128,0,25620:0:0:0:0:
320,192,25620,1,0,0:0:0:0:
320,192,25995,128,0,26370:0:0:0:0:
448,192,26370,128,0,26745:0:0:0:0:
320,192,26745,128,0,26932:0:0:0:0:
192,192,26932,128,0,27120:0:0:0:0:
64,192,27120,128,0,27307:0:0:0:0:
192,192,27682,1,0,0:0:0:0:
448,192,27870,1,0,0:0:0:0:
320,192,28245,128,0,28432:0:0:0:0:
320,192,28620,1,0,0:0:0:0:
192,192,28995,1,0,0:0:0:0:
64,192,29370,1,0,0:0:0:0:
320,192,29557,1,0,0:0:0:0:
192,192,29745,1,0,0:0:0:0:
448,192,29932,1,0,0:0:0:0:
64,192,30120,1,0,0:0:0:0:
192,192,30120,1,0,0:0:0:0:
448,192,30495,1,0,0:0:0:0:
192,192,30495,1,0,0:0:0:0:
64,192,30870,1,0,0:0:0:0:
320,192,30870,1,0,0:0:0:0:
448,192,31245,1,0,0:0:0:0:
320,192,31245,1,0,0:0:0:0:
64,192,31620,1,0,0:0:0:0:
320,192,32182,1,0,0:0:0:0:
192,192,32557,1,0,0:0:0:0:
448,192,32745,1,0,0:0:0:0:
320,192,32932,1,0,0:0:0:0:
192,192,33120,1,0,0:0:0:0:
64,192,33120,1,0,0:0:0:0:
192,192,33495,1,0,0:0:0:0:
448,192,33495,1,0,0:0:0:0:
64,192,33870,1,0,0:0:0:0:
320,192,33870,1,0,0:0:0:0:
320,192,34245,1,0,0:0:0:0:
448,192,34245,1,0,0:0:0:0:
64,192,34620,1,0,0:0:0:0:
192,192,34807,128,0,35182:0:0:0:0:
320,192,35182,1,0,0:0:0:0:
192,192,35745,1,0,0:0:0:0:
64,192,35932,1,0,0:0:0:0:
320,192,36120,1,0,0:0:0:0:
448,192,36120,1,0,0:0:0:0:
64,192,36495,1,0,0:0:0:0:
320,192,36495,1,0,0:0:0:0:
192,192,36870,1,0,0:0:0:0:
448,192,36870,1,0,0:0:0:0:
192,192,37245,1,0,0:0:0:0:
64,192,37245,1,0,0:0:0:0:
448,192,37620,1,0,0:0:0:0:
192,192,38182,1,0,0:0:0:0:
320,192,38557,1,0,0:0:0:0:
64,192,38745,1,0,0:0:0:0:
192,192,38932,1,0,0:0:0:0:
448,192,39120,1,0,0:0:0:0:
64,192,39307,1,0,0:0:0:0:
320,192,39495,1,0,0:0:0:0:
192,192,39682,1,0,0:0:0:0:
448,192,39870,1,0,0:0:0:0:
64,192,40057,1,0,0:0:0:0:
320,192,40245,1,0,0:0:0:0:
192,192,40432,1,0,0:0:0:0:
448,192,40620,1,0,0:0:0:0:
320,192,40807,128,0,41182:0:0:0:0:
192,192,41182,128,0,41370:0:0:0:0:
192,192,42120,1,0,0:0:0:0:
64,192,42120,1,0,0:0:0:0:
448,192,42307,1,0,0:0:0:0:
192,192,42401,1,0,0:0:0:0:
320,192,42495,1,0,0:0:0:0:
320,192,42682,1,0,0:0:0:0:
64,192,42870,1,0,0:0:0:0:
320,192,42963,1,0,0:0:0:0:
192,192,43057,1,0,0:0:0:0:
64,192,43245,1,0,0:0:0:0:
448,192,43620,1,0,0:0:0:0:
320,192,43620,1,0,0:0:0:0:
64,192,43807,1,0,0:0:0:0:
320,192,43901,1,0,0:0:0:0:
448,192,43995,1,0,0:0:0:0:
192,192,44182,1,0,0:0:0:0:
448,192,44370,1,0,0:0:0:0:
64,192,44463,1,0,0:0:0:0:
320,192,44557,1,0,0:0:0:0:
192,192,44745,1,0,0:0:0:0:
192,192,45120,1,0,0:0:0:0:
64,192,45120,1,0,0:0:0:0:
448,192,45307,1,0,0:0:0:0:
64,192,45401,1,0,0:0:0:0:
192,192,45495,1,0,0:0:0:0:
320,192,45682,1,0,0:0:0:0:
64,192,45870,1,0,0:0:0:0:
448,192,45963,1,0,0:0:0:0:
320,192,46057,1,0,0:0:0:0:
192,192,46245,128,0,46432:0:0:0:0:
448,192,46620,1,0,0:0:0:0:
320,192,46620,128,0,46807:0:0:0:0:
64,192,46807,128,0,46995:0:0:0:0:
320,192,46995,128,0,47182:0:0:0:0:
64,192,47182,1,0,0:0:0:0:
448,192,47370,128,0,47557:0:0:0:0:
192,192,47557,128,0,47745:0:0:0:0:
448,192,47745,1,0,0:0:0:0:
192,192,48120,1,0,0:0:0:0:
64,192,48120,1,0,0:0:0:0:
320,192,48307,1,0,0:0:0:0:
64,192,48401,1,0,0:0:0:0:
448,192,48495,1,0,0:0:0:0:
448,192,48682,1,0,0:0:0:0:
192,192,48870,1,0,0:0:0:0:
448,192,48963,1,0,0:0:0:0:
64,192,49057,1,0,0:0:0:0:
192,192,49245,1,0,0:0:0:0:
448,192,49620,1,0,0:0:0:0:
320,192,49620,128,0,49807:0:0:0:0:
64,192,49807,128,0,49995:0:0:0:0:
192,192,49995,128,0,50182:0:0:0:0:
448,192,49995,1,0,0:0:0:0:
320,192,50182,1,0,0:0:0:0:
448,192,50370,128,0,50557:0:0:0:0:
320,192,50557,128,0,50745:0:0:0:0:
192,192,50745,128,0,51120:0:0:0:0:
64,192,50745,1,0,0:0:0:0:
320,192,51120,1,0,0:0:0:0:
448,192,51120,1,0,0:0:0:0:
64,192,51307,1,0,0:0:0:0:
320,192,51495,1,0,0:0:0:0:
448,192,51682,1,0,0:0:0:0:
192,192,51870,1,0,0:0:0:0:
320,192,52057,1,0,0:0:0:0:
64,192,52245,1,0,0:0:0:0:
64,192,52620,1,0,0:0:0:0:
448,192,52620,1,0,0:0:0:0:
192,192,52807,1,0,0:0:0:0:
320,192,52995,1,0,0:0:0:0:
64,192,53182,1,0,0:0:0:0:
448,192,53370,1,0,0:0:0:0:
192,192,53557,1,0,0:0:0:0:
320,192,53745,128,0,54120:0:0:0:0:
448,192,54120,1,0,0:0:0:0:
64,192,54120,128,0,54307:0:0:0:0:
192,192,54495,128,0,54682:0:0:0:0:
448,192,54495,1,0,0:0:0:0:
64,192,54682,1,0,0:0:0:0:
320,192,54870,128,0,55057:0:0:0:0:
448,192,55057,1,0,0:0:0:0:
320,192,55245,1,0,0:0:0:0:
192,192,55338,1,0,0:0:0:0:
448,192,55432,128,0,55620:0:0:0:0:
64,192,55620,1,0,0:0:0:0:
192,192,55807,128,0,55995:0:0:0:0:
448,192,55995,128,0,56182:0:0:0:0:
320,192,55995,1,0,0:0:0:0:
192,192,56182,128,0,56370:0:0:0:0:
64,192,56182,1,0,0:0:0:0:
320,192,56370,128,0,56557:0:0:0:0:
64,192,56557,1,0,0:0:0:0:
192,192,56745,128,0,57120:0:0:0:0:
448,192,56745,1,0,0:0:0:0:
64,192,57120,128,0,57307:0:0:0:0:
320,192,57120,1,0,0:0:0:0:
192,192,57495,128,0,57682:0:0:0:0:
448,192,57495,1,0,0:0:0:0:
64,192,57682,1,0,0:0:0:0:
320,192,57870,128,0,58057:0:0:0:0:
448,192,58057,1,0,0:0:0:0:
320,192,58245,1,0,0:0:0:0:
192,192,58338,1,0,0:0:0:0:
448,192,58432,128,0,58620:0:0:0:0:
64,192,58620,1,0,0:0:0:0:
192,192,58807,128,0,58995:0:0:0:0:
64,192,58995,128,0,59182:0:0:0:0:
448,192,58995,1,0,0:0:0:0:
320,192,59182,128,0,59370:0:0:0:0:
192,192,59182,1,0,0:0:0:0:
448,192,59370,128,0,59557:0:0:0:0:
320,192,59557,128,0,59745:0:0:0:0:
64,192,59557,1,0,0:0:0:0:
192,192,59745,128,0,59932:0:0:0:0:
448,192,59745,1,0,0:0:0:0:
64,192,59932,128,0,60120:0:0:0:0:
320,192,60120,1,0,0:0:0:0:
448,192,60120,128,0,60307:0:0:0:0:
320,192,60495,128,0,60682:0:0:0:0:
64,192,60495,1,0,0:0:0:0:
448,192,60682,1,0,0:0:0:0:
192,192,60870,128,0,61057:0:0:0:0:
64,192,61057,1,0,0:0:0:0:
192,192,61245,1,0,0:0:0:0:
320,192,61338,1,0,0:0:0:0:
64,192,61432,128,0,61620:0:0:0:0:
448,192,61620,1,0,0:0:0:0:
320,192,61807,128,0,61995:0:0:0:0:
64,192,61995,128,0,62182:0:0:0:0:
192,192,61995,1,0,0:0:0:0:
320,192,62182,128,0,62370:0:0:0:0:
448,192,62182,1,0,0:0:0:0:
192,192,62370,128,0,62557:0:0:0:0:
448,192,62557,1,0,0:0:0:0:
320,192,62745,128,0,63120:0:0:0:0:
64,192,62745,1,0,0:0:0:0:
448,192,63120,128,0,63307:0:0:0:0:
192,192,63120,1,0,0:0:0:0:
320,192,63495,128,0,63682:0:0:0:0:
64,192,63495,1,0,0:0:0:0:
448,192,63682,1,0,0:0:0:0:
192,192,63870,128,0,64057:0:0:0:0:
64,192,64057,1,0,0:0:0:0:
192,192,64245,1,0,0:0:0:0:
320,192,64338,1,0,0:0:0:0:
64,192,64432,128,0,64620:0:0:0:0:
448,192,64620,1,0,0:0:0:0:
320,192,64807,128,0,64995:0:0:0:0:
448,192,64995,128,0,65182:0:0:0:0:
64,192,64995,1,0,0:0:0:0:
192,192,65182,128,0,65370:0:0:0:0:
320,192,65370,128,0,65557:0:0:0:0:
64,192,65557,128,0,65745:0:0:0:0:
192,192,65745,128,0,65932:0:0:0:0:
448,192,65745,1,0,0:0:0:0:
320,192,65932,128,0,66120:0:0:0:0:
64,192,66120,1,0,0:0:0:0:
448,192,66120,1,0,0:0:0:0:
64,192,66307,1,0,0:0:0:0:
320,192,66495,1,0,0:0:0:0:
448,192,66495,1,0,0:0:0:0:
320,192,66682,1,0,0:0:0:0:
192,192,66870,128,0,67057:0:0:0:0:
64,192,66870,1,0,0:0:0:0:
448,192,67057,1,0,0:0:0:0:
320,192,67245,128,0,67620:0:0:0:0:
64,192,67245,1,0,0:0:0:0:
192,192,67432,1,0,0:0:0:0:
448,192,67620,128,0,68182:0:0:0:0:
64,192,67620,1,0,0:0:0:0:
192,192,67807,1,0,0:0:0:0:
320,192,67995,1,0,0:0:0:0:
192,192,68182,1,0,0:0:0:0:
64,192,68370,128,0,68745:0:0:0:0:
448,192,68370,1,0,0:0:0:0:
320,192,68557,1,0,0:0:0:0:
192,192,68745,1,0,0:0:0:0:
64,192,68932,1,0,0:0:0:0:
320,192,69120,128,0,69870:0:0:0:0:
448,192,69120,1,0,0:0:0:0:
192,192,69307,1,0,0:0:0:0:
64,192,69495,1,0,0:0:0:0:
448,192,69682,1,0,0:0:0:0:
192,192,69870,128,0,70245:0:0:0:0:
64,192,69870,1,0,0:0:0:0:
320,192,70057,1,0,0:0:0:0:
448,192,70245,128,0,70620:0:0:0:0:
64,192,70245,1,0,0:0:0:0:
192,192,70432,1,0,0:0:0:0:
320,192,70620,128,0,70995:0:0:0:0:
64,192,70620,1,0,0:0:0:0:
448,192,70807,1,0,0:0:0:0:
192,192,70995,1,0,0:0:0:0:
64,192,71182,1,0,0:0:0:0:
320,192,71370,1,0,0:0:0:0:
320,192,71557,1,0,0:0:0:0:
64,192,71745,1,0,0:0:0:0:
192,192,71932,1,0,0:0:0:0:
448,192,72120,1,0,0:0:0:0:
320,192,72120,1,0,0:0:0:0:
448,192,72307,1,0,0:0:0:0:
192,192,72495,1,0,0:0:0:0:
64,192,72495,1,0,0:0:0:0:
192,192,72682,1,0,0:0:0:0:
320,192,72870,128,0,73057:0:0:0:0:
64,192,72870,1,0,0:0:0:0:
192,192,73057,1,0,0:0:0:0:
192,192,73245,128,0,73620:0:0:0:0:
448,192,73245,1,0,0:0:0:0:
64,192,73245,1,0,0:0:0:0:
320,192,73432,1,0,0:0:0:0:
64,192,73620,128,0,74182:0:0:0:0:
448,192,73620,1,0,0:0:0:0:
320,192,73807,1,0,0:0:0:0:
192,192,73995,1,0,0:0:0:0:
320,192,74182,1,0,0:0:0:0:
448,192,74370,128,0,74745:0:0:0:0:
64,192,74370,1,0,0:0:0:0:
192,192,74557,1,0,0:0:0:0:
320,192,74745,1,0,0:0:0:0:
448,192,74932,1,0,0:0:0:0:
192,192,75120,128,0,75870:0:0:0:0:
64,192,75120,1,0,0:0:0:0:
448,192,75307,1,0,0:0:0:0:
320,192,75495,1,0,0:0:0:0:
64,192,75682,1,0,0:0:0:0:
320,192,75870,128,0,76245:0:0:0:0:
448,192,75870,1,0,0:0:0:0:
192,192,76057,1,0,0:0:0:0:
64,192,76245,128,0,76620:0:0:0:0:
448,192,76245,1,0,0:0:0:0:
320,192,76432,1,0,0:0:0:0:
192,192,76620,128,0,76995:0:0:0:0:
448,192,76620,1,0,0:0:0:0:
320,192,76807,1,0,0:0:0:0:
64,192,76995,1,0,0:0:0:0:
320,192,77182,1,0,0:0:0:0:
192,192,77370,1,0,0:0:0:0:
192,192,77557,1,0,0:0:0:0:
448,192,77745,1,0,0:0:0:0:
64,192,77932,1,0,0:0:0:0:
320,192,78120,1,0,0:0:0:0:
448,192,78307,128,0,78495:0:0:0:0:
192,192,78682,1,0,0:0:0:0:
64,192,78870,1,0,0:0:0:0:
320,192,79057,1,0,0:0:0:0:
192,192,79245,1,0,0:0:0:0:
320,192,79620,1,0,0:0:0:0:
64,192,79807,1,0,0:0:0:0:
448,192,79995,1,0,0:0:0:0:
64,192,80182,1,0,0:0:0:0:
320,192,80370,1,0,0:0:0:0:
192,192,81307,1,0,0:0:0:0:
448,192,81495,1,0,0:0:0:0:
320,192,81682,1,0,0:0:0:0:
64,192,81870,1,0,0:0:0:0:
192,192,82057,1,0,0:0:0:0:
320,192,82245,1,0,0:0:0:0:
192,192,82620,1,0,0:0:0:0:
64,192,82807,1,0,0:0:0:0:
320,192,82995,1,0,0:0:0:0:
448,192,83182,1,0,0:0:0:0:
192,192,83370,1,0,0:0:0:0:
64,192,84120,1,0,0:0:0:0:
448,192,84307,128,0,84682:0:0:0:0:
192,192,84682,1,0,0:0:0:0:
64,192,84870,1,0,0:0:0:0:
320,192,85245,128,0,85620:0:0:0:0:
192,192,85620,1,0,0:0:0:0:
64,192,85995,128,0,86370:0:0:0:0:
192,192,86370,128,0,86745:0:0:0:0:
320,192,86745,128,0,87120:0:0:0:0:
448,192,87120,128,0,87307:0:0:0:0:
192,192,87682,1,0,0:0:0:0:
64,192,87776,1,0,0:0:0:0:
320,192,87870,1,0,0:0:0:0:
192,192,88245,1,0,0:0:0:0:
448,192,88620,128,0,88995:0:0:0:0:
320,192,88995,128,0,89370:0:0:0:0:
192,192,89370,128,0,89557:0:0:0:0:
64,192,89557,1,0,0:0:0:0:
320,192,89745,1,0,0:0:0:0:
192,192,89932,1,0,0:0:0:0:
64,192,90120,1,0,0:0:0:0:
448,192,90120,1,0,0:0:0:0:
192,192,90495,1,0,0:0:0:0:
448,192,90495,1,0,0:0:0:0:
320,192,90870,1,0,0:0:0:0:
64,192,91151,1,0,0:0:0:0:
320,192,91245,1,0,0:0:0:0:
448,192,91245,1,0,0:0:0:0:
192,192,91432,1,0,0:0:0:0:
64,192,91620,1,0,0:0:0:0:
64,192,91995,1,0,0:0:0:0:
320,192,91995,1,0,0:0:0:0:
448,192,92276,1,0,0:0:0:0:
192,192,92370,1,0,0:0:0:0:
320,192,92651,1,0,0:0:0:0:
192,192,92745,1,0,0:0:0:0:
64,192,92745,1,0,0:0:0:0:
448,192,92932,1,0,0:0:0:0:
320,192,93120,1,0,0:0:0:0:
192,192,93495,1,0,0:0:0:0:
448,192,93495,1,0,0:0:0:0:
64,192,93870,1,0,0:0:0:0:
192,192,94151,1,0,0:0:0:0:
320,192,94245,1,0,0:0:0:0:
448,192,94245,1,0,0:0:0:0:
64,192,94432,1,0,0:0:0:0:
448,192,94620,1,0,0:0:0:0:
320,192,94995,1,0,0:0:0:0:
64,192,94995,1,0,0:0:0:0:
448,192,95276,1,0,0:0:0:0:
192,192,95370,1,0,0:0:0:0:
320,192,95651,1,0,0:0:0:0:
192,192,95745,1,0,0:0:0:0:
64,192,95745,1,0,0:0:0:0:
320,192,95932,1,0,0:0:0:0:
448,192,96120,1,0,0:0:0:0:
64,192,96120,1,0,0:0:0:0:
192,192,96495,1,0,0:0:0:0:
320,192,96495,1,0,0:0:0:0:
64,192,96870,1,0,0:0:0:0:
192,192,96870,1,0,0:0:0:0:
448,192,97245,1,0,0:0:0:0:
320,192,97245,1,0,0:0:0:0:
64,192,97620,1,0,0:0:0:0:
192,192,97807,1,0,0:0:0:0:
320,192,97995,1,0,0:0:0:0:
448,192,98182,1,0,0:0:0:0:
64,192,98557,1,0,0:0:0:0:
448,192,98745,1,0,0:0:0:0:
192,192,98932,1,0,0:0:0:0:
64,192,99120,1,0,0:0:0:0:
448,192,99120,1,0,0:0:0:0:
320,192,99307,1,0,0:0:0:0:
64,192,99495,1,0,0:0:0:0:
448,192,99682,1,0,0:0:0:0:
192,192,99870,1,0,0:0:0:0:
448,192,100057,1,0,0:0:0:0:
64,192,100245,1,0,0:0:0:0:
320,192,100432,1,0,0:0:0:0:
64,192,100620,1,0,0:0:0:0:
192,192,100901,1,0,0:0:0:0:
320,192,101182,1,0,0:0:0:0:
448,192,101463,1,0,0:0:0:0:
192,192,101745,128,0,102120:0:0:0:0:
320,192,102120,1,0,0:0:0:0:
448,192,102495,1,0,0:0:0:0:
64,192,102870,1,0,0:0:0:0:
320,192,103245,1,0,0:0:0:0:
448,192,103338,1,0,0:0:0:0:
192,192,103432,1,0,0:0:0:0:
320,192,103807,1,0,0:0:0:0:
64,192,103995,1,0,0:0:0:0:
320,192,104182,1,0,0:0:0:0:
64,192,104370,1,0,0:0:0:0:
192,192,104745,1,0,0:0:0:0:
320,192,105120,1,0,0:0:0:0:
448,192,105495,1,0,0:0:0:0:
64,192,105870,1,0,0:0:0:0:
320,192,106245,1,0,0:0:0:0:
448,192,106338,1,0,0:0:0:0:
192,192,106432,1,0,0:0:0:0:
320,192,106807,1,0,0:0:0:0:
64,192,106995,1,0,0:0:0:0:
320,192,107182,1,0,0:0:0:0:
448,192,107370,1,0,0:0:0:0:
192,192,107557,1,0,0:0:0:0:
64,192,107745,1,0,0:0:0:0:
320,192,107932,1,0,0:0:0:0:
192,192,108120,1,0,0:0:0:0:
448,192,108495,1,0,0:0:0:0:
320,192,108495,1,0,0:0:0:0:
64,192,108870,1,0,0:0:0:0:
320,192,109245,1,0,0:0:0:0:
64,192,109245,1,0,0:0:0:0:
448,192,109338,1,0,0:0:0:0:
192,192,109432,1,0,0:0:0:0:
320,192,109807,1,0,0:0:0:0:
64,192,109995,1,0,0:0:0:0:
192,192,109995,1,0,0:0:0:0:
320,192,110182,1,0,0:0:0:0:
64,192,110370,1,0,0:0:0:0:
192,192,110745,1,0,0:0:0:0:
448,192,110745,1,0,0:0:0:0:
320,192,111120,1,0,0:0:0:0:
448,192,111495,1,0,0:0:0:0:
192,192,111495,1,0,0:0:0:0:
64,192,111870,1,0,0:0:0:0:
320,192,112245,1,0,0:0:0:0:
64,192,112245,1,0,0:0:0:0:
448,192,112338,1,0,0:0:0:0:
192,192,112432,1,0,0:0:0:0:
320,192,112620,1,0,0:0:0:0:
64,192,112807,1,0,0:0:0:0:
448,192,112995,1,0,0:0:0:0:
192,192,113182,1,0,0:0:0:0:
320,192,113370,1,0,0:0:0:0:
64,192,113557,1,0,0:0:0:0:
192,192,113745,128,0,114120:0:0:0:0:
448,192,114120,1,0,0:0:0:0:
320,192,114120,1,0,0:0:0:0:
64,192,114495,1,0,0:0:0:0:
448,192,114495,1,0,0:0:0:0:
192,192,114682,1,0,0:0:0:0:
320,192,114870,1,0,0:0:0:0:
64,192,115057,1,0,0:0:0:0:
192,192,115245,1,0,0:0:0:0:
448,192,115245,1,0,0:0:0:0:
192,192,115620,1,0,0:0:0:0:
192,192,115901,1,0,0:0:0:0:
320,192,115995,1,0,0:0:0:0:
448,192,115995,1,0,0:0:0:0:
64,192,116182,1,0,0:0:0:0:
320,192,116370,1,0,0:0:0:0:
192,192,116557,1,0,0:0:0:0:
64,192,116745,1,0,0:0:0:0:
448,192,116745,1,0,0:0:0:0:
192,192,117120,1,0,0:0:0:0:
64,192,117495,1,0,0:0:0:0:
448,192,117495,1,0,0:0:0:0:
320,192,117682,1,0,0:0:0:0:
192,192,117870,1,0,0:0:0:0:
448,192,118057,1,0,0:0:0:0:
320,192,118245,1,0,0:0:0:0:
64,192,118245,1,0,0:0:0:0:
320,192,118620,1,0,0:0:0:0:
320,192,118901,1,0,0:0:0:0:
192,192,118995,1,0,0:0:0:0:
64,192,118995,1,0,0:0:0:0:
448,192,119182,1,0,0:0:0:0:
192,192,119370,1,0,0:0:0:0:
320,192,119557,1,0,0:0:0:0:
64,192,119745,1,0,0:0:0:0:
448,192,119745,1,0,0:0:0:0:
192,192,119932,1,0,0:0:0:0:
320,192,120120,1,0,0:0:0:0:
448,192,120120,1,0,0:0:0:0:
64,192,120495,1,0,0:0:0:0:
320,192,120495,1,0,0:0:0:0:
448,192,120682,1,0,0:0:0:0:
192,192,120870,1,0,0:0:0:0:
320,192,121057,1,0,0:0:0:0:
64,192,121245,1,0,0:0:0:0:
448,192,121245,1,0,0:0:0:0:
192,192,121620,1,0,0:0:0:0:
192,192,121901,1,0,0:0:0:0:
320,192,121995,1,0,0:0:0:0:
448,192,121995,1,0,0:0:0:0:
64,192,122182,1,0,0:0:0:0:
448,192,122370,1,0,0:0:0:0:
192,192,122557,1,0,0:0:0:0:
64,192,122745,1,0,0:0:0:0:
320,192,122745,1,0,0:0:0:0:
320,192,123120,1,0,0:0:0:0:
192,192,123495,1,0,0:0:0:0:
448,192,123495,1,0,0:0:0:0:
64,192,123682,1,0,0:0:0:0:
320,192,123870,1,0,0:0:0:0:
192,192,124057,1,0,0:0:0:0:
64,192,124245,1,0,0:0:0:0:
448,192,124245,1,0,0:0:0:0:
320,192,124620,1,0,0:0:0:0:
320,192,124901,1,0,0:0:0:0:
192,192,124995,1,0,0:0:0:0:
64,192,124995,1,0,0:0:0:0:
448,192,125182,1,0,0:0:0:0:
192,192,125370,1,0,0:0:0:0:
320,192,125557,1,0,0:0:0:0:
64,192,125745,1,0,0:0:0:0:
448,192,125745,1,0,0:0:0:0:
320,192,125932,1,0,0:0:0:0:
192,192,126120,1,0,0:0:0:0:
64,192,126120,128,0,126307:0:0:0:0:
192,192,126495,128,0,126682:0:0:0:0:
448,192,126495,1,0,0:0:0:0:
64,192,126682,1,0,0:0:0:0:
320,192,126870,128,0,127057:0:0:0:0:
64,192,127057,1,0,0:0:0:0:
448,192,127245,128,0,127620:0:0:0:0:
192,192,127245,1,0,0:0:0:0:
320,192,127432,128,0,127620:0:0:0:0:
64,192,127620,1,0,0:0:0:0:
192,192,127807,128,0,127995:0:0:0:0:
64,192,127995,128,0,128182:0:0:0:0:
320,192,127995,1,0,0:0:0:0:
448,192,128182,128,0,128370:0:0:0:0:
192,192,128182,1,0,0:0:0:0:
320,192,128370,128,0,128557:0:0:0:0:
192,192,128557,1,0,0:0:0:0:
64,192,128745,1,0,0:0:0:0:
448,192,128745,128,0,129120:0:0:0:0:
64,192,129120,128,0,129307:0:0:0:0:
320,192,129120,1,0,0:0:0:0:
192,192,129495,128,0,129682:0:0:0:0:
448,192,129495,1,0,0:0:0:0:
64,192,129682,1,0,0:0:0:0:
320,192,129870,128,0,130057:0:0:0:0:
64,192,130057,1,0,0:0:0:0:
448,192,130245,128,0,130620:0:0:0:0:
192,192,130245,1,0,0:0:0:0:
320,192,130432,128,0,130620:0:0:0:0:
64,192,130620,1,0,0:0:0:0:
192,192,130807,128,0,130995:0:0:0:0:
64,192,130995,128,0,131182:0:0:0:0:
448,192,130995,1,0,0:0:0:0:
320,192,131182,128,0,131370:0:0:0:0:
192,192,131182,1,0,0:0:0:0:
448,192,131370,128,0,131557:0:0:0:0:
192,192,131557,128,0,131745:0:0:0:0:
320,192,131557,1,0,0:0:0:0:
64,192,131745,128,0,131932:0:0:0:0:
448,192,131745,1,0,0:0:0:0:
320,192,131932,128,0,132120:0:0:0:0:
192,192,132120,1,0,0:0:0:0:
448,192,132120,128,0,132307:0:0:0:0:
320,192,132495,128,0,132682:0:0:0:0:
64,192,132495,1,0,0:0:0:0:
448,192,132682,1,0,0:0:0:0:
192,192,132870,128,0,133057:0:0:0:0:
448,192,133057,1,0,0:0:0:0:
64,192,133245,128,0,133620:0:0:0:0:
320,192,133245,1,0,0:0:0:0:
192,192,133432,128,0,133620:0:0:0:0:
448,192,133620,1,0,0:0:0:0:
320,192,133807,128,0,133995:0:0:0:0:
448,192,133995,128,0,134182:0:0:0:0:
192,192,133995,1,0,0:0:0:0:
64,192,134182,128,0,134370:0:0:0:0:
320,192,134182,1,0,0:0:0:0:
192,192,134370,128,0,134557:0:0:0:0:
320,192,134557,1,0,0:0:0:0:
448,192,134745,1,0,0:0:0:0:
64,192,134745,128,0,135120:0:0:0:0:
448,192,135120,128,0,135307:0:0:0:0:
192,192,135120,1,0,0:0:0:0:
320,192,135495,128,0,135682:0:0:0:0:
64,192,135495,1,0,0:0:0:0:
448,192,135682,1,0,0:0:0:0:
192,192,135870,128,0,136057:0:0:0:0:
448,192,136057,1,0,0:0:0:0:
64,192,136245,128,0,136620:0:0:0:0:
320,192,136245,1,0,0:0:0:0:
192,192,136432,128,0,136620:0:0:0:0:
448,192,136620,1,0,0:0:0:0:
320,192,136807,128,0,136995:0:0:0:0:
448,192,136995,128,0,137182:0:0:0:0:
64,192,136995,1,0,0:0:0:0:
192,192,137182,128,0,137370:0:0:0:0:
320,192,137182,1,0,0:0:0:0:
64,192,137370,128,0,137557:0:0:0:0:
320,192,137557,128,0,137745:0:0:0:0:
192,192,137557,1,0,0:0:0:0:
448,192,137745,128,0,137932:0:0:0:0:
64,192,137745,1,0,0:0:0:0:
192,192,137932,128,0,138120:0:0:0:0:
320,192,138120,128,0,138870:0:0:0:0:
