osu file format v14

[General]
AudioFilename: yousa - bhsjdgj.mp3
AudioLeadIn: 0
PreviewTime: 2175
Countdown: 0
SampleSet: Soft
StackLeniency: 0.7
Mode: 0
LetterboxInBreaks: 0
WidescreenStoryboard: 0

[Editor]
DistanceSpacing: 1.2
BeatDivisor: 4
GridSize: 4
TimelineZoom: 2.600003

[Metadata]
Title:Beng Huai Shi Jie De Ge Ji Chinese Ver
TitleUnicode:崩坏世界的歌姬Chinese Ver
Artist:Ling Yuan yousa
ArtistUnicode:泠鸢yousa
Creator:Lily Bread
Version:Singer
Source:
Tags:DreaM117er 填词集 初音ミク hatsune miku 崩坏学园 蔡近翰 rock 崩壊世界の歌姫 郑小宇 夏轶瀚
BeatmapID:878109
BeatmapSetID:402206

[Difficulty]
HPDrainRate:7
CircleSize:4.3
OverallDifficulty:7.8
ApproachRate:9
SliderMultiplier:2
SliderTickRate:1

[Events]
//Background and Video events
0,0,"BG.jpg",0,0
//Break Periods
//Storyboard Layer 0 (Background)
//Storyboard Layer 1 (Fail)
//Storyboard Layer 2 (Pass)
//Storyboard Layer 3 (Foreground)
//Storyboard Sound Samples

[TimingPoints]
3113,375,4,2,2,15,1,0
3113,-200,4,2,2,15,0,0
15113,-100,4,2,1,60,0,0
27113,-100,4,3,1,60,0,0
30113,-111.111111111111,4,2,2,30,0,0
36113,-111.111111111111,4,2,2,40,0,0
42113,-100,4,3,1,35,0,0
46613,-100,4,2,2,35,0,0
47644,-100,4,3,1,35,0,0
52519,-100,4,2,2,35,0,0
53363,-100,4,2,2,45,0,0
54113,-111.111111111111,4,2,2,45,0,0
63113,-100,4,3,1,50,0,0
65363,-117.647058823529,4,3,1,50,0,0
65644,-100,4,3,1,50,0,0
66113,-80,4,2,3,70,0,1
76613,-100,4,2,3,80,0,1
77738,-200,4,2,3,80,0,1
78019,-100,4,2,3,20,0,1
78113,-80,4,2,3,80,0,1
84113,-80,4,2,3,70,0,1
84206,-80,4,3,1,70,0,1
85238,-80,4,2,3,70,0,1
85331,-80,4,3,1,70,0,1
85425,-80,4,2,3,70,0,1
85613,-80,4,3,1,70,0,1
87113,-80,4,2,3,70,0,1
90113,-100,4,2,3,70,0,0

[Colours]
Combo1 : 79,167,255
Combo2 : 177,100,255
Combo3 : 255,147,255

[HitObjects]
256,92,3113,5,4,0:0:0:0:
256,192,4238,1,0,0:0:0:0:
256,192,4613,6,0,L|256:240,1,25,2|0,0:0|0:0,0:0:0:0:
256,292,6113,5,2,0:0:0:0:
152,192,7613,5,2,0:0:0:0:
424,128,9113,6,0,P|428:312|280:352,1,350,2|0,0:0|0:0,0:0:0:0:
216,316,10613,6,0,P|212:132|360:92,1,350,2|0,0:0|0:0,0:0:0:0:
256,192,12113,12,4,13613,0:0:0:0:
84,192,15113,5,4,0:0:0:0:
84,192,15488,1,8,0:0:0:0:
172,96,15675,1,0,0:0:0:0:
256,200,15863,1,0,0:0:0:0:
256,232,15956,1,8,0:0:0:0:
256,264,16050,1,0,0:0:0:0:
384,192,16238,2,0,P|376:148|332:104,1,100,8|0,0:0|0:0,0:0:0:0:
256,264,16613,6,0,P|216:300|152:328,1,100,0|0,0:0|0:0,0:0:0:0:
84,192,16988,2,0,P|136:180|208:192,1,100,8|0,0:0|0:0,0:0:0:0:
332,296,17363,1,0,0:0:0:0:
364,296,17456,1,8,0:0:0:0:
396,296,17550,1,0,0:0:0:0:
480,136,17738,2,0,P|456:84|424:56,1,100,8|0,0:0|0:0,0:0:0:0:
256,88,18113,5,2,0:0:0:0:
256,88,18488,1,8,0:0:0:0:
256,88,18675,2,0,P|212:132|160:136,1,100,0|0,0:0|0:0,0:0:0:0:
144,152,18956,1,8,0:0:0:0:
144,152,19050,1,0,0:0:0:0:
114,311,19238,2,0,P|162:319|208:300,1,100,8|0,0:0|0:0,0:0:0:0:
320,176,19613,6,0,P|360:212|376:276,1,100
160,228,19988,2,0,P|108:232|48:228,1,100,8|0,0:0|0:0,0:0:0:0:
100,88,20363,1,0,0:0:0:0:
128,72,20456,1,8,0:0:0:0:
160,68,20550,1,0,0:0:0:0:
296,72,20738,2,0,P|341:71|399:42,1,100,8|0,0:0|0:0,0:0:0:0:
424,48,21019,1,0,0:0:0:0:
424,48,21113,6,0,P|440:152|424:264,1,200,4|8,0:0|0:0,0:0:0:0:
292,352,21675,1,0,0:0:0:0:
312,208,21863,1,0,0:0:0:0:
280,216,21956,1,8,0:0:0:0:
248,228,22050,1,0,0:0:0:0:
93,321,22238,2,0,P|142:331|192:328,1,100,8|0,0:0|0:0,0:0:0:0:
140,148,22613,6,0,P|93:130|43:127,1,100
248,228,22988,2,0,P|297:222|343:202,1,100,8|0,0:0|0:0,0:0:0:0:
360,68,23363,1,0,0:0:0:0:
360,68,23456,1,8,0:0:0:0:
360,68,23550,1,0,0:0:0:0:
488,132,23738,2,0,P|504:184|492:248,1,100,8|0,0:0|0:0,0:0:0:0:
416,320,24113,5,2,0:0:0:0:
416,320,24488,1,8,0:0:0:0:
364,192,24675,1,0,0:0:0:0:
240,272,24863,1,0,0:0:0:0:
208,264,24956,1,8,0:0:0:0:
180,244,25050,1,0,0:0:0:0:
60,144,25238,2,0,P|114:119|179:129,1,100,8|0,0:0|0:0,0:0:0:0:
267,201,25613,6,0,P|316:207|363:192,1,100
256,40,25988,2,0,P|206:33|159:48,1,100,8|0,0:0|0:0,0:0:0:0:
120,204,26363,1,0,0:0:0:0:
120,204,26456,1,8,0:0:0:0:
120,204,26550,1,0,0:0:0:0:
160,340,26738,1,8,0:0:0:0:
260,240,26925,2,0,L|328:240,1,50
400,252,27113,5,0,0:0:0:0:
400,252,27300,1,0,0:0:0:0:
400,252,27488,1,0,0:0:0:0:
400,252,27675,1,0,0:0:0:0:
400,252,27863,1,0,0:0:0:0:
456,148,28050,1,0,0:0:0:0:
430,126,28143,1,0,0:0:0:0:
397,117,28237,1,0,0:0:0:0:
363,122,28331,1,0,0:0:0:0:
335,142,28425,1,4,0:2:0:0:
332,192,30113,5,4,0:0:0:0:
332,192,30488,2,0,P|296:160|248:148,1,89.9999972534181,8|0,0:0|0:0,0:0:0:0:
240,256,30863,2,0,P|226:298|196:331,1,89.9999972534181,0|0,0:0|0:0,0:0:0:0:
132,244,31238,2,0,L|64:180,1,89.9999972534181,8|0,0:0|0:0,0:0:0:0:
60,76,31613,5,2,0:0:0:0:
60,76,31988,2,0,P|100:64|168:84,1,89.9999972534181,8|0,0:0|0:0,0:0:0:0:
256,80,32363,2,0,P|300:84|356:64,1,89.9999972534181,0|0,0:0|0:0,0:0:0:0:
440,28,32738,2,0,P|448:72|428:136,1,89.9999972534181,8|0,0:0|0:0,0:0:0:0:
388,212,33113,5,0,0:0:0:0:
388,212,33488,2,0,L|388:308,2,89.9999972534181,8|0|0,0:0|0:0|0:0,0:0:0:0:
292,164,34050,2,0,P|244:160|180:176,1,89.9999972534181,0|8,0:0|0:0,0:0:0:0:
152,284,34425,1,0,0:0:0:0:
28,268,34613,5,2,0:0:0:0:
16,144,34800,1,0,0:0:0:0:
16,120,35175,1,0,0:0:0:0:
16,96,35550,1,0,0:0:0:0:
16,96,36113,5,2,0:0:0:0:
20,100,36488,2,0,P|64:88|132:112,1,89.9999972534181,8|0,0:0|0:0,0:0:0:0:
72,200,36863,2,0,P|156:196|216:120,1,179.999994506836,0|8,0:0|0:0,0:0:0:0:
320,76,37425,6,0,L|320:272,1,179.999994506836,2|0,0:0|0:0,0:0:0:0:
404,324,37988,2,0,L|484:372,1,89.9999972534181,8|0,0:0|0:0,0:0:0:0:
296,352,38363,2,0,L|200:376,1,89.9999972534181,0|0,0:0|0:0,0:0:0:0:
392,244,38738,2,0,L|500:220,1,89.9999972534181,8|0,0:0|0:0,0:0:0:0:
248,280,39113,6,0,P|168:256|76:292,1,179.999994506836,2|8,0:0|0:0,0:0:0:0:
28,196,39675,1,0,0:0:0:0:
28,196,39863,2,0,L|28:100,1,89.9999972534181,0|0,0:0|0:0,0:0:0:0:
120,52,40238,2,0,L|120:172,1,89.9999972534181,8|0,0:0|0:0,0:0:0:0:
192,224,40613,5,2,0:0:0:0:
288,224,40800,1,0,0:0:0:0:
348,148,40988,1,0,0:0:0:0:
312,60,41175,1,0,0:0:0:0:
212,20,41363,5,2,0:0:0:0:
172,128,41550,1,0,0:0:0:0:
208,240,41738,1,0,0:0:0:0:
324,272,41925,1,0,0:0:0:0:
432,220,42113,5,4,0:0:0:0:
432,220,42488,1,0,0:0:0:0:
240,348,42863,1,4,0:0:0:0:
240,348,43238,1,0,0:0:0:0:
72,192,43613,5,4,0:0:0:0:
72,192,43988,1,0,0:0:0:0:
260,44,44363,1,4,0:0:0:0:
260,44,44738,2,0,L|376:44,1,100,2|0,0:0|0:0,0:0:0:0:
468,100,45113,5,4,0:0:0:0:
468,100,45488,1,0,0:0:0:0:
248,200,45863,1,4,0:0:0:0:
248,200,46238,1,0,0:0:0:0:
80,32,46613,5,2,0:0:0:0:
24,136,46800,1,0,0:0:0:0:
80,368,47175,1,0,0:0:0:0:
248,200,47550,1,0,0:0:0:0:
344,272,47738,2,0,P|392:284|456:260,1,100,2|0,0:0|0:0,0:0:0:0:
392,160,48113,5,4,0:0:0:0:
432,48,48488,2,0,P|384:36|320:60,1,100
276,144,48863,2,0,L|276:344,1,200,0|0,0:0|0:0,0:0:0:0:
164,300,49425,6,0,P|180:192|164:92,1,200,2|0,0:0|0:0,0:0:0:0:
76,24,49988,2,0,P|48:76|52:128,1,100,0|0,0:0|0:0,0:0:0:0:
96,232,50363,2,0,L|52:352,1,100,0|0,0:0|0:0,0:0:0:0:
256,212,50738,2,0,L|288:116,1,100,0|0,0:0|0:0,0:0:0:0:
368,28,51113,5,4,0:0:0:0:
368,28,51488,1,0,0:0:0:0:
456,252,51863,1,0,0:0:0:0:
456,252,52238,1,0,0:0:0:0:
236,348,52613,5,2,0:0:0:0:
152,336,52800,1,0,0:0:0:0:
80,280,52988,1,0,0:0:0:0:
40,192,53175,1,0,0:0:0:0:
88,100,53363,5,2,0:0:0:0:
180,168,53550,1,0,0:0:0:0:
300,200,53738,1,0,0:0:0:0:
428,192,53925,1,0,0:0:0:0:
488,68,54113,5,2,0:0:0:0:
427,25,54300,1,0,0:0:0:0:
359,57,54488,1,0,0:0:0:0:
352,131,54675,1,0,0:0:0:0:
285,162,54863,2,0,P|201:111|176:8,1,179.999994506836,8|0,0:0|0:0,0:0:0:0:
60,24,55425,6,0,P|76:128|148:216,1,179.999994506836,8|0,0:0|0:0,0:0:0:0:
208,280,55988,2,0,P|244:317|272:376,1,89.9999972534181
320,236,56363,2,0,L|388:316,1,89.9999972534181,2|0,0:0|0:0,0:0:0:0:
368,136,56738,2,0,L|296:52,1,89.9999972534181,8|0,0:0|0:0,0:0:0:0:
368,136,57113,6,0,P|264:168|168:152,1,179.999994506836,2|0,0:0|0:0,0:0:0:0:
24,128,57675,2,0,P|20:176|28:236,1,89.9999972534181
108,320,58050,2,0,P|112:272|104:212,1,89.9999972534181,0|2,0:0|0:0,0:0:0:0:
200,232,58425,1,0,0:0:0:0:
200,232,58613,6,0,L|368:232,1,134.999995880127,2|0,0:0|0:0,0:0:0:0:
380,244,58988,2,0,P|392:300|376:344,1,89.9999972534181
264,352,59363,2,0,P|224:316|176:300,1,89.9999972534181,0|2,0:0|0:0,0:0:0:0:
204,152,59738,2,0,P|252:148|312:128,1,89.9999972534181,2|0,0:0|0:0,0:0:0:0:
400,84,60113,5,2,0:0:0:0:
400,84,60394,1,0,0:0:0:0:
400,84,60488,2,0,L|400:196,1,89.9999972534181
472,264,60863,1,0,0:0:0:0:
384,336,61050,1,0,0:0:0:0:
308,248,61238,2,0,P|296:196|268:160,1,89.9999972534181,8|0,0:0|0:0,0:0:0:0:
308,248,61613,6,0,P|232:300|136:324,1,179.999994506836,2|0,0:0|0:0,0:0:0:0:
64,232,62175,1,0,0:0:0:0:
64,232,62550,2,0,P|164:234|248:192,1,179.999994506836,8|0,0:0|0:0,0:0:0:0:
192,68,63113,6,0,P|144:60|86:77,1,100,2|0,0:0|0:0,0:0:0:0:
64,87,63394,1,2,0:0:0:0:
41,110,63488,1,4,0:0:0:0:
4,216,63675,1,4,0:0:0:0:
40,324,63863,1,4,0:0:0:0:
67,309,63956,1,2,0:0:0:0:
94,287,64050,1,0,0:0:0:0:
112,261,64144,1,4,0:0:0:0:
117,231,64238,1,2,0:0:0:0:
156,132,64425,1,2,0:0:0:0:
235,201,64613,6,0,P|302:232|375:221,1,150,4|2,0:0|0:0,0:0:0:0:
396,200,64988,2,0,P|444:192|490:210,1,100,0|2,0:0|0:0,0:0:0:0:
288,312,65363,6,0,P|240:300|200:276,1,85.0000016212464
96,122,65738,1,4,0:0:0:0:
126,96,65831,1,4,0:0:0:0:
160,79,65925,1,4,0:0:0:0:
199,66,66019,1,4,0:0:0:0:
243,62,66113,6,0,P|320:62|376:114,1,125,4|0,0:0|0:0,0:0:0:0:
408,304,66488,1,8,0:0:0:0:
272,188,66675,1,2,0:0:0:0:
152,320,66863,2,0,P|213:323|281:295,1,125,2|0,0:0|0:0,0:0:0:0:
136,120,67238,2,0,P|68:116|16:96,1,125,8|0,0:0|0:0,0:0:0:0:
272,188,67613,6,0,P|400:216|488:184,1,187.5,2|2,0:0|0:0,0:0:0:0:
488,184,67988,1,8,0:0:0:0:
360,88,68175,1,2,0:0:0:0:
272,300,68363,2,0,L|152:348,1,125,2|0,0:0|0:0,0:0:0:0:
236,104,68738,1,8,0:0:0:0:
353,308,68925,1,0,0:0:0:0:
124,272,69113,6,0,P|128:216|168:144,1,125,2|0,0:0|0:0,0:0:0:0:
336,96,69488,1,8,0:0:0:0:
260,288,69675,1,2,0:0:0:0:
236,104,69863,1,2,0:0:0:0:
412,272,70050,2,0,P|408:216|368:144,2,125,0|8|0,0:0|0:0|0:0,0:0:0:0:
256,360,70613,6,0,L|384:344,1,125,2|2,0:0|0:0,0:0:0:0:
420,340,70894,1,2,0:0:0:0:
420,340,70988,1,8,0:0:0:0:
300,200,71175,1,2,0:0:0:0:
400,44,71363,2,0,P|340:24|275:46,1,125,2|0,0:0|0:0,0:0:0:0:
84,36,71738,2,0,P|96:92|72:168,1,125,8|0,0:0|0:0,0:0:0:0:
128,188,72019,1,0,0:0:0:0:
128,188,72113,6,0,P|148:275|232:348,1,187.5,2|2,0:0|0:0,0:0:0:0:
256,352,72488,1,8,0:0:0:0:
408,264,72675,1,2,0:0:0:0:
432,236,72769,1,0,0:0:0:0:
448,204,72863,2,0,P|467:141|427:77,1,125,2|0,0:0|0:0,0:0:0:0:
280,72,73238,2,0,P|261:135|301:199,1,125,8|0,0:0|0:0,0:0:0:0:
308,248,73519,1,0,0:0:0:0:
308,248,73613,6,0,P|244:264|180:256,1,125,2|0,0:0|0:0,0:0:0:0:
360,140,73988,1,8,0:0:0:0:
148,32,74175,1,2,0:0:0:0:
156,184,74363,2,0,L|16:200,1,125,2|0,0:0|0:0,0:0:0:0:
264,332,74738,2,0,L|412:308,1,125,8|0,0:0|0:0,0:0:0:0:
480,212,75113,5,2,0:0:0:0:
451,182,75206,1,0,0:0:0:0:
416,159,75300,1,8,0:0:0:0:
376,146,75394,1,0,0:0:0:0:
335,142,75488,1,8,0:0:0:0:
294,148,75581,1,0,0:0:0:0:
255,163,75675,1,8,0:0:0:0:
224,192,75769,1,0,0:0:0:0:
200,228,75863,6,0,L|124:240,1,62.5,2|0,0:0|0:0,0:0:0:0:
56,152,76050,2,0,L|119:144,1,62.5,8|0,0:0|0:0,0:0:0:0:
224,60,76238,2,0,L|159:67,1,62.5,8|0,0:0|0:0,0:0:0:0:
17,32,76425,2,0,L|80:24,1,62.5,2|0,0:0|0:0,0:0:0:0:
224,60,76613,5,4,0:0:0:0:
86,289,76800,1,4,0:0:0:0:
352,292,76988,1,2,0:0:0:0:
352,292,77363,6,0,P|406:233|412:137,1,150,4|0,0:0|0:0,0:0:0:0:
332,136,77738,6,0,L|340:48,1,75,8|0,0:0|0:0,0:0:0:0:
264,196,78113,6,0,P|202:127|192:35,1,187.5,2|2,0:0|0:0,0:0:0:0:
216,8,78488,1,8,0:0:0:0:
392,16,78675,1,2,0:0:0:0:
368,176,78863,2,0,L|336:320,1,125,2|0,0:0|0:0,0:0:0:0:
60,328,79238,2,0,L|104:208,1,125,8|0,0:0|0:0,0:0:0:0:
192,35,79613,6,0,P|128:19|56:43,1,125,2|2,0:0|0:0,0:0:0:0:
40,56,79894,1,2,0:0:0:0:
40,56,79988,1,8,0:0:0:0:
176,136,80175,1,2,0:0:0:0:
152,267,80363,2,0,P|212:284|272:268,1,125,2|0,0:0|0:0,0:0:0:0:
360,108,80738,2,0,L|512:104,1,125,8|0,0:0|0:0,0:0:0:0:
264,336,81113,6,0,L|124:344,1,125,2|0,0:0|0:0,0:0:0:0:
396,256,81488,1,8,0:0:0:0:
252,136,81675,2,0,P|192:124|132:84,1,125,2|2,0:0|0:0,0:0:0:0:
339,41,82050,1,0,0:0:0:0:
126,233,82238,1,8,0:0:0:0:
364,192,82425,1,0,0:0:0:0:
224,344,82613,6,0,P|216:284|224:202,1,125,2|2,0:0|0:0,0:0:0:0:
232,184,82894,1,2,0:0:0:0:
232,184,82988,1,8,0:0:0:0:
404,132,83175,1,2,0:0:0:0:
136,296,83363,2,0,P|67:304|2:279,1,125,2|0,0:0|0:0,0:0:0:0:
168,72,83738,1,8,0:0:0:0:
247,350,83925,1,0,0:0:0:0:
420,230,84113,5,2,0:0:0:0:
420,230,84206,1,0,0:0:0:0:
420,230,84300,1,0,0:0:0:0:
238,90,84488,1,8,0:0:0:0:
184,316,84675,1,0,0:0:0:0:
359,130,84863,1,0,0:0:0:0:
134,180,85050,1,0,0:0:0:0:
298,335,85238,1,2,0:0:0:0:
327,352,85331,1,8,0:0:0:0:
356,368,85425,1,2,0:0:0:0:
512,172,85613,5,2,0:0:0:0:
305,180,85800,1,0,0:0:0:0:
456,331,85988,1,8,0:0:0:0:
408,73,86175,1,0,0:0:0:0:
188,218,86363,1,0,0:0:0:0:
131,58,86550,1,0,0:0:0:0:
165,47,86644,1,0,0:0:0:0:
201,35,86738,1,8,0:0:0:0:
237,25,86831,1,0,0:0:0:0:
273,13,86925,1,0,0:0:0:0:
440,64,87113,6,0,L|504:88,1,62.5,2|0,0:0|0:0,0:0:0:0:
400,172,87300,2,0,L|332:148,1,62.5,2|0,0:0|0:0,0:0:0:0:
360,280,87488,2,0,L|440:308,1,62.5,2|0,0:0|0:0,0:0:0:0:
268,212,87675,2,0,L|196:244,1,62.5,2|0,0:0|0:0,0:0:0:0:
228,344,87863,6,0,L|300:312,1,62.5,2|0,0:0|0:0,0:0:0:0:
112,300,88050,2,0,L|116:380,1,62.5,2|0,0:0|0:0,0:0:0:0:
120,184,88238,2,0,L|64:211,1,62.5,2|0,0:0|0:0,0:0:0:0:
80,76,88425,2,0,L|160:72,1,62.5,2|0,0:0|0:0,0:0:0:0:
216,60,88613,5,2,0:0:0:0:
251,54,88706,1,0,0:0:0:0:
287,54,88800,1,2,0:0:0:0:
323,60,88894,1,0,0:0:0:0:
357,71,88988,1,2,0:0:0:0:
389,89,89081,1,0,0:0:0:0:
418,111,89175,1,2,0:0:0:0:
442,138,89269,1,0,0:0:0:0:
460,172,89363,6,0,L|476:248,1,62.5,2|0,0:0|0:0,0:0:0:0:
380,264,89550,2,0,L|368:332,1,62.5,2|0,0:0|0:0,0:0:0:0:
272,296,89738,2,0,L|208:328,1,62.5,8|8,0:0|0:0,0:0:0:0:
124,276,89925,2,0,L|44:268,1,62.5,8|8,0:0|0:0,0:0:0:0:
12,168,90113,5,4,0:0:0:0:
