osu file format v14

[General]
AudioFilename: yousa - bhsjdgj.mp3
AudioLeadIn: 0
PreviewTime: 2175
Countdown: 0
SampleSet: Soft
StackLeniency: 0.7
Mode: 0
LetterboxInBreaks: 0
WidescreenStoryboard: 0

[Editor]
DistanceSpacing: 1.4
BeatDivisor: 4
GridSize: 4
TimelineZoom: 3.500002

[Metadata]
Title:Beng Huai Shi Jie De Ge Ji Chinese Ver
TitleUnicode:崩坏世界的歌姬Chinese Ver
Artist:Ling Yuan yousa
ArtistUnicode:泠鸢yousa
Creator:Lily Bread
Version:Insane
Source:
Tags:DreaM117er 填词集 初音ミク hatsune miku 崩坏学园 蔡近翰 rock 崩壊世界の歌姫 郑小宇 夏轶瀚
BeatmapID:874785
BeatmapSetID:402206

[Difficulty]
HPDrainRate:6
CircleSize:4
OverallDifficulty:7
ApproachRate:8.7
SliderMultiplier:1.7
SliderTickRate:1

[Events]
//Background and Video events
0,0,"BG.jpg",0,0
//Break Periods
//Storyboard Layer 0 (Background)
//Storyboard Layer 1 (Fail)
//Storyboard Layer 2 (Pass)
//Storyboard Layer 3 (Foreground)
//Storyboard Sound Samples

[TimingPoints]
3113,375,4,2,2,15,1,0
3113,-133.333333333333,4,2,2,15,0,0
15113,-100,4,2,1,60,0,0
27113,-100,4,3,1,60,0,0
30113,-100,4,2,2,30,0,0
42113,-100,4,3,1,35,0,0
46613,-100,4,2,2,35,0,0
47644,-100,4,3,1,35,0,0
52519,-100,4,2,2,35,0,0
53363,-100,4,2,2,45,0,0
63113,-100,4,3,1,50,0,0
66113,-80,4,2,3,70,0,1
84113,-80,4,3,1,70,0,1
85238,-80,4,2,3,70,0,1
85331,-80,4,3,1,70,0,1
85425,-80,4,2,3,70,0,1
85613,-80,4,3,1,70,0,1
87113,-80,4,2,3,70,0,1
90113,-100,4,2,3,70,0,0

[Colours]
Combo1 : 79,167,255
Combo2 : 177,100,255
Combo3 : 255,147,255

[HitObjects]
256,48,3113,5,4,0:0:0:0:
256,336,4613,5,2,0:0:0:0:
400,192,6113,5,2,0:0:0:0:
112,192,7613,5,2,0:0:0:0:
328,128,9113,6,0,P|448:280|256:316,1,446.250017023087,2|0,0:0|0:0,0:0:0:0:
184,304,10613,6,0,P|64:152|256:116,1,446.250017023087,2|0,0:0|0:0,0:0:0:0:
256,192,12113,12,4,13613,0:0:0:0:
64,72,15113,5,4,0:0:0:0:
64,72,15488,2,0,P|52:112|64:168,1,85,8|0,0:0|0:0,0:0:0:0:
92,276,15863,1,0,0:0:0:0:
92,276,15956,1,8,0:0:0:0:
92,276,16050,1,0,0:0:0:0:
168,364,16238,2,0,P|200:312|204:264,1,85,8|0,0:0|0:0,0:0:0:0:
307,289,16613,6,0,P|318:329|344:364,1,85
420,276,16988,2,0,P|432:236|420:180,1,85,8|0,0:0|0:0,0:0:0:0:
444,84,17363,1,0,0:0:0:0:
444,84,17456,1,8,0:0:0:0:
444,84,17550,1,0,0:0:0:0:
336,132,17738,2,0,P|292:140|244:128,1,85,8|0,0:0|0:0,0:0:0:0:
260,36,18113,5,2,0:0:0:0:
260,36,18488,2,0,P|217:30|176:38,1,85,8|0,0:0|0:0,0:0:0:0:
68,84,18863,2,0,L|20:84,2,42.5,0|8|0,0:0|0:0|0:0,0:0:0:0:
128,188,19238,2,0,L|128:273,1,85,8|0,0:0|0:0,0:0:0:0:
216,352,19613,6,0,P|257:359|304:348,1,85
384,273,19988,2,0,L|384:188,1,85,8|0,0:0|0:0,0:0:0:0:
444,84,20363,2,0,L|492:84,2,42.5,0|8|0,0:0|0:0|0:0,0:0:0:0:
335,37,20738,2,0,P|293:29|252:36,1,85,8|0,0:0|0:0,0:0:0:0:
228,48,21019,1,0,0:0:0:0:
208,64,21113,6,0,L|208:244,1,170,4|8,0:0|0:0,0:0:0:0:
296,304,21675,2,0,P|324:260|328:212,1,85
340,204,21956,1,8,0:0:0:0:
340,204,22050,1,0,0:0:0:0:
424,280,22238,2,0,P|423:322|405:360,1,85,8|0,0:0|0:0,0:0:0:0:
296,304,22613,6,0,P|256:296|208:304,1,85
106,360,22988,2,0,P|88:322|88:280,1,85,8|0,0:0|0:0,0:0:0:0:
36,172,23363,1,0,0:0:0:0:
36,172,23456,1,8,0:0:0:0:
36,172,23550,1,0,0:0:0:0:
168,192,23738,2,0,P|192:152|200:96,1,85,8|0,0:0|0:0,0:0:0:0:
311,114,24113,5,2,0:0:0:0:
311,114,24488,2,0,P|321:156|344:192,1,85,8|0,0:0|0:0,0:0:0:0:
476,172,24863,2,0,L|520:172,2,42.5,0|8|0,0:0|0:0|0:0,0:0:0:0:
444,288,25238,2,0,P|400:316|348:324,1,85,8|0,0:0|0:0,0:0:0:0:
256,276,25613,6,0,L|256:176,1,85
184,95,25988,2,0,P|149:120|108:131,1,85,8|0,0:0|0:0,0:0:0:0:
36,212,26363,2,0,L|-8:212,2,42.5,0|8|0,0:0|0:0|0:0,0:0:0:0:
108,308,26738,1,8,0:0:0:0:
236,272,26925,1,0,0:0:0:0:
236,272,27019,1,0,0:0:0:0:
236,272,27113,5,0,0:0:0:0:
338,332,27301,1,0,0:0:0:0:
428,255,27488,1,0,0:0:0:0:
381,145,27676,1,0,0:0:0:0:
263,156,27863,1,0,0:0:0:0:
156,192,28050,1,0,0:0:0:0:
128,192,28144,1,0,0:0:0:0:
100,192,28238,1,0,0:0:0:0:
72,192,28331,1,0,0:0:0:0:
44,192,28425,1,4,0:2:0:0:
180,168,30113,5,4,0:0:0:0:
180,168,30488,2,0,P|128:168|92:140,1,85,8|0,0:0|0:0,0:0:0:0:
16,224,30863,2,0,P|42:269|35:314,1,85
156,332,31238,2,0,P|182:286|224:269,1,85,8|0,0:0|0:0,0:0:0:0:
304,196,31613,5,2,0:0:0:0:
304,196,31988,2,0,P|330:241|323:286,1,85,8|0,0:0|0:0,0:0:0:0:
434,310,32363,2,0,P|459:264|502:248,1,85
458,134,32738,2,0,P|405:134|369:106,1,85,8|0,0:0|0:0,0:0:0:0:
284,44,33113,5,0,0:0:0:0:
284,44,33488,2,0,P|237:31|182:39,2,85,8|0|0,0:0|0:0|0:0,0:0:0:0:
284,164,34050,2,0,P|237:176|182:168,1,85,0|8,0:0|0:0,0:0:0:0:
104,104,34425,1,0,0:0:0:0:
72,220,34613,5,2,0:0:0:0:
172,284,34800,1,0,0:0:0:0:
352,224,35175,1,0,0:0:0:0:
284,44,35550,1,0,0:0:0:0:
383,108,36113,5,2,0:0:0:0:
404,344,36488,2,0,P|355:351|316:348,1,85,8|0,0:0|0:0,0:0:0:0:
352,224,36863,2,0,P|260:226|192:292,1,170,0|8,0:0|0:0,0:0:0:0:
24,292,37425,6,0,P|80:220|136:132,1,170,2|0,0:0|0:0,0:0:0:0:
216,76,37988,2,0,P|256:104|300:108,1,85,8|0,0:0|0:0,0:0:0:0:
364,16,38363,2,0,P|405:23|439:48,1,85
392,160,38738,2,0,P|425:185|467:192,1,85,8|0,0:0|0:0,0:0:0:0:
460,312,39113,6,0,P|374:298|298:238,1,170,2|8,0:0|0:0,0:0:0:0:
203,250,39675,1,0,0:0:0:0:
203,250,39863,2,0,P|168:284|124:304,1,85
36,236,40238,2,0,P|71:202|115:182,1,85,8|0,0:0|0:0,0:0:0:0:
212,136,40613,5,2,0:0:0:0:
128,56,40800,1,0,0:0:0:0:
332,104,40988,1,0,0:0:0:0:
244,24,41175,1,0,0:0:0:0:
340,188,41363,1,2,0:0:0:0:
426,97,41550,1,0,0:0:0:0:
378,322,41738,1,0,0:0:0:0:
468,223,41925,1,0,0:0:0:0:
288,268,42113,5,4,0:0:0:0:
288,268,42488,1,0,0:0:0:0:
48,268,42863,1,4,0:0:0:0:
48,268,43238,1,0,0:0:0:0:
180,68,43613,5,4,0:0:0:0:
180,68,43988,1,0,0:0:0:0:
416,68,44363,1,4,0:0:0:0:
416,68,44738,2,0,L|416:172,1,85,2|0,0:0|0:0,0:0:0:0:
416,272,45113,5,4,0:0:0:0:
416,272,45488,1,0,0:0:0:0:
184,316,45863,1,4,0:0:0:0:
184,316,46238,1,0,0:0:0:0:
256,88,46613,5,2,0:0:0:0:
352,20,46800,1,0,0:0:0:0:
456,216,47175,1,0,0:0:0:0:
240,300,47550,1,0,0:0:0:0:
240,300,47738,2,0,L|140:300,1,85,2|0,0:0|0:0,0:0:0:0:
48,248,48113,6,0,P|80:212|124:192,1,85,4|0,0:0|0:0,0:0:0:0:
176,112,48488,1,0,0:0:0:0:
228,220,48675,1,0,0:0:0:0:
304,128,48863,2,0,L|476:152,1,170
332,40,49425,6,0,L|160:16,1,170,2|0,0:0|0:0,0:0:0:0:
72,96,49988,2,0,P|48:136|56:192,1,85
144,241,50363,2,0,P|167:205|168:164,1,85
264,312,50738,2,0,P|225:329|184:323,1,85
352,184,51113,6,0,P|389:165|431:169,1,85,4|0,0:0|0:0,0:0:0:0:
431,169,51488,1,0,0:0:0:0:
160,184,51863,2,0,P|123:165|81:169,1,85
81,169,52238,1,0,0:0:0:0:
204,316,52613,5,2,0:0:0:0:
248,224,52800,1,0,0:0:0:0:
288,316,52988,1,0,0:0:0:0:
332,224,53175,1,0,0:0:0:0:
368,316,53363,1,2,0:0:0:0:
296,144,53550,1,0,0:0:0:0:
204,316,53738,1,0,0:0:0:0:
132,144,53925,1,0,0:0:0:0:
116,232,54113,6,0,P|92:272|64:308,1,85,2|0,0:0|0:0,0:0:0:0:
132,360,54488,1,0,0:0:0:0:
204,316,54675,1,0,0:0:0:0:
200,228,54863,2,0,P|284:204|364:144,1,170,8|0,0:0|0:0,0:0:0:0:
248,112,55425,6,0,P|317:64|399:41,1,170,8|0,0:0|0:0,0:0:0:0:
472,136,55988,2,0,P|484:176|524:220,1,85
468,320,56363,2,0,L|400:248,1,85,2|0,0:0|0:0,0:0:0:0:
264,272,56738,2,0,P|300:291|336:339,1,85,8|0,0:0|0:0,0:0:0:0:
172,348,57113,6,0,L|-24:352,1,170,2|0,0:0|0:0,0:0:0:0:
28,260,57675,2,0,P|72:232|128:236,1,85
28,140,58050,2,0,L|120:140,1,85,0|2,0:0|0:0,0:0:0:0:
196,52,58425,1,0,0:0:0:0:
196,52,58613,6,0,P|256:56|340:48,1,127.5,2|0,0:0|0:0,0:0:0:0:
352,48,58988,2,0,P|396:20|452:24,1,85
484,140,59363,2,0,L|392:140,1,85,0|2,0:0|0:0,0:0:0:0:
408,229,59738,2,0,P|449:235|484:260,1,85,2|0,0:0|0:0,0:0:0:0:
316,332,60113,6,0,P|256:328|172:336,1,127.5,2|0,0:0|0:0,0:0:0:0:
160,336,60488,2,0,P|116:364|60:360,1,85
4,288,60863,1,0,0:0:0:0:
44,172,61050,1,0,0:0:0:0:
160,214,61238,2,0,P|168:154|144:110,1,85,8|0,0:0|0:0,0:0:0:0:
224,268,61613,6,0,L|420:264,1,170,2|0,0:0|0:0,0:0:0:0:
436,152,62175,2,0,P|444:92|420:48,1,85
320,44,62550,2,0,P|240:60|132:40,1,170,8|0,0:0|0:0,0:0:0:0:
56,116,63113,6,0,L|56:228,1,85,2|0,0:0|0:0,0:0:0:0:
56,228,63394,1,2,0:0:0:0:
56,256,63488,2,0,P|64:301|92:336,1,85,4|4,0:0|0:0,0:0:0:0:
192,360,63863,1,4,0:0:0:0:
220,360,63956,1,2,0:0:0:0:
248,360,64050,1,0,0:0:0:0:
277,360,64144,1,4,0:0:0:0:
308,360,64238,2,0,L|420:360,1,85,2|2,0:0|0:0,0:0:0:0:
404,256,64613,6,0,P|388:188|392:120,1,127.5,4|2,0:0|0:0,0:0:0:0:
396,104,64988,2,0,P|416:72|424:24,1,85,0|2,0:0|0:0,0:0:0:0:
304,28,65363,2,0,P|284:60|276:108,1,85
312,220,65738,1,4,0:0:0:0:
284,220,65831,1,4,0:0:0:0:
256,220,65925,1,4,0:0:0:0:
227,220,66019,1,4,0:0:0:0:
196,220,66113,6,0,P|88:244|-20:220,1,212.5,4|8,0:0|0:0,0:0:0:0:
84,108,66675,1,0,0:0:0:0:
84,108,66863,2,0,P|132:80|168:32,1,106.25
312,41,67238,2,0,P|345:81|391:108,1,106.25,8|0,0:0|0:0,0:0:0:0:
492,240,67613,6,0,P|504:292|484:368,1,106.25
336,308,67988,2,0,P|324:256|344:180,1,106.25,8|0,0:0|0:0,0:0:0:0:
124,232,68363,2,0,L|4:252,1,106.25
184,384,68738,2,0,L|304:364,1,106.25,8|0,0:0|0:0,0:0:0:0:
205,168,69113,6,0,P|103:140|0:159,1,212.5,2|8,0:0|0:0,0:0:0:0:
100,48,69675,2,0,P|152:52|216:72,1,106.25
306,168,70050,1,0,0:0:0:0:
255,299,70238,2,0,P|306:314|359:314,1,106.25,8|0,0:0|0:0,0:0:0:0:
409,183,70613,6,0,P|358:168|305:168,1,106.25
358,314,70988,2,0,P|411:313|462:299,1,106.25,8|0,0:0|0:0,0:0:0:0:
255,299,71363,2,0,P|204:314|151:313,1,106.25
12,260,71738,1,8,0:0:0:0:
148,200,71925,1,0,0:0:0:0:
28,120,72113,6,0,P|132:108|232:24,1,212.5,2|8,0:0|0:0,0:0:0:0:
308,164,72675,1,0,0:0:0:0:
396,44,72863,2,0,P|440:80|460:140,1,106.25
228,268,73238,2,0,P|184:232|164:172,1,106.25,8|0,0:0|0:0,0:0:0:0:
360,220,73613,5,2,0:0:0:0:
360,220,73988,2,0,L|448:304,1,106.25,8|0,0:0|0:0,0:0:0:0:
308,344,74363,2,0,P|252:356|200:344,1,106.25
75,293,74738,2,0,L|152:220,1,106.25,8|0,0:0|0:0,0:0:0:0:
192,76,75113,6,0,P|132:68|68:100,1,106.25
320,76,75488,2,0,P|380:68|444:100,1,106.25,8|0,0:0|0:0,0:0:0:0:
360,220,75863,2,0,L|336:332,1,106.25
174,323,76238,1,8,0:0:0:0:
168,292,76331,1,0,0:0:0:0:
160,260,76425,1,0,0:0:0:0:
152,228,76519,1,0,0:0:0:0:
144,196,76613,5,4,0:0:0:0:
56,37,76800,1,4,0:0:0:0:
220,120,76988,1,8,0:0:0:0:
368,196,77363,5,4,0:0:0:0:
455,37,77550,1,4,0:0:0:0:
292,120,77738,2,0,P|292:208|328:288,1,159.375,8|0,0:0|0:0,0:0:0:0:
356,312,78113,6,0,P|252:348|144:296,1,212.5,2|8,0:0|0:0,0:0:0:0:
204,168,78675,1,0,0:0:0:0:
120,44,78863,2,0,P|76:88|60:152,1,106.25
306,166,79238,2,0,P|254:178|203:167,1,106.25,8|0,0:0|0:0,0:0:0:0:
200,16,79613,6,0,P|252:4|303:15,1,106.25
450,128,79988,2,0,P|430:79|392:44,1,106.25,8|0,0:0|0:0,0:0:0:0:
436,304,80363,2,0,P|474:268|496:219,1,106.25
300,240,80738,2,0,P|249:250|198:238,1,106.25,8|0,0:0|0:0,0:0:0:0:
48,351,81113,6,0,P|145:386|244:352,1,212.5,2|8,0:0|0:0,0:0:0:0:
120,224,81675,2,0,P|104:176|120:120,1,106.25
332,156,82050,2,0,L|276:48,2,106.25,2|8|0,0:0|0:0|0:0,0:0:0:0:
468,212,82613,6,0,P|454:262|470:312,1,106.25
328,352,82988,2,0,P|311:302|269:270,1,106.25,8|0,0:0|0:0,0:0:0:0:
24,248,83363,2,0,P|74:264|125:251,1,106.25
72,112,83738,1,8,0:0:0:0:
176,4,83925,1,0,0:0:0:0:
248,137,84113,6,0,L|248:204,2,53.125
357,16,84488,1,8,0:0:0:0:
396,192,84675,1,0,0:0:0:0:
458,36,84863,1,0,0:0:0:0:
283,67,85050,1,0,0:0:0:0:
318,242,85238,2,0,L|320:312,2,53.125,2|8|2,0:0|0:0|0:0,0:0:0:0:
139,140,85613,5,2,0:0:0:0:
111,340,85800,1,0,0:0:0:0:
251,194,85988,1,8,0:0:0:0:
53,229,86175,1,0,0:0:0:0:
233,317,86363,1,0,0:0:0:0:
217,129,86550,1,0,0:0:0:0:
217,129,86644,1,0,0:0:0:0:
217,129,86738,2,0,L|217:71,2,53.125,8|0|0,0:0|0:0|0:0,0:0:0:0:
293,254,87113,5,2,0:0:0:0:
385,107,87300,1,2,0:0:0:0:
467,260,87488,1,2,0:0:0:0:
297,154,87675,1,2,0:0:0:0:
471,160,87863,1,2,0:0:0:0:
378,307,88050,1,2,0:0:0:0:
214,192,88238,1,2,0:0:0:0:
166,358,88425,1,2,0:0:0:0:
45,234,88613,5,2,0:0:0:0:
237,288,88800,1,2,0:0:0:0:
68,331,88988,1,2,0:0:0:0:
116,164,89175,1,2,0:0:0:0:
287,223,89363,1,2,0:0:0:0:
170,79,89550,1,2,0:0:0:0:
178,254,89738,1,2,0:0:0:0:
275,106,89925,1,2,0:0:0:0:
96,244,90113,5,4,0:0:0:0:
