osu file format v14

[General]
AudioFilename: yousa - bhsjdgj.mp3
AudioLeadIn: 0
PreviewTime: 2175
Countdown: 0
SampleSet: Soft
StackLeniency: 0.7
Mode: 0
LetterboxInBreaks: 0
WidescreenStoryboard: 0

[Editor]
DistanceSpacing: 1.3
BeatDivisor: 4
GridSize: 4
TimelineZoom: 3.500002

[Metadata]
Title:Beng Huai Shi Jie De Ge Ji Chinese Ver
TitleUnicode:崩坏世界的歌姬Chinese Ver
Artist:Ling Yuan yousa
ArtistUnicode:泠鸢yousa
Creator:Lily Bread
Version:Hard
Source:
Tags:DreaM117er 填词集 初音ミク hatsune miku 崩坏学园 蔡近翰 rock 崩壊世界の歌姫 郑小宇 夏轶瀚
BeatmapID:875328
BeatmapSetID:402206

[Difficulty]
HPDrainRate:5
CircleSize:4
OverallDifficulty:6
ApproachRate:7.5
SliderMultiplier:1.4
SliderTickRate:1

[Events]
//Background and Video events
0,0,"BG.jpg",0,0
//Break Periods
//Storyboard Layer 0 (Background)
//Storyboard Layer 1 (Fail)
//Storyboard Layer 2 (Pass)
//Storyboard Layer 3 (Foreground)
//Storyboard Sound Samples

[TimingPoints]
3113,375,4,2,2,15,1,0
3113,-133.333333333333,4,2,2,15,0,0
15113,-100,4,2,1,60,0,0
27113,-100,4,3,1,60,0,0
28425,-100,4,2,1,60,0,0
30113,-100,4,2,2,30,0,0
42113,-100,4,3,1,35,0,0
46613,-100,4,2,2,35,0,0
47644,-100,4,3,1,35,0,0
52519,-100,4,2,2,35,0,0
53363,-100,4,2,2,45,0,0
63113,-100,4,3,1,50,0,0
65363,-100,4,2,1,40,0,0
65738,-133.333333333333,4,2,1,40,0,0
66113,-90.9090909090909,4,2,3,70,0,1
77363,-100,4,2,3,70,0,1
77738,-133.333333333333,4,2,3,70,0,1
78113,-90.9090909090909,4,2,3,70,0,1
84113,-90.9090909090909,4,3,1,70,0,1
85238,-90.9090909090909,4,2,3,70,0,1
85331,-90.9090909090909,4,3,1,70,0,1
85425,-90.9090909090909,4,2,3,70,0,1
85613,-90.9090909090909,4,3,1,70,0,1
87113,-90.9090909090909,4,2,3,70,0,1
90113,-100,4,2,3,70,0,0

[Colours]
Combo1 : 79,167,255
Combo2 : 177,100,255
Combo3 : 255,147,255

[HitObjects]
96,112,3113,6,0,P|128:292|320:256,1,420.000016021729,4|2,0:0|0:0,0:0:0:0:
192,127,6113,6,0,P|376:87|416:272,1,420.000016021729,2|2,0:0|0:0,0:0:0:0:
80,188,9113,6,0,B|148:236|188:312|188:312|268:272|384:272,1,367.500014019013,2|0,0:0|0:0,0:0:0:0:
432,196,10613,6,0,B|364:148|324:72|324:72|244:112|128:112,1,367.500014019013,2|0,0:0|0:0,0:0:0:0:
256,192,12113,12,4,13613,0:0:0:0:
320,68,15113,6,0,P|256:48|180:72,1,140,4|8,0:0|0:0,0:0:0:0:
124,132,15675,1,0,0:0:0:0:
124,132,15863,2,0,L|124:216,1,70,0|0,0:0|0:0,0:0:0:0:
136,292,16238,2,0,P|172:272|196:232,1,70,8|0,0:0|0:0,0:0:0:0:
224,164,16613,6,0,P|256:160|308:168,1,70,0|0,0:0|0:0,0:0:0:0:
322,249,16988,2,0,P|344:276|376:292,1,70,8|0,0:0|0:0,0:0:0:0:
388,202,17363,2,0,L|388:132,1,70,0|0,0:0|0:0,0:0:0:0:
468,88,17738,2,0,L|468:164,1,70,8|0,0:0|0:0,0:0:0:0:
456,252,18113,5,2,0:0:0:0:
455,251,18488,2,0,P|458:286|447:319,1,70,8|0,0:0|0:0,0:0:0:0:
360,344,18863,2,0,P|336:320|296:304,1,70,0|0,0:0|0:0,0:0:0:0:
208,305,19238,2,0,P|176:319|152:344,1,70,8|0,0:0|0:0,0:0:0:0:
64,319,19613,6,0,P|53:286|56:251,1,70
124,192,19988,2,0,P|89:160|60:157,1,70,8|0,0:0|0:0,0:0:0:0:
16,80,20363,2,0,P|48:68|100:72,1,70,0|0,0:0|0:0,0:0:0:0:
164,112,20738,2,0,P|177:79|179:45,1,70,8|0,0:0|0:0,0:0:0:0:
256,96,21113,6,0,L|256:244,1,140,4|8,0:0|0:0,0:0:0:0:
348,272,21675,1,0,0:0:0:0:
348,272,21863,2,0,P|334:304|332:338,1,70,0|0,0:0|0:0,0:0:0:0:
428,316,22238,2,0,P|463:316|496:304,1,70,8|0,0:0|0:0,0:0:0:0:
444,226,22613,6,0,P|411:217|388:192,1,70,0|0,0:0|0:0,0:0:0:0:
404,100,22988,2,0,P|364:102|319:130,1,70,8|0,0:0|0:0,0:0:0:0:
292,192,23363,2,0,L|216:192,1,70,0|0,0:0|0:0,0:0:0:0:
174,115,23738,2,0,P|142:101|108:100,1,70,8|0,0:0|0:0,0:0:0:0:
52,172,24113,5,2,0:0:0:0:
52,172,24488,2,0,L|52:256,1,70,8|0,0:0|0:0,0:0:0:0:
76,328,24863,2,0,P|112:308|128:276,1,70,0|0,0:0|0:0,0:0:0:0:
216,284,25238,2,0,P|234:312|266:328,1,70,8|0,0:0|0:0,0:0:0:0:
292,242,25613,6,0,L|292:172,1,70,0|0,0:0|0:0,0:0:0:0:
324,84,25988,2,0,P|355:99|374:128,1,70,8|0,0:0|0:0,0:0:0:0:
376,220,26363,2,0,L|376:308,2,70,0|0|8,0:0|0:0|0:0,0:0:0:0:
456,176,26925,1,0,0:0:0:0:
440,88,27113,6,0,P|425:56|396:37,1,70,0|0,0:0|0:0,0:0:0:0:
324,84,27488,2,0,L|228:84,1,70,0|0,0:0|0:0,0:0:0:0:
184,40,27863,1,0,0:0:0:0:
184,40,28050,2,0,L|120:40,4,35,0|0|0|0|4,0:0|0:0|0:0|0:0|0:0,0:0:0:0:
256,192,30113,5,4,0:0:0:0:
256,192,30488,2,0,L|256:280,1,70,8|0,0:0|0:0,0:0:0:0:
312,336,30863,2,0,P|360:304|384:212,1,140,0|8,0:0|0:0,0:0:0:0:
358,141,31425,6,0,P|426:145|472:196,1,140,0|0,0:0|0:0,0:0:0:0:
460,280,31988,2,0,P|444:328|420:356,1,70,8|0,0:0|0:0,0:0:0:0:
300,244,32363,2,0,P|265:237|231:244,1,70
160,304,32738,2,0,P|141:274|132:240,1,70,8|0,0:0|0:0,0:0:0:0:
153,141,33113,6,0,P|85:145|39:196,1,140,0|8,0:0|0:0,0:0:0:0:
40,288,33675,1,0,0:0:0:0:
40,288,33863,2,0,L|40:368,2,70,0|0|8,0:0|0:0|0:0,0:0:0:0:
132,240,34425,6,0,L|216:204,2,70,0|2|0,0:0|0:0|0:0,0:0:0:0:
308,196,35175,1,0,0:0:0:0:
308,196,35550,1,0,0:0:0:0:
464,36,36113,5,2,0:0:0:0:
464,36,36488,2,0,P|424:24|368:36,1,70,8|0,0:0|0:0,0:0:0:0:
348,104,36863,2,0,P|276:116|192:100,1,140,0|8,0:0|0:0,0:0:0:0:
168,24,37425,6,0,P|98:14|30:26,1,140,2|0,0:0|0:0,0:0:0:0:
12,116,37988,2,0,P|16:168|32:204,1,70,8|0,0:0|0:0,0:0:0:0:
112,180,38363,2,0,L|128:264,1,70,0|0,0:0|0:0,0:0:0:0:
216,236,38738,2,0,P|225:269|225:304,1,70,8|0,0:0|0:0,0:0:0:0:
144,340,39113,6,0,P|72:328|32:276,1,140,2|8,0:0|0:0,0:0:0:0:
24,188,39675,1,0,0:0:0:0:
80,116,39863,2,0,L|88:44,2,70,0|0|8,0:0|0:0|0:0,0:0:0:0:
168,92,40425,1,0,0:0:0:0:
168,92,40613,6,0,L|248:40,2,70,2|0|0,0:0|0:0|0:0,0:0:0:0:
244,144,41175,1,0,0:0:0:0:
244,144,41363,2,0,L|336:144,1,70,2|0,0:0|0:0,0:0:0:0:
368,76,41738,2,0,L|464:76,1,70,0|0,0:0|0:0,0:0:0:0:
492,144,42113,5,4,0:0:0:0:
492,144,42488,1,0,0:0:0:0:
441,274,42863,1,4,0:0:0:0:
441,274,43238,1,0,0:0:0:0:
260,284,43613,6,0,P|188:276|136:204,1,140,4|0,0:0|0:0,0:0:0:0:
176,68,44363,1,4,0:0:0:0:
176,68,44738,2,0,L|268:68,1,70,2|0,0:0|0:0,0:0:0:0:
336,68,45113,5,4,0:0:0:0:
336,68,45488,1,0,0:0:0:0:
256,232,45863,1,4,0:0:0:0:
256,232,46238,1,0,0:0:0:0:
104,336,46613,6,0,P|80:312|64:272,1,70,2|0,0:0|0:0,0:0:0:0:
76,96,47175,2,0,P|136:136|224:144,1,140,0|0,0:0|0:0,0:0:0:0:
300,148,47738,2,0,P|342:146|374:134,1,70,2|0,0:0|0:0,0:0:0:0:
452,84,48113,5,4,0:0:0:0:
452,84,48488,2,0,P|468:128|464:160,1,70,0|0,0:0|0:0,0:0:0:0:
420,228,48863,2,0,P|362:267|294:279,1,140,0|0,0:0|0:0,0:0:0:0:
256,196,49425,6,0,P|187:207|130:247,1,140,2|0,0:0|0:0,0:0:0:0:
80,324,49988,2,0,P|48:296|40:264,1,70,0|0,0:0|0:0,0:0:0:0:
72,184,50363,2,0,L|72:112,1,70,0|0,0:0|0:0,0:0:0:0:
156,76,50738,2,0,P|184:112|188:144,1,70,0|0,0:0|0:0,0:0:0:0:
256,196,51113,6,0,P|324:184|381:144,1,140,4|0,0:0|0:0,0:0:0:0:
217,279,51863,2,0,P|149:267|92:228,1,140,0|0,0:0|0:0,0:0:0:0:
323,135,52613,6,0,P|332:101|356:76,1,70,2|0,0:0|0:0,0:0:0:0:
416,148,52988,1,0,0:0:0:0:
500,184,53175,1,0,0:0:0:0:
471,270,53363,2,0,P|459:302|432:324,1,70,2|0,0:0|0:0,0:0:0:0:
376,252,53738,1,0,0:0:0:0:
284,252,53925,1,0,0:0:0:0:
292,344,54113,6,0,P|258:353|224:344,1,70,2|0,0:0|0:0,0:0:0:0:
192,260,54488,1,0,0:0:0:0:
132,328,54675,1,0,0:0:0:0:
104,240,54863,2,0,P|136:188|232:180,1,140,8|0,0:0|0:0,0:0:0:0:
208,80,55425,6,0,P|140:67|102:11,1,140,8|0,0:0|0:0,0:0:0:0:
12,20,55988,2,0,L|12:104,1,70,0|0,0:0|0:0,0:0:0:0:
28,180,56363,2,0,L|28:264,1,70,2|0,0:0|0:0,0:0:0:0:
80,324,56738,2,0,P|112:308|160:312,1,70,8|0,0:0|0:0,0:0:0:0:
232,332,57113,6,0,P|296:348|372:332,1,140,2|0,0:0|0:0,0:0:0:0:
380,244,57675,2,0,P|414:244|445:260,1,70,0|0,0:0|0:0,0:0:0:0:
504,188,58050,2,0,L|504:118,1,70,0|2,0:0|0:0,0:0:0:0:
444,48,58425,1,0,0:0:0:0:
444,48,58613,6,0,P|384:44|320:52,1,105,2|0,0:0|0:0,0:0:0:0:
324,68,58988,2,0,P|288:72|240:68,1,70,0|0,0:0|0:0,0:0:0:0:
164,76,59363,2,0,P|124:100|108:144,1,70,0|2,0:0|0:0,0:0:0:0:
44,180,59738,2,0,L|44:252,1,70,2|0,0:0|0:0,0:0:0:0:
68,336,60113,6,0,P|128:340|192:332,1,105,2|0,0:0|0:0,0:0:0:0:
188,316,60488,2,0,P|224:312|272:316,1,70,0|0,0:0|0:0,0:0:0:0:
340,348,60863,2,0,P|374:349|409:345,2,70,0|0|8,0:0|0:0|0:0,0:0:0:0:
448,200,61613,6,0,P|462:131|445:64,1,140,2|0,0:0|0:0,0:0:0:0:
368,16,62175,1,0,0:0:0:0:
368,16,62550,2,0,P|353:84|370:151,1,140,8|0,0:0|0:0,0:0:0:0:
385,242,63113,6,0,P|400:300|432:352,2,105,2|0|0,0:0|0:0|0:0,0:0:0:0:
304,200,63863,2,0,L|244:200,3,35,8|0|0|0,0:0|0:0|0:0|0:0,0:0:0:0:
292,160,64238,2,0,L|268:84,1,70
184,56,64613,6,0,P|116:60|52:104,1,140
48,196,65175,1,0,0:0:0:0:
48,196,65363,2,0,P|60:232|96:260,1,70
176,200,65738,6,0,L|172:268,1,52.5000020027161
124,340,66113,6,0,P|208:348|264:300,1,154.000004699707,4|8,0:0|0:0,0:0:0:0:
312,220,66675,1,0,0:0:0:0:
400,272,66863,2,0,P|416:232|408:192,1,77.0000023498536,0|0,0:0|0:0,0:0:0:0:
332,136,67238,2,0,P|364:108|424:104,1,77.0000023498536,8|0,0:0|0:0,0:0:0:0:
316,40,67613,6,0,L|148:40,1,154.000004699707,0|8,0:0|0:0,0:0:0:0:
80,112,68175,1,0,0:0:0:0:
80,112,68363,2,0,P|116:122|144:147,1,77.0000023498536,0|0,0:0|0:0,0:0:0:0:
76,283,68738,2,0,P|60:248|65:211,1,77.0000023498536,8|0,0:0|0:0,0:0:0:0:
192,248,69113,6,0,L|360:248,1,154.000004699707,2|8,0:0|0:0,0:0:0:0:
412,324,69675,2,0,P|444:284|440:248,1,77.0000023498536,0|0,0:0|0:0,0:0:0:0:
400,172,70050,2,0,L|416:88,2,77.0000023498536,2|8|0,0:0|0:0|0:0,0:0:0:0:
300,164,70613,6,0,P|262:157|238:127,1,77.0000023498536
268,32,70988,2,0,L|352:32,1,77.0000023498536,8|0,0:0|0:0,0:0:0:0:
439,67,71363,2,0,P|455:102|485:126,1,77.0000023498536
485,228,71738,2,0,P|455:251|439:286,1,77.0000023498536,8|0,0:0|0:0,0:0:0:0:
348,332,72113,6,0,P|276:316|192:336,1,154.000004699707,2|8,0:0|0:0,0:0:0:0:
108,288,72675,1,0,0:0:0:0:
107,287,72863,2,0,P|92:253|62:229,1,77.0000023498536
63,128,73238,2,0,P|92:104|108:69,1,77.0000023498536,8|0,0:0|0:0,0:0:0:0:
216,32,73613,5,2,0:0:0:0:
216,32,73988,2,0,L|304:32,1,77.0000023498536,8|0,0:0|0:0,0:0:0:0:
380,80,74363,2,0,P|416:128|400:168,1,77.0000023498536,0|0,0:0|0:0,0:0:0:0:
356,220,74738,2,0,P|320:172|336:132,1,77.0000023498536,8|0,0:0|0:0,0:0:0:0:
224,144,75113,6,0,P|232:220|288:296,1,154.000004699707,2|8,0:0|0:0,0:0:0:0:
464,280,75863,2,0,P|456:204|414:140,1,154.000004699707,0|8,0:0|0:0,0:0:0:0:
340,316,76613,5,4,0:0:0:0:
256,376,76800,1,4,0:0:0:0:
172,316,76988,1,8,0:0:0:0:
48,188,77363,6,0,P|60:152|96:124,1,70,4|4,0:0|0:0,0:0:0:0:
176,184,77738,6,0,L|172:116,1,52.5000020027161,8|0,0:0|0:0,0:0:0:0:
124,44,78113,6,0,P|208:36|264:84,1,154.000004699707,2|8,0:0|0:0,0:0:0:0:
320,156,78675,1,0,0:0:0:0:
320,156,78863,2,0,L|320:240,1,77.0000023498536
412,272,79238,2,0,L|412:180,1,77.0000023498536,8|0,0:0|0:0,0:0:0:0:
504,152,79613,6,0,L|504:320,1,154.000004699707,0|8,0:0|0:0,0:0:0:0:
420,360,80175,1,0,0:0:0:0:
420,360,80363,2,0,P|376:352|336:364,1,77.0000023498536,0|0,0:0|0:0,0:0:0:0:
248,380,80738,2,0,L|248:285,1,77.0000023498536,8|0,0:0|0:0,0:0:0:0:
176,232,81113,6,0,P|88:252|8:220,1,154.000004699707,2|8,0:0|0:0,0:0:0:0:
96,160,81675,2,0,P|108:124|96:72,1,77.0000023498536
200,64,82050,1,2,0:0:0:0:
200,64,82238,2,0,P|236:76|288:64,1,77.0000023498536,8|0,0:0|0:0,0:0:0:0:
364,116,82613,6,0,P|396:200|467:248,1,154.000004699707,0|8,0:0|0:0,0:0:0:0:
288,312,83363,2,0,L|192:348,1,77.0000023498536,0|0,0:0|0:0,0:0:0:0:
196,240,83738,2,0,L|104:192,1,77.0000023498536,8|0,0:0|0:0,0:0:0:0:
64,128,84113,6,0,P|96:92|156:84,1,77.0000023498536,2|0,0:0|0:0,0:0:0:0:
200,144,84488,1,8,0:0:0:0:
200,144,84675,1,0,0:0:0:0:
212,44,84863,2,0,L|284:72,1,77.0000023498536,0|0,0:0|0:0,0:0:0:0:
332,164,85238,2,0,L|332:212,2,38.5000011749268,2|8|2,0:0|0:0|0:0,0:0:0:0:
396,84,85613,5,2,0:0:0:0:
396,84,85800,1,0,0:0:0:0:
468,156,85988,2,0,L|492:240,1,77.0000023498536,8|0,0:0|0:0,0:0:0:0:
396,268,86363,1,0,0:0:0:0:
396,268,86550,1,0,0:0:0:0:
324,360,86738,2,0,L|280:280,1,77.0000023498536,8|0,0:0|0:0,0:0:0:0:
202,334,87113,5,2,0:0:0:0:
110,311,87300,1,2,0:0:0:0:
79,218,87488,1,2,0:0:0:0:
148,149,87675,1,2,0:0:0:0:
236,188,87863,2,0,L|324:176,1,77.0000023498536,2|2,0:0|0:0,0:0:0:0:
288,80,88238,2,0,L|380:68,1,77.0000023498536,2|2,0:0|0:0,0:0:0:0:
458,59,88613,5,2,0:0:0:0:
419,149,88800,1,2,0:0:0:0:
489,215,88988,1,2,0:0:0:0:
423,285,89175,1,2,0:0:0:0:
348,228,89363,2,0,L|260:240,1,77.0000023498536,2|2,0:0|0:0,0:0:0:0:
296,336,89738,2,0,L|204:348,1,77.0000023498536,2|2,0:0|0:0,0:0:0:0:
128,284,90113,5,4,0:0:0:0:
