osu file format v14

[General]
AudioFilename: yousa - bhsjdgj.mp3
AudioLeadIn: 0
PreviewTime: 2175
Countdown: 0
SampleSet: Soft
StackLeniency: 0.7
Mode: 0
LetterboxInBreaks: 0
WidescreenStoryboard: 0

[Editor]
DistanceSpacing: 1
BeatDivisor: 2
GridSize: 4
TimelineZoom: 3.500002

[Metadata]
Title:Beng Huai Shi Jie De Ge Ji Chinese Ver
TitleUnicode:崩坏世界的歌姬Chinese Ver
Artist:Ling Yuan yousa
ArtistUnicode:泠鸢yousa
Creator:Lily Bread
Version:Easy
Source:
Tags:DreaM117er 填词集 初音ミク hatsune miku 崩坏学园 蔡近翰 rock 崩壊世界の歌姫 郑小宇 夏轶瀚
BeatmapID:876746
BeatmapSetID:402206

[Difficulty]
HPDrainRate:1
CircleSize:3
OverallDifficulty:1
ApproachRate:3
SliderMultiplier:0.8
SliderTickRate:1

[Events]
//Background and Video events
0,0,"BG.jpg",0,0
//Break Periods
//Storyboard Layer 0 (Background)
//Storyboard Layer 1 (Fail)
//Storyboard Layer 2 (Pass)
//Storyboard Layer 3 (Foreground)
//Storyboard Sound Samples

[TimingPoints]
3113,375,4,2,2,15,1,0
15113,-100,4,2,1,60,0,0
27113,-100,4,3,1,60,0,0
28238,-100,4,2,1,60,0,0
30113,-100,4,2,2,30,0,0
42113,-100,4,3,1,35,0,0
52519,-100,4,2,2,35,0,0
53363,-100,4,2,2,45,0,0
63113,-100,4,3,1,50,0,0
65363,-100,4,2,1,40,0,0
66113,-100,4,2,3,70,0,1
84113,-100,4,3,1,70,0,1
90113,-100,4,2,3,70,0,0

[Colours]
Combo1 : 79,167,255
Combo2 : 177,100,255
Combo3 : 255,147,255

[HitObjects]
120,88,3113,6,0,P|116:256|256:328,1,320,4|2,0:0|0:0,0:0:0:0:
279,56,6113,6,0,P|404:143|392:296,1,320,2|2,0:0|0:0,0:0:0:0:
72,112,9113,6,0,B|136:176|156:244|156:244|228:216|312:256,2,320,2|2|0,0:0|0:0|0:0,0:0:0:0:
392,220,15113,6,0,P|420:144|372:56,2,160,4|0|0,0:0|0:0|0:0,0:0:0:0:
332,272,16988,1,8,0:0:0:0:
264,228,17363,2,0,L|172:228,1,80,0|8,0:0|0:0,0:0:0:0:
108,204,18113,6,0,P|65:138|47:47,2,160,2|0|0,0:0|0:0|0:0,0:0:0:0:
124,284,19988,1,8,0:0:0:0:
192,328,20363,2,0,L|316:328,1,80,0|8,0:0|0:0,0:0:0:0:
352,324,21113,6,0,P|416:352|504:368,2,160,4|0|0,0:0|0:0|0:0,0:0:0:0:
308,256,22988,2,0,L|308:152,1,80,8|0,0:0|0:0,0:0:0:0:
276,104,23738,1,8,0:0:0:0:
336,52,24113,6,0,P|412:31|490:48,2,160,2|0|0,0:0|0:0|0:0,0:0:0:0:
276,104,25988,2,0,L|180:104,2,80,8|0|8,0:0|0:0|0:0,0:0:0:0:
328,164,27113,6,0,P|336:296|188:288,1,280,0|4,0:0|0:0,0:0:0:0:
208,100,30113,6,0,P|132:108|48:64,2,160,4|0|0,0:0|0:0|0:0,0:0:0:0:
284,72,31988,2,0,P|332:64|388:72,2,80,8|0|8,0:0|0:0|0:0,0:0:0:0:
272,152,33113,6,0,P|312:296|464:312,2,320,0|2|2,0:0|0:0|0:0,0:0:0:0:
192,148,36488,6,0,P|140:232|40:276,2,200,8|0|0,0:0|0:0|0:0,0:0:0:0:
208,68,38738,1,8,0:0:0:0:
284,44,39113,6,0,P|344:40|416:44,2,120,2|0|8,0:0|0:0|0:0,0:0:0:0:
276,124,40613,2,0,P|396:208|392:400,1,320,2|4,0:0|0:0,0:0:0:0:
260,308,42863,6,0,P|184:292|128:216,1,160,4|4,0:0|0:0,0:0:0:0:
124,72,44363,2,0,P|200:88|256:164,1,160,4|4,0:0|0:0,0:0:0:0:
344,280,45863,5,4,0:0:0:0:
356,120,46613,2,0,B|388:80|400:48|400:48|440:44|500:20,2,160,2|0|4,0:0|0:0|0:0,0:0:0:0:
236,224,48863,5,0,0:0:0:0:
96,304,49613,2,0,P|76:236|100:136,1,160,0|0,0:0|0:0,0:0:0:0:
220,56,51113,5,4,0:0:0:0:
336,164,51863,1,0,0:0:0:0:
420,300,52613,2,0,P|472:256|488:144,1,160,2|2,0:0|0:0,0:0:0:0:
476,92,53738,1,0,0:0:0:0:
400,60,54113,6,0,P|360:56|308:64,1,80,2|0,0:0|0:0,0:0:0:0:
252,104,54863,2,0,P|196:120|120:112,2,120,8|8|0,0:0|0:0|0:0,0:0:0:0:
328,132,56363,2,0,L|332:240,1,80,0|8,0:0|0:0,0:0:0:0:
372,280,57113,6,0,P|428:296|504:288,2,120,2|0|8,0:0|0:0|0:0,0:0:0:0:
292,296,58613,2,0,L|196:296,1,80,0|0,0:0|0:0,0:0:0:0:
136,316,59363,1,0,0:0:0:0:
92,248,59738,1,8,0:0:0:0:
144,184,60113,6,0,P|152:128|144:56,2,120,2|0|8,0:0|0:0|0:0,0:0:0:0:
196,244,61613,2,0,P|284:268|404:244,1,200,2|8,0:0|0:0,0:0:0:0:
460,156,63113,6,0,B|380:132|328:72|328:72|248:104|156:88,1,320,2|4,0:0|0:0,0:0:0:0:
60,208,65363,1,0,0:0:0:0:
36,284,65738,1,0,0:0:0:0:
100,336,66113,6,0,P|143:326|191:306,1,80,4|8,0:0|0:0,0:0:0:0:
216,244,66863,2,0,P|256:240|304:244,1,80,0|8,0:0|0:0,0:0:0:0:
335,313,67613,2,0,P|372:327|412:336,1,80,0|8,0:0|0:0,0:0:0:0:
488,312,68363,2,0,P|496:272|480:212,1,80,0|8,0:0|0:0,0:0:0:0:
444,168,69113,6,0,L|444:40,2,120,2|0|8,0:0|0:0|0:0,0:0:0:0:
380,216,70613,2,0,P|337:219|288:216,1,80,0|8,0:0|0:0,0:0:0:0:
268,144,71363,2,0,P|228:142|188:145,1,80,0|8,0:0|0:0,0:0:0:0:
120,192,72113,6,0,P|92:264|144:352,1,160,2|0,0:0|0:0,0:0:0:0:
200,364,73238,1,8,0:0:0:0:
256,304,73613,1,2,0:0:0:0:
324,348,73988,2,0,P|368:340|408:324,2,80,8|0|8,0:0|0:0|0:0,0:0:0:0:
320,268,75113,6,0,P|432:160|336:32,1,320,2|4,0:0|0:0,0:0:0:0:
200,36,77363,2,0,P|160:44|112:76,1,80,4|8,0:0|0:0,0:0:0:0:
76,124,78113,6,0,L|76:240,1,80,2|8,0:0|0:0,0:0:0:0:
128,264,78863,2,0,P|162:283|201:291,1,80,0|8,0:0|0:0,0:0:0:0:
244,224,79613,2,0,L|244:128,1,80,0|8,0:0|0:0,0:0:0:0:
308,92,80363,2,0,P|347:100|382:120,1,80,0|8,0:0|0:0,0:0:0:0:
416,192,81113,6,0,P|436:300|492:372,2,200,2|2|8,0:0|0:0|0:0,0:0:0:0:
400,112,83363,1,0,0:0:0:0:
320,112,83738,1,8,0:0:0:0:
272,176,84113,6,0,B|192:148|112:160|112:160|88:76|16:4,2,320,2|2|2,0:0|0:0|0:0,0:0:0:0:
256,192,87488,12,4,90113,0:0:0:0:
