osu file format v14

[General]
AudioFilename: audio.mp3
AudioLeadIn: 0
PreviewTime: 105
Countdown: 0
SampleSet: Soft
StackLeniency: 0.4
Mode: 0
LetterboxInBreaks: 0
WidescreenStoryboard: 1

[Editor]
DistanceSpacing: 1.5
BeatDivisor: 4
GridSize: 4
TimelineZoom: 1

[Metadata]
Title:Ben Se
TitleUnicode:本色
Artist:Ling Yuan yousa
ArtistUnicode:泠鸢yousa
Creator:z1085684963
Version:HimE
Source:
Tags:古风 十个HTT呀啦索 怎么说呢 冷鸟 chinese 小语 洛天依
BeatmapID:1218883
BeatmapSetID:568016

[Difficulty]
HPDrainRate:5.3
CircleSize:5
OverallDifficulty:6.9
ApproachRate:8.5
SliderMultiplier:1.6
SliderTickRate:1

[Events]
//Background and Video events
0,0,"2.jpg",0,0
//Break Periods
//Storyboard Layer 0 (Background)
//Storyboard Layer 1 (Fail)
//Storyboard Layer 2 (Pass)
//Storyboard Layer 3 (Foreground)
//Storyboard Sound Samples

[TimingPoints]
105,750,4,2,5,10,1,0
105,-200,4,2,5,10,0,0
11820,947.7,4,2,5,10,1,0
12293,957.6,4,2,5,10,1,0
12755,849.800000000001,4,2,5,10,1,0
12755,-200,4,2,5,10,0,0
13610,750,4,2,5,10,1,0
16278,416.300000000001,4,2,5,10,1,0
16486,404.671428571429,4,2,5,10,1,0
16587,338.500000000001,4,2,2,20,1,0
16587,-200,4,2,2,20,0,0
16925,393,4,2,5,10,1,0
17320,393,4,2,5,10,1,0
17320,-200,4,2,5,10,0,0
17713,389.61038961039,4,2,5,10,1,0
18102,353.5,4,2,5,10,1,0
18455,375,4,2,5,10,1,0
18830,366.358490566038,4,2,5,10,1,0
18830,-200,4,2,5,10,0,0
19196,404,4,2,5,10,1,0
19596,373.5,4,2,5,10,1,0
22584,376.3,4,2,5,10,1,0
22584,-200,4,2,5,10,0,0
24089,368,4,2,5,10,1,0
24825,-200,4,2,5,10,0,0
25193,390,4,2,5,10,1,0
25583,381.9,4,2,5,10,1,0
27110,368,4,2,5,10,1,0
27478,357.37037037037,4,2,5,10,1,0
27831,348.3,4,2,5,10,1,0
27831,-200,4,2,5,10,0,0
28179,391,4,2,5,10,1,0
28179,-200,4,2,5,10,0,0
28573,375,4,2,1,60,1,0
29229,-100,4,2,1,40,0,0
29416,-100,4,2,1,60,0,0
29791,-100,4,2,1,40,0,0
29979,-100,4,2,2,40,0,0
30166,-100,4,2,1,60,0,0
30728,-100,4,2,1,40,0,0
30916,-100,4,2,1,60,0,0
31291,-100,4,2,1,40,0,0
31478,-100,4,2,1,60,0,0
32228,-100,4,2,1,40,0,0
32416,-100,4,2,1,60,0,0
32791,-100,4,2,1,40,0,0
32978,-100,4,2,2,40,0,0
33166,-100,4,2,1,60,0,0
33728,-100,4,2,1,40,0,0
33916,-100,4,2,1,60,0,0
34291,-100,4,2,1,40,0,0
34478,-100,4,2,1,60,0,0
35228,-100,4,2,1,40,0,0
35415,-100,4,2,1,60,0,0
35790,-100,4,2,1,40,0,0
35978,-100,4,2,2,40,0,0
36165,-100,4,2,1,60,0,0
36728,-100,4,2,1,40,0,0
36915,-100,4,2,1,60,0,0
37290,-100,4,2,1,40,0,0
37478,-100,4,2,1,60,0,0
38228,-100,4,2,1,40,0,0
38415,-100,4,2,1,60,0,0
38977,-100,4,2,2,60,0,0
39165,-100,4,2,1,60,0,0
39727,-100,4,2,1,40,0,0
40571,-200,4,2,1,40,0,0
45727,-200,4,2,1,60,0,0
46102,-200,4,2,1,40,0,0
46289,-200,4,2,1,60,0,0
46664,-200,4,2,1,40,0,0
57725,-200,4,2,1,60,0,0
58100,-200,4,2,1,40,0,0
58288,-200,4,2,1,60,0,0
58662,-200,4,2,1,40,0,0
64568,-200,4,2,11,70,0,0
64755,-200,4,2,3,40,0,0
66068,-200,4,2,12,70,0,0
66255,-200,4,2,3,40,0,0
66818,-200,4,2,18,70,0,0
67005,-200,4,2,3,40,0,0
67568,-200,4,2,13,70,0,0
67755,-200,4,2,3,40,0,0
69067,-200,4,2,14,70,0,0
69255,-200,4,2,3,40,0,0
70567,-200,4,2,15,70,0,0
70755,-200,4,2,3,40,0,0
72067,-200,4,2,14,70,0,0
72255,-200,4,2,3,40,0,0
72817,-200,4,2,18,70,0,0
73004,-200,4,2,3,40,0,0
73567,-200,4,2,13,70,0,0
73754,-200,4,2,3,40,0,0
75067,-200,4,2,16,70,0,0
75254,-200,4,2,3,40,0,0
75723,-200,4,2,17,60,0,0
76004,-200,4,2,3,60,0,0
76098,-200,4,2,3,40,0,0
76285,-200,4,2,3,60,0,0
76567,-200,4,2,19,70,0,0
76660,-200,4,2,3,40,0,0
78066,-200,4,2,12,70,0,0
78254,-200,4,2,3,40,0,0
78816,-200,4,2,18,70,0,0
79004,-200,4,2,3,40,0,0
79566,-200,4,2,13,70,0,0
79754,-200,4,2,3,40,0,0
81066,-200,4,2,14,70,0,0
81253,-200,4,2,3,40,0,0
82566,-200,4,2,15,70,0,0
82753,-200,4,2,3,40,0,0
84066,-200,4,2,20,70,0,0
84253,-200,4,2,3,40,0,0
85565,-200,4,2,21,70,0,0
85753,-200,4,2,3,40,0,0
87440,-200,4,2,1,40,0,0
88573,-100,4,2,2,80,0,1
89221,-100,4,2,2,60,0,1
89409,-100,4,2,2,80,0,1
89971,-100,4,2,2,40,0,1
90159,-100,4,2,1,80,0,1
90721,-100,4,2,2,60,0,1
90909,-100,4,2,2,80,0,1
92221,-100,4,2,2,60,0,1
92408,-100,4,2,2,80,0,1
92971,-100,4,2,2,40,0,1
93158,-100,4,2,1,80,0,1
93721,-100,4,2,2,60,0,1
93908,-100,4,2,2,80,0,1
95221,-100,4,2,2,60,0,1
95408,-100,4,2,2,80,0,1
95970,-100,4,2,2,40,0,1
96158,-100,4,2,1,80,0,1
96720,-100,4,2,2,60,0,1
96908,-100,4,2,2,80,0,1
98220,-100,4,2,2,60,0,1
98408,-100,4,2,2,80,0,1
98970,-100,4,2,2,40,0,1
99157,-100,4,2,1,80,0,1
99720,-100,4,2,2,60,0,1
99908,-100,4,2,2,80,0,1
101220,-100,4,2,2,60,0,1
101407,-100,4,2,2,80,0,1
101970,-100,4,2,2,40,0,1
102157,-100,4,2,1,80,0,1
102720,-100,4,2,2,60,0,1
102907,-100,4,2,2,80,0,1
104219,-100,4,2,2,60,0,1
104407,-100,4,2,2,80,0,1
104969,-100,4,2,2,40,0,1
105157,-100,4,2,1,80,0,1
105719,-100,4,2,2,60,0,1
105907,-100,4,2,2,80,0,1
107219,-100,4,2,2,60,0,1
107407,-100,4,2,2,80,0,1
107969,-100,4,2,2,40,0,1
108156,-100,4,2,1,80,0,1
108719,-100,4,2,2,60,0,1
108906,-100,4,2,2,80,0,1
110219,-100,4,2,2,60,0,1
110406,-100,4,2,2,80,0,1
110968,-100,4,2,2,40,0,1
111156,-100,4,2,2,80,0,1
111719,-200,4,2,2,60,0,1
111823,-200,4,2,2,60,0,0
111906,-200,4,2,2,40,0,0
112573,-100,4,2,2,80,0,1
113218,-100,4,2,2,60,0,1
113406,-100,4,2,2,80,0,1
113968,-100,4,2,2,40,0,1
114156,-100,4,2,1,80,0,1
114718,-100,4,2,2,60,0,1
114906,-100,4,2,2,80,0,1
116218,-100,4,2,2,60,0,1
116405,-100,4,2,2,80,0,1
116968,-100,4,2,2,40,0,1
117155,-100,4,2,1,80,0,1
117718,-100,4,2,2,60,0,1
117905,-100,4,2,2,80,0,1
119218,-100,4,2,2,60,0,1
119405,-100,4,2,2,80,0,1
119967,-100,4,2,2,40,0,1
120155,-100,4,2,1,40,0,1
120717,-100,4,2,2,60,0,1
120905,-100,4,2,2,80,0,1
122217,-100,4,2,2,60,0,1
122405,-100,4,2,2,80,0,1
122967,-100,4,2,2,40,0,1
123154,-100,4,2,1,40,0,1
124561,-100,4,2,2,80,0,1
125217,-100,4,2,2,60,0,1
125404,-100,4,2,2,80,0,1
125967,-100,4,2,2,40,0,1
126154,-100,4,2,1,80,0,1
126717,-100,4,2,2,60,0,1
126904,-100,4,2,2,80,0,1
128216,-100,4,2,2,60,0,1
128404,-100,4,2,2,80,0,1
128966,-100,4,2,2,40,0,1
129154,-100,4,2,1,80,0,1
129716,-100,4,2,2,60,0,1
129904,-100,4,2,2,80,0,1
131216,-100,4,2,2,60,0,1
131404,-100,4,2,2,80,0,1
131966,-100,4,2,2,40,0,1
132153,-100,4,2,1,80,0,1
132716,-100,4,2,2,60,0,1
132903,-100,4,2,2,80,0,1
134216,-100,4,2,2,60,0,1
134403,-100,4,2,2,80,0,1
134965,-100,4,2,2,40,0,1
135122,-100,4,2,2,40,0,1
136948,-100,4,2,1,80,0,0
139465,-100,4,2,4,20,0,0
139652,-200,4,2,4,40,0,0
142465,-100,4,2,4,20,0,0
142582,-200,4,2,4,40,0,0
145464,-200,4,2,4,20,0,0
145652,-200,4,2,4,40,0,0
158306,-200,4,2,1,80,0,0
159056,-200,4,2,1,40,0,0
183053,-200,4,2,11,70,0,0
183240,-200,4,2,3,40,0,0
184553,-200,4,2,12,70,0,0
184740,-200,4,2,3,40,0,0
185303,-200,4,2,18,70,0,0
185490,-200,4,2,3,40,0,0
186053,-200,4,2,13,70,0,0
186240,-200,4,2,3,40,0,0
187552,-200,4,2,14,70,0,0
187740,-200,4,2,3,40,0,0
189052,-200,4,2,15,70,0,0
189240,-200,4,2,3,40,0,0
190552,-200,4,2,14,70,0,0
190740,-200,4,2,3,40,0,0
191302,-200,4,2,18,70,0,0
191489,-200,4,2,3,40,0,0
192052,-200,4,2,13,70,0,0
192239,-200,4,2,3,40,0,0
193552,-200,4,2,16,70,0,0
193739,-200,4,2,3,40,0,0
194208,-200,4,2,17,60,0,0
194489,-200,4,2,3,60,0,0
194583,-200,4,2,3,40,0,0
194770,-200,4,2,3,60,0,0
195052,-200,4,2,19,70,0,0
195145,-200,4,2,3,40,0,0
196551,-200,4,2,12,70,0,0
196739,-200,4,2,3,40,0,0
197301,-200,4,2,18,70,0,0
197489,-200,4,2,3,40,0,0
198051,-200,4,2,13,70,0,0
198239,-200,4,2,3,40,0,0
199551,-200,4,2,14,70,0,0
199738,-200,4,2,3,40,0,0
201051,-200,4,2,15,70,0,0
201238,-200,4,2,3,40,0,0
202551,-200,4,2,20,70,0,0
202738,-200,4,2,3,40,0,0
204050,-200,4,2,21,70,0,0
204238,-200,4,2,3,40,0,0
205925,-200,4,2,1,40,0,0
207073,-100,4,2,2,80,0,1
207706,-100,4,2,2,60,0,1
207894,-100,4,2,2,80,0,1
208456,-100,4,2,2,40,0,1
208644,-100,4,2,1,80,0,1
209206,-100,4,2,2,60,0,1
209394,-100,4,2,2,80,0,1
210706,-100,4,2,2,60,0,1
210893,-100,4,2,2,80,0,1
211456,-100,4,2,2,40,0,1
211643,-100,4,2,1,80,0,1
212206,-100,4,2,2,60,0,1
212393,-100,4,2,2,80,0,1
213706,-100,4,2,2,60,0,1
213893,-100,4,2,2,80,0,1
214455,-100,4,2,2,40,0,1
214643,-100,4,2,1,80,0,1
215205,-100,4,2,2,60,0,1
215393,-100,4,2,2,80,0,1
216705,-100,4,2,2,60,0,1
216893,-100,4,2,2,80,0,1
217455,-100,4,2,2,40,0,1
217642,-100,4,2,1,80,0,1
218205,-100,4,2,2,60,0,1
218393,-100,4,2,2,80,0,1
219705,-100,4,2,2,60,0,1
219892,-100,4,2,2,80,0,1
220455,-100,4,2,2,40,0,1
220642,-100,4,2,1,80,0,1
221205,-100,4,2,2,60,0,1
221392,-100,4,2,2,80,0,1
222704,-100,4,2,2,60,0,1
222892,-100,4,2,2,80,0,1
223454,-100,4,2,2,40,0,1
223642,-100,4,2,1,80,0,1
224204,-100,4,2,2,60,0,1
224392,-100,4,2,2,80,0,1
225704,-100,4,2,2,60,0,1
225892,-100,4,2,2,80,0,1
226454,-100,4,2,2,40,0,1
226641,-100,4,2,1,80,0,1
227204,-100,4,2,2,60,0,1
227391,-100,4,2,2,80,0,1
228704,-100,4,2,2,60,0,1
228891,-100,4,2,2,80,0,1
229453,-100,4,2,2,40,0,1
229641,-100,4,2,2,80,0,1
230204,-100,4,2,2,60,0,1
230323,-100,4,2,2,60,0,0
230391,-100,4,2,2,40,0,0
231073,-100,4,2,2,80,0,1
231703,-100,4,2,2,60,0,1
231891,-100,4,2,2,80,0,1
232453,-100,4,2,2,40,0,1
232641,-100,4,2,1,40,0,1
233203,-100,4,2,2,60,0,1
233391,-100,4,2,2,80,0,1
234703,-100,4,2,2,60,0,1
234890,-100,4,2,2,80,0,1
235453,-100,4,2,2,40,0,1
235640,-100,4,2,1,80,0,1
236203,-100,4,2,2,60,0,1
236390,-100,4,2,2,80,0,1
237703,-100,4,2,2,60,0,1
237890,-100,4,2,2,80,0,1
238452,-100,4,2,2,40,0,1
238640,-100,4,2,1,40,0,1
239202,-100,4,2,2,60,0,1
239390,-100,4,2,2,80,0,1
240702,-100,4,2,2,60,0,1
240890,-100,4,2,2,80,0,1
241452,-100,4,2,2,40,0,1
241639,-100,4,2,2,40,0,1
242202,-100,4,2,2,60,0,1
242390,-100,4,2,2,80,0,1
243702,-100,4,2,2,60,0,1
243889,-100,4,2,2,80,0,1
244452,-100,4,2,2,40,0,1
244639,-100,4,2,1,80,0,1
245202,-100,4,2,2,60,0,1
245389,-100,4,2,2,80,0,1
246701,-100,4,2,2,60,0,1
246889,-100,4,2,2,80,0,1
247451,-100,4,2,2,40,0,1
247639,-100,4,2,1,80,0,1
248201,-100,4,2,2,60,0,1
248389,-100,4,2,2,80,0,1
249701,-100,4,2,2,60,0,1
249889,-100,4,2,2,80,0,1
250451,-100,4,2,2,40,0,1
250638,-100,4,2,1,80,0,1
251201,-100,4,2,2,60,0,1
251388,-100,4,2,2,80,0,1
252701,-100,4,2,2,60,0,1
252888,-100,4,2,2,80,0,1
253450,-100,4,2,2,40,0,1
253607,-100,4,2,2,40,0,1
254323,-100,4,2,2,80,0,0
255073,-100,4,2,2,80,0,1
256731,-100,4,2,1,80,0,1
257200,-100,4,2,2,60,0,1
257388,-100,4,2,2,80,0,1
260200,-100,4,2,2,60,0,1
260387,-100,4,2,2,80,0,1
261700,-100,4,2,2,60,0,1
261887,-100,4,2,2,80,0,1
262731,-100,4,2,1,80,0,1
263199,-100,4,2,2,60,0,1
263387,-100,4,2,2,80,0,1
264699,-100,4,2,2,60,0,1
264887,-100,4,2,2,80,0,1
267073,-200,4,2,2,80,0,0
274448,-200,4,2,10,60,0,0
274635,-200,4,2,2,20,0,0
280354,-200,4,2,1,80,0,0
294090,749,4,2,5,15,1,0
294839,767,4,2,5,15,1,0
295606,1010,4,2,5,15,1,0
296619,800.5,4,2,5,15,1,0
296819,798.9,4,2,5,15,1,0
297018,739.473684210526,4,2,5,15,1,0
297202,731,4,2,5,15,1,0
297384,939.642857142857,4,2,5,15,1,0
297501,1107.1,4,2,5,15,1,0
297639,3092.2,4,2,5,15,1,0
298025,2227.55714285714,4,2,5,15,1,0
298750,1310.04366812227,4,2,5,15,1,0
301585,962,4,2,5,15,1,0
302543,1212,4,2,5,15,1,0
303149,709,4,2,5,15,1,0
303858,750,4,2,5,15,1,0
304608,792,4,2,5,15,1,0
305400,845.5,4,2,5,15,1,0
306245,966.576923076923,4,2,5,15,1,0
307211,1477.28571428571,4,2,5,15,1,0
308687,708.9,4,2,5,15,1,0
309395,-100,4,2,5,10,0,0
311522,-100,4,2,5,5,0,0

[Colours]
Combo1 : 255,128,192
Combo2 : 141,243,223
Combo3 : 255,94,94
Combo4 : 0,255,255

[HitObjects]
64,192,105,6,0,L|56:140,1,40,2|0,0:0|0:0,0:0:0:0:
140,200,855,2,0,L|144:104,1,80,0|2,0:0|0:0,0:0:0:0:
72,64,1980,1,0,0:0:0:0:
57,152,2355,1,0,0:0:0:0:
312,280,3105,6,0,L|320:228,1,40,2|0,0:0|0:0,0:0:0:0:
236,288,3855,2,0,L|232:192,1,80,0|2,0:0|0:0,0:0:0:0:
304,152,4980,1,0,0:0:0:0:
319,240,5355,1,0,0:0:0:0:
424,288,5730,1,0,0:0:0:0:
500,200,6105,6,0,P|504:168|496:148,1,40,2|0,0:0|0:0,0:0:0:0:
444,40,6855,2,0,P|440:92|464:120,1,80,0|2,0:0|0:0,0:0:0:0:
508,68,7980,1,0,0:0:0:0:
364,48,8355,1,0,0:0:0:0:
172,248,9105,6,0,P|168:216|176:196,1,40,2|0,0:0|0:0,0:0:0:0:
228,88,9855,2,0,P|232:140|208:168,1,80,0|2,0:0|0:0,0:0:0:0:
164,116,10980,1,0,0:0:0:0:
308,96,11355,1,0,0:0:0:0:
200,48,11820,1,0,0:0:0:0:
84,72,12293,1,0,0:0:0:0:
12,168,12755,2,0,L|8:244,1,70
12,256,13610,2,0,L|16:276,2,20
416,348,16278,1,0,0:0:0:0:
404,352,16382,1,0,0:0:0:0:
392,356,16486,1,0,0:0:0:0:
328,332,16587,6,0,P|300:300|304:256,1,80
464,180,17320,2,0,P|492:212|488:256,1,80
484,256,18102,1,0,0:0:0:0:
392,160,18455,1,0,0:0:0:0:
392,160,18642,1,0,0:0:0:0:
392,160,18830,2,0,L|396:68,1,80
276,32,19596,5,0,0:0:0:0:
176,64,19969,1,0,0:0:0:0:
72,48,20343,1,0,0:0:0:0:
220,192,21090,1,0,0:0:0:0:
320,224,21463,1,0,0:0:0:0:
424,208,21837,1,0,0:0:0:0:
480,160,22210,1,0,0:0:0:0:
432,104,22584,6,0,P|384:88|356:100,1,80
252,300,23336,2,0,P|300:316|328:304,1,80
336,296,24089,1,0,0:0:0:0:
176,264,24457,1,0,0:0:0:0:
176,264,24641,1,0,0:0:0:0:
176,264,24825,2,0,L|92:272,1,80
128,360,25583,5,0,0:0:0:0:
0,344,25964,1,0,0:0:0:0:
16,216,26346,1,0,0:0:0:0:
248,276,27110,1,0,0:0:0:0:
376,260,27478,1,0,0:0:0:0:
360,132,27831,2,0,L|364:80,1,40,0|2,0:0|0:0,0:0:0:0:
296,0,28179,2,0,L|304:76,1,60
363,92,28570,5,0,0:0:0:0:
472,60,28760,1,0,0:0:0:0:
440,168,28948,2,0,P|432:216|440:252,1,80
512,292,29323,2,0,P|456:276|376:340,1,160,8|0,0:0|0:0,0:0:0:0:
312,372,29885,1,8,0:0:0:0:
500,308,30073,6,0,P|454:294|389:347,1,120,8|0,0:0|0:0,0:0:0:0:
212,352,30635,2,0,L|128:344,1,80,0|8,0:0|0:0,0:0:0:0:
0,332,31104,1,0,0:0:0:0:
12,336,31198,1,0,0:0:0:0:
64,280,31385,1,8,0:0:0:0:
27,215,31573,6,0,P|12:179|20:141,1,80,0|0,0:0|0:0,0:0:0:0:
104,68,31948,2,0,L|272:56,1,160,0|8,0:0|0:0,0:0:0:0:
252,52,32510,1,0,0:0:0:0:
240,48,32698,1,0,0:0:0:0:
228,44,32885,1,8,0:0:0:0:
160,16,33073,5,8,0:0:0:0:
108,176,33354,1,0,0:0:0:0:
108,176,33448,1,0,0:0:0:0:
276,144,33635,1,0,0:0:0:0:
232,216,33823,2,0,P|224:276|308:320,1,160,8|0,0:0|0:0,0:0:0:0:
300,321,34385,1,8,0:0:0:0:
464,312,34573,6,0,P|484:272|484:228,1,80,0|0,0:0|0:0,0:0:0:0:
412,256,34948,2,0,P|409:211|387:173,1,80
320,144,35323,1,8,0:0:0:0:
320,144,35698,1,0,0:0:0:0:
212,224,35885,1,8,0:0:0:0:
84,184,36073,6,0,P|56:140|80:56,1,120,8|0,0:0|0:0,0:0:0:0:
120,16,36635,1,0,0:0:0:0:
76,204,36823,2,0,P|36:136|50:59,1,160,8|0,0:0|0:0,0:0:0:0:
120,16,37385,1,8,0:0:0:0:
192,48,37573,6,0,L|296:56,1,80
468,24,37948,2,0,P|408:20|336:96,1,160,0|8,0:0|0:0,0:0:0:0:
280,124,38510,1,0,0:0:0:0:
280,124,38698,1,0,0:0:0:0:
280,124,38885,1,0,0:0:0:0:
324,276,39073,5,8,0:0:0:0:
256,320,39354,1,0,0:0:0:0:
256,332,39448,1,0,0:0:0:0:
188,276,39635,1,0,0:0:0:0:
216,208,39823,1,8,0:0:0:0:
296,208,40010,1,8,0:0:0:0:
216,208,40198,1,8,0:0:0:0:
296,208,40385,1,8,0:0:0:0:
336,360,40573,5,0,0:0:0:0:
336,360,40948,2,0,P|304:352|292:344,1,40,0|0,0:0|0:0,0:0:0:0:
392,320,41323,2,0,P|424:300|464:304,1,80,8|0,0:0|0:0,0:0:0:0:
504,360,41885,1,0,0:0:0:0:
472,232,42073,2,0,L|476:144,1,80,0|0,0:0|0:0,0:0:0:0:
380,160,42635,2,0,L|376:72,1,80,0|0,0:0|0:0,0:0:0:0:
464,64,43198,1,0,0:0:0:0:
304,248,43573,5,0,0:0:0:0:
304,248,43948,2,0,P|336:256|348:264,1,40,0|0,0:0|0:0,0:0:0:0:
248,288,44323,2,0,P|216:308|176:304,1,80,8|0,0:0|0:0,0:0:0:0:
136,248,44885,1,0,0:0:0:0:
32,306,45073,2,0,P|66:320|105:310,1,80,0|0,0:0|0:0,0:0:0:0:
136,248,45635,1,0,0:0:0:0:
148,364,45823,1,10,0:0:0:0:
148,364,46010,1,2,0:0:0:0:
148,364,46198,1,0,0:0:0:0:
136,248,46385,1,2,0:0:0:0:
76,208,46573,5,2,0:0:0:0:
76,208,46948,2,0,L|24:216,1,40,0|0,0:0|0:0,0:0:0:0:
40,128,47323,2,0,P|24:92|32:44,1,80,8|0,0:0|0:0,0:0:0:0:
92,4,47885,1,0,0:0:0:0:
164,32,48073,2,0,P|180:68|172:116,1,80,0|0,0:0|0:0,0:0:0:0:
112,160,48635,1,0,0:0:0:0:
40,128,48823,2,0,P|24:92|32:44,1,80,8|0,0:0|0:0,0:0:0:0:
112,160,49573,5,0,0:0:0:0:
296,168,49948,1,0,0:0:0:0:
288,180,50135,2,0,L|284:268,1,80,0|0,0:0|0:0,0:0:0:0:
220,288,50698,2,0,L|224:376,1,80,0|0,0:0|0:0,0:0:0:0:
216,212,51448,1,0,0:0:0:0:
280,332,51823,1,8,0:0:0:0:
292,104,52198,1,0,0:0:0:0:
216,212,52573,6,0,P|176:224|128:220,1,80,0|0,0:0|0:0,0:0:0:0:
112,292,53135,1,0,0:0:0:0:
12,368,53323,2,0,P|52:356|100:360,1,80,8|0,0:0|0:0,0:0:0:0:
192,304,54073,2,0,P|232:292|280:296,1,80,0|0,0:0|0:0,0:0:0:0:
372,240,54823,2,0,P|412:228|460:232,1,80,8|0,0:0|0:0,0:0:0:0:
420,320,55385,1,0,0:0:0:0:
449,229,55573,6,0,P|409:241|361:237,1,80,0|0,0:0|0:0,0:0:0:0:
269,293,56323,2,0,P|229:305|181:301,1,80,8|0,0:0|0:0,0:0:0:0:
89,357,57073,2,0,P|49:369|1:365,1,80,0|0,0:0|0:0,0:0:0:0:
40,292,57635,1,0,0:0:0:0:
20,168,57823,1,10,0:0:0:0:
20,168,58010,1,2,0:0:0:0:
20,168,58198,1,0,0:0:0:0:
40,292,58385,1,2,0:0:0:0:
116,284,58573,6,0,L|120:228,1,40,2|0,0:0|0:0,0:0:0:0:
168,192,58948,2,0,P|208:180|248:200,1,80,0|8,0:0|0:0,0:0:0:0:
340,296,59698,2,0,P|377:308|413:293,1,80,0|0,0:0|0:0,0:0:0:0:
484,172,60448,1,0,0:0:0:0:
484,172,60635,1,0,0:0:0:0:
468,96,60823,1,8,0:0:0:0:
468,96,61010,1,0,0:0:0:0:
452,24,61198,2,0,L|364:40,1,80,0|0,0:0|0:0,0:0:0:0:
208,104,61948,6,0,P|200:144|216:184,1,80,0|8,0:0|0:0,0:0:0:0:
256,192,62510,1,0,0:0:0:0:
299,179,62698,2,0,P|312:142|304:104,1,80,0|0,0:0|0:0,0:0:0:0:
138,38,63448,2,0,L|60:24,1,80,0|8,0:0|0:0,0:0:0:0:
0,52,64010,2,0,B|12:76|32:84|32:84|24:136,1,80,0|0,0:0|0:0,0:0:0:0:
8,184,64573,5,12,0:0:0:0:
34,186,64760,1,0,0:0:0:0:
59,179,64948,1,0,0:0:0:0:
81,163,65135,1,0,0:0:0:0:
176,240,65323,1,8,0:0:0:0:
202,238,65510,1,0,0:0:0:0:
227,245,65698,1,0,0:0:0:0:
249,261,65885,1,0,0:0:0:0:
192,360,66073,6,0,L|188:312,3,40,12|0|0|0,0:0|0:0|0:0|0:0,0:0:0:0:
56,312,66823,2,0,L|60:264,3,40,10|0|0|0,0:0|0:0|0:0|0:0,0:0:0:0:
156,168,67573,6,0,P|196:156|240:160,1,80,12|0,0:0|0:0,0:0:0:0:
148,160,68323,1,8,0:0:0:0:
172,150,68510,1,0,0:0:0:0:
199,147,68698,1,0,0:0:0:0:
225,150,68885,1,0,0:0:0:0:
300,224,69073,6,0,L|356:216,2,40,4|0|0,0:0|0:0|0:0,0:0:0:0:
496,104,69823,2,0,L|440:96,1,40,8|0,0:0|0:0,0:0:0:0:
432,108,70198,2,0,L|376:100,1,40,0|0,0:0|0:0,0:0:0:0:
352,44,70573,5,12,0:0:0:0:
328,32,70760,1,0,0:0:0:0:
301,29,70948,1,0,0:0:0:0:
276,37,71135,1,0,0:0:0:0:
132,144,71323,1,8,0:0:0:0:
155,155,71510,1,0,0:0:0:0:
182,158,71698,1,0,0:0:0:0:
207,150,71885,1,0,0:0:0:0:
164,36,72073,6,0,L|172:92,3,40,12|0|0|0,0:0|0:0|0:0|0:0,0:0:0:0:
28,124,72823,2,0,L|20:180,3,40,10|0|0|0,0:0|0:0|0:0|0:0,0:0:0:0:
40,52,73573,5,12,0:0:0:0:
12,240,73948,2,0,L|24:328,1,80,0|8,0:0|0:0,0:0:0:0:
40,324,74510,1,0,0:0:0:0:
56,336,74698,1,0,0:0:0:0:
68,352,74885,1,0,0:0:0:0:
192,296,75073,6,0,P|188:328|180:348,1,40,4|0,0:0|0:0,0:0:0:0:
132,376,75448,1,0,0:0:0:0:
140,248,75635,1,0,0:0:0:0:
272,344,75823,1,14,0:0:0:0:
272,344,76010,1,2,0:0:0:0:
272,344,76198,1,0,0:0:0:0:
140,248,76385,1,2,0:0:0:0:
184,192,76573,5,14,0:0:0:0:
193,167,76760,1,0,0:0:0:0:
193,140,76948,1,0,0:0:0:0:
182,116,77135,1,0,0:0:0:0:
20,24,77323,1,8,0:0:0:0:
9,48,77510,1,0,0:0:0:0:
9,75,77698,1,0,0:0:0:0:
19,100,77885,1,0,0:0:0:0:
120,68,78073,6,0,L|67:64,3,40,6|0|0|0,0:0|0:0|0:0|0:0,0:0:0:0:
248,32,78823,2,0,L|301:28,3,40,10|0|0|0,0:0|0:0|0:0|0:0,0:0:0:0:
424,100,79573,6,0,P|404:144|416:184,1,80,6|0,0:0|0:0,0:0:0:0:
432,108,80323,1,8,0:0:0:0:
417,129,80510,1,0,0:0:0:0:
412,155,80698,1,0,0:0:0:0:
418,181,80885,1,0,0:0:0:0:
472,240,81073,6,0,P|476:268|436:248,1,80,6|0,0:0|0:0,0:0:0:0:
384,360,81823,2,0,L|328:368,1,40,8|0,0:0|0:0,0:0:0:0:
320,356,82198,2,0,L|264:364,1,40,0|0,0:0|0:0,0:0:0:0:
216,320,82573,5,12,0:0:0:0:
192,332,82760,1,0,0:0:0:0:
165,335,82948,1,0,0:0:0:0:
140,327,83135,1,0,0:0:0:0:
20,264,83323,1,8,0:0:0:0:
43,253,83510,1,0,0:0:0:0:
70,250,83698,1,0,0:0:0:0:
95,258,83885,1,0,0:0:0:0:
52,372,84073,6,0,L|60:316,3,40,12|0|0|0,0:0|0:0|0:0|0:0,0:0:0:0:
176,256,84823,2,0,L|168:200,3,40,8|0|0|0,0:0|0:0|0:0|0:0,0:0:0:0:
256,100,85573,5,12,0:0:0:0:
240,92,85760,1,0,0:0:0:0:
160,140,85948,5,0,0:0:0:0:
144,132,86135,1,0,0:0:0:0:
224,84,86323,5,12,0:0:0:0:
208,76,86510,1,0,0:0:0:0:
128,124,86698,5,0,0:0:0:0:
112,116,86885,1,0,0:0:0:0:
20,64,87073,6,0,L|16:40,5,13.3333333333333
24,80,87448,1,0,0:0:0:0:
48,184,87635,1,0,0:0:0:0:
12,280,87823,2,0,L|4:332,1,40,0|0,0:0|0:0,0:0:0:0:
88,320,88198,2,0,L|96:372,1,40
164,288,88573,6,0,P|232:300|312:244,1,160,4|0,0:0|0:0,0:0:0:0:
392,180,89135,1,0,0:0:0:0:
500,144,89323,2,0,P|432:156|352:100,1,160,0|0,1:0|0:0,0:0:0:0:
336,16,89885,1,0,0:0:0:0:
264,80,90073,6,0,P|196:68|156:96,1,120,8|0,0:0|0:0,0:0:0:0:
116,232,90635,1,0,0:0:0:0:
36,176,90823,2,0,P|0:108|36:16,1,160,0|0,1:0|0:0,0:0:0:0:
21,31,91385,1,0,0:0:0:0:
116,232,91573,6,0,P|168:224|216:224,1,80,0|0,0:0|0:0,0:0:0:0:
324,324,91948,2,0,P|208:308|148:308,1,160,0|0,0:0|1:0,0:0:0:0:
4,328,92510,1,0,0:0:0:0:
80,368,92698,1,0,0:0:0:0:
80,368,92885,1,0,0:0:0:0:
80,368,93073,6,0,P|96:308|72:248,2,120,8|0|0,0:0|0:0|0:0,0:0:0:0:
192,272,93823,2,0,P|232:264|280:288,1,80,0|0,1:0|0:0,0:0:0:0:
328,328,94198,2,0,P|368:336|416:312,1,80,0|0,0:0|0:0,0:0:0:0:
480,236,94573,6,0,P|496:156|484:52,1,160,0|0,0:0|0:0,0:0:0:0:
372,24,95135,1,0,0:0:0:0:
244,48,95323,2,0,P|228:128|240:232,1,160,0|0,1:0|0:0,0:0:0:0:
264,316,95885,1,0,0:0:0:0:
156,292,96073,6,0,P|92:308|52:248,1,120,8|0,0:0|0:0,0:0:0:0:
36,292,96448,2,0,L|44:184,1,80,0|0,0:0|0:0,0:0:0:0:
20,88,96823,2,0,P|76:44|176:76,1,160,0|0,1:0|0:0,0:0:0:0:
284,160,97385,1,0,0:0:0:0:
308,80,97573,6,0,P|260:88|216:104,2,80,0|0|0,0:0|0:0|0:0,0:0:0:0:
364,140,98135,1,0,0:0:0:0:
444,156,98323,2,0,P|476:96|452:8,1,160,0|0,1:0|0:0,0:0:0:0:
280,248,99073,6,0,P|332:212|388:224,1,120,8|0,0:0|0:0,0:0:0:0:
500,316,99635,1,0,0:0:0:0:
424,376,99823,2,0,P|368:368|352:352,1,80,0|0,1:0|0:0,0:0:0:0:
240,372,100198,2,0,P|206:326|206:304,1,80,0|0,0:0|0:0,0:0:0:0:
44,240,100573,6,0,P|48:128|116:104,1,160,4|0,0:0|0:0,0:0:0:0:
192,128,101135,1,0,0:0:0:0:
244,28,101323,2,0,P|248:140|316:164,1,160,0|0,1:0|0:0,0:0:0:0:
360,208,101885,1,0,0:0:0:0:
368,112,102073,6,0,P|396:80|472:92,1,120,8|0,0:0|0:0,0:0:0:0:
492,232,102635,1,0,0:0:0:0:
416,292,102823,2,0,P|340:296|264:236,1,160,0|0,1:0|0:0,0:0:0:0:
180,316,103385,1,0,0:0:0:0:
1,262,103573,6,0,P|41:259|80:268,2,80,0|0|0,0:0|0:0|0:0,0:0:0:0:
32,360,104135,1,0,0:0:0:0:
180,316,104323,2,0,P|156:256|188:168,1,160,0|0,1:0|0:0,0:0:0:0:
176,60,104885,1,0,0:0:0:0:
280,104,105073,6,0,P|348:116|388:88,1,120,8|0,0:0|0:0,0:0:0:0:
504,172,105635,1,0,0:0:0:0:
464,260,105823,2,0,P|408:256|376:276,1,80,0|0,1:0|0:0,0:0:0:0:
400,352,106198,2,0,P|456:356|488:336,1,80,0|0,0:0|0:0,0:0:0:0:
316,312,106573,6,0,B|228:296|248:348|160:328,1,160,0|0,0:0|0:0,0:0:0:0:
92,368,107135,1,0,0:0:0:0:
16,292,107323,2,0,P|72:296|104:276,1,80,0|0,1:0|0:0,0:0:0:0:
80,200,107698,2,0,P|24:196|-8:216,1,80,0|0,0:0|0:0,0:0:0:0:
164,232,108073,6,0,B|232:244|212:204|285:219,1,120,8|0,0:0|0:0,0:0:0:0:
424,248,108635,1,0,0:0:0:0:
444,156,108823,1,0,1:0:0:0:
436,144,109198,2,0,P|428:96|428:52,1,80,0|0,0:0|0:0,0:0:0:0:
488,8,109573,6,0,P|428:48|320:16,1,160,4|0,0:0|0:0,0:0:0:0:
256,0,110135,1,0,0:0:0:0:
256,0,110323,1,0,1:0:0:0:
36,84,110698,6,0,P|96:44|204:76,1,160,4|8,0:0|0:0,0:0:0:0:
268,92,111260,1,0,0:0:0:0:
268,92,111448,1,0,0:0:0:0:
256,0,111635,1,0,0:0:0:0:
179,56,111823,2,0,L|175:104,1,40,0|8,1:0|0:3,0:0:0:0:
92,36,112198,2,0,L|96:84,1,40,8|0,0:3|0:0,0:0:0:0:
32,176,112573,6,0,P|108:156|188:224,1,160,4|0,0:0|0:0,0:0:0:0:
236,288,113135,1,0,0:0:0:0:
332,344,113323,2,0,P|256:324|176:392,1,160,0|0,1:0|0:0,0:0:0:0:
96,384,113885,1,0,0:0:0:0:
124,292,114073,6,0,P|104:248|24:240,1,120,8|0,0:0|0:0,0:0:0:0:
88,96,114635,1,0,0:0:0:0:
180,128,114823,2,0,P|256:124|328:60,1,160,0|0,1:0|0:0,0:0:0:0:
320,73,115385,1,0,0:0:0:0:
248,268,115573,6,0,P|252:312|260:352,1,80,0|0,0:0|0:0,0:0:0:0:
488,304,115948,2,0,P|408:296|328:300,1,160,0|0,0:0|1:0,0:0:0:0:
28,344,116698,1,0,0:0:0:0:
100,308,116885,1,0,0:0:0:0:
147,239,117073,6,0,P|89:231|37:258,2,120,8|0|0,0:0|0:0|0:0,0:0:0:0:
76,156,117823,2,0,P|60:100|68:64,1,80,0|0,1:0|0:0,0:0:0:0:
180,0,118198,2,0,P|196:56|188:92,1,80,0|0,0:0|0:0,0:0:0:0:
316,112,118573,6,0,P|380:80|480:96,1,160
504,212,119135,1,0,0:0:0:0:
456,332,119323,2,0,P|392:364|292:348,1,160,0|0,1:0|0:0,0:0:0:0:
280,244,119885,1,0,0:0:0:0:
196,320,120073,6,0,P|128:316|68:336,1,120,8|0,0:0|0:0,0:0:0:0:
64,340,120448,1,0,0:0:0:0:
92,232,120635,1,0,0:0:0:0:
24,144,120823,2,0,P|72:188|176:168,1,160,0|0,1:0|0:0,0:0:0:0:
272,64,121385,1,0,0:0:0:0:
296,144,121573,6,0,P|248:136|204:120,2,80,0|0|0,0:0|0:0|0:0,0:0:0:0:
352,84,122135,1,0,0:0:0:0:
432,64,122323,2,0,P|472:104|452:224,1,160,0|0,1:0|0:0,0:0:0:0:
280,268,123073,5,8,0:0:0:0:
424,252,123260,1,8,0:3:0:0:
424,252,123635,1,8,0:3:0:0:
424,252,124010,1,8,0:3:0:0:
356,376,124198,2,0,P|360:332|356:292,1,80,4|0,0:3|0:0,0:0:0:0:
280,268,124573,6,0,P|200:260|104:256,1,160,4|0,0:0|0:0,0:0:0:0:
12,280,125135,1,0,0:0:0:0:
16,168,125323,2,0,P|96:160|192:156,1,160,0|0,1:0|0:0,0:0:0:0:
272,176,125885,1,0,0:0:0:0:
244,84,126073,6,0,P|192:60|112:88,1,120,8|0,0:0|0:0,0:0:0:0:
0,12,126635,1,0,0:0:0:0:
44,96,126823,2,0,P|56:176|40:256,1,160,0|0,1:0|0:0,0:0:0:0:
136,316,127385,1,0,0:0:0:0:
316,287,127573,6,0,P|279:272|240:276,2,80,0|0|0,0:0|0:0|0:0,0:0:0:0:
380,360,128135,1,0,0:0:0:0:
472,332,128323,2,0,P|488:272|488:168,1,160,0|0,1:0|0:0,0:0:0:0:
460,64,128885,1,0,0:0:0:0:
376,140,129073,6,0,P|312:160|268:116,1,120,8|0,0:0|0:0,0:0:0:0:
192,12,129635,1,0,0:0:0:0:
124,80,129823,2,0,P|80:96|48:96,1,80,0|0,1:0|0:0,0:0:0:0:
47,95,130198,2,0,P|82:125|98:152,1,80,0|0,0:0|0:0,0:0:0:0:
140,228,130573,6,0,B|156:272|160:328|140:368|120:368|100:344|116:312,1,160,0|0,0:0|0:0,0:0:0:0:
111,334,131135,1,0,0:0:0:0:
232,296,131323,2,0,P|276:280|308:280,1,80,0|0,1:0|0:0,0:0:0:0:
309,281,131698,2,0,P|273:250|257:223,1,80,0|0,0:0|0:0,0:0:0:0:
226,140,132073,6,0,P|215:82|234:25,1,120,8|0,0:0|0:0,0:0:0:0:
368,76,132635,1,0,0:0:0:0:
444,16,132823,1,0,1:0:0:0:
400,204,133198,2,0,P|392:244|396:292,1,80,0|0,0:0|0:0,0:0:0:0:
460,360,133573,6,0,P|408:328|288:356,1,160,0|0,0:0|0:0,0:0:0:0:
36,280,134323,2,0,P|88:312|208:284,1,160,0|0,1:0|0:0,0:0:0:0:
268,256,134885,1,0,0:0:0:0:
224,380,135073,5,8,0:0:0:0:
224,380,135135,2,0,B|220:340|220:340|212:300,1,80
268,256,135448,2,0,B|272:216|272:216|280:176,1,80
240,28,135823,1,2,0:0:0:0:
240,28,136010,1,2,0:0:0:0:
240,28,136198,1,8,0:3:0:0:
320,116,136385,1,2,0:0:0:0:
388,92,136573,6,0,L|432:88,3,26.6666666666667,2|0|0|0,0:0|0:0|0:0|0:0,0:0:0:0:
404,328,139573,5,4,0:0:0:0:
320,360,140299,1,0,0:0:0:0:
256,300,141026,1,0,0:0:0:0:
192,360,141776,1,0,0:0:0:0:
108,328,142573,6,0,L|96:312,4,20,4|0|0|0|0,0:1|0:0|0:0|0:0|0:0,0:0:0:0:
192,360,143299,1,0,0:0:0:0:
256,300,144049,1,0,0:0:0:0:
320,360,144799,1,0,0:0:0:0:
404,328,145573,5,4,0:0:0:0:
256,220,146323,1,0,0:0:0:0:
88,320,147073,6,0,L|24:328,3,40,4|0|2|0,0:0|0:0|0:0|0:0,0:0:0:0:
144,204,147823,2,0,L|208:212,3,40,4|0|2|0,0:1|0:0|0:0|0:0,0:0:0:0:
72,244,148573,5,0,0:0:0:0:
64,219,148760,1,0,0:0:0:0:
63,192,148948,1,2,0:0:0:0:
70,166,149135,1,0,0:0:0:0:
154,278,149323,5,4,0:0:0:0:
162,303,149510,1,0,0:0:0:0:
163,330,149698,1,2,0:0:0:0:
156,356,149885,1,0,0:0:0:0:
48,324,150073,6,0,L|88:320,3,40,4|0|2|0,0:1|0:0|0:0|0:0,0:0:0:0:
183,208,150823,2,0,L|144:204,3,40,4|0|2|0,0:0|0:0|0:0|0:0,0:0:0:0:
70,166,151573,5,4,0:1:0:0:
63,192,151760,1,0,0:0:0:0:
64,219,151948,1,2,0:0:0:0:
72,244,152135,1,0,0:0:0:0:
156,356,152323,5,4,0:0:0:0:
163,330,152510,1,0,0:0:0:0:
162,303,152698,1,2,0:0:0:0:
154,278,152885,1,0,0:0:0:0:
183,208,153073,6,0,L|180:160,1,40,4|0,0:1|0:0,0:0:0:0:
328,208,153448,2,0,L|332:160,1,40,2|0,0:0|0:0,0:0:0:0:
192,176,153823,6,0,L|188:127,1,40,2|0,0:0|0:0,0:0:0:0:
320,176,154198,2,0,L|323:127,1,40,2|0,0:0|0:0,0:0:0:0:
200,143,154573,6,0,L|196:94,1,40,2|0,0:0|0:0,0:0:0:0:
312,143,154948,2,0,L|315:94,1,40,2|0,0:0|0:0,0:0:0:0:
184,96,155323,6,0,L|180:47,1,40,2|0,0:0|0:0,0:0:0:0:
328,96,155698,2,0,L|331:47,1,40,2|0,0:0|0:0,0:0:0:0:
168,49,156073,6,0,L|164:0,1,40,2|0,0:0|0:0,0:0:0:0:
344,49,156448,2,0,L|347:0,1,40,2|0,0:0|0:0,0:0:0:0:
200,4,156823,5,2,0:0:0:0:
192,68,157010,1,0,0:0:0:0:
320,68,157198,1,2,0:0:0:0:
312,4,157385,1,0,0:0:0:0:
256,40,157573,6,0,L|256:92,3,40,4|0|0|0,0:1|0:0|0:1|0:0,0:0:0:0:
224,136,158323,2,0,L|200:136,1,20,2|0,0:0|0:0,0:0:0:0:
288,136,158510,1,2,0:0:0:0:
188,192,158698,2,0,L|164:192,1,20,0|0,0:0|0:0,0:0:0:0:
324,192,158885,2,0,L|348:192,1,20,2|0,0:0|0:0,0:0:0:0:
256,192,159073,5,2,0:0:0:0:
256,192,159448,2,0,L|248:240,1,40,0|0,0:0|0:0,0:0:0:0:
276,296,159823,2,0,L|316:316,2,40,8|0|0,0:0|0:0|0:0,0:0:0:0:
208,288,160385,1,0,0:0:0:0:
208,288,160573,2,0,P|164:296|128:332,1,80,0|0,0:0|0:0,0:0:0:0:
68,304,161135,2,0,P|44:265|-1:245,1,80,0|0,0:0|0:0,0:0:0:0:
92,372,161698,1,0,0:0:0:0:
132,180,162073,5,0,0:0:0:0:
132,180,162448,2,0,L|140:132,1,40,0|0,0:0|0:0,0:0:0:0:
112,76,162823,2,0,L|72:56,2,40,8|0|0,0:0|0:0|0:0,0:0:0:0:
180,84,163385,1,0,0:0:0:0:
180,84,163573,2,0,P|224:76|260:40,1,80,0|0,0:0|0:0,0:0:0:0:
308,4,164135,1,0,0:0:0:0:
374,137,164323,1,10,0:0:0:0:
374,137,164510,1,2,0:0:0:0:
374,137,164698,1,0,0:0:0:0:
308,4,164885,1,2,0:0:0:0:
428,84,165073,5,2,0:0:0:0:
428,84,165448,2,0,L|472:80,1,40,0|0,0:0|0:0,0:0:0:0:
512,136,165823,2,0,P|520:180|500:224,1,80,8|0,0:0|0:0,0:0:0:0:
436,244,166385,1,0,0:0:0:0:
364,280,166573,2,0,P|352:317|360:356,1,80,0|0,0:0|0:0,0:0:0:0:
360,356,167135,1,0,0:0:0:0:
488,380,167323,2,0,P|499:342|491:303,1,80,8|0,0:0|0:0,0:0:0:0:
376,184,168073,5,0,0:0:0:0:
216,208,168448,1,0,0:0:0:0:
224,192,168635,2,0,B|216:152|216:152|224:108,1,80,0|0,0:0|0:0,0:0:0:0:
288,80,169198,2,0,B|296:40|296:40|288:-4,1,80,0|0,0:0|0:0,0:0:0:0:
223,113,169948,1,0,0:0:0:0:
336,208,170323,1,8,0:0:0:0:
140,244,170698,1,0,0:0:0:0:
368,352,171073,5,0,0:0:0:0:
364,364,171448,2,0,P|400:368|440:336,1,80,0|8,0:0|0:0,0:0:0:0:
504,232,172198,2,0,P|468:236|428:204,1,80,0|0,0:0|0:0,0:0:0:0:
364,100,172948,2,0,P|400:104|440:72,1,80,0|8,0:0|0:0,0:0:0:0:
268,44,173698,1,0,0:0:0:0:
360,104,174073,6,0,P|399:107|431:84,1,80,0|0,0:0|0:0,0:0:0:0:
499,236,174823,2,0,P|460:239|428:216,1,80,8|0,0:0|0:0,0:0:0:0:
360,368,175573,2,0,P|399:371|431:348,1,80,0|0,0:0|0:0,0:0:0:0:
472,292,176135,1,0,0:0:0:0:
484,164,176323,1,10,0:0:0:0:
484,164,176510,1,2,0:0:0:0:
484,164,176698,1,0,0:0:0:0:
472,292,176885,1,2,0:0:0:0:
380,288,177073,6,0,L|376:232,1,40,2|0,0:0|0:0,0:0:0:0:
316,212,177448,2,0,P|300:176|304:136,1,80,0|8,0:0|0:0,0:0:0:0:
152,36,178198,2,0,P|168:72|164:112,1,80,0|0,0:0|0:0,0:0:0:0:
32,216,178948,1,0,0:0:0:0:
20,212,179135,1,0,0:0:0:0:
88,260,179323,1,8,0:0:0:0:
97,251,179510,1,0,0:0:0:0:
24,288,179698,2,0,L|20:372,1,80,0|0,0:0|0:0,0:0:0:0:
304,320,180448,6,0,P|312:280|296:240,1,80,0|8,0:0|0:0,0:0:0:0:
256,232,181010,1,0,0:0:0:0:
213,245,181198,2,0,P|200:282|208:320,1,80,0|0,0:0|0:0,0:0:0:0:
491,367,181948,2,0,L|488:288,1,80,0|8,0:0|0:0,0:0:0:0:
484,220,182510,2,0,B|452:224|440:240|440:240|420:232|400:236,1,80,0|0,0:0|0:0,0:0:0:0:
404,304,183073,6,0,P|384:300|360:280,1,40,12|0,0:0|0:0,0:0:0:0:
348,264,183448,2,0,P|341:244|346:213,1,40,0|0,0:0|0:0,0:0:0:0:
440,104,183823,1,8,0:0:0:0:
448,136,184010,1,0,0:0:0:0:
428,160,184198,1,0,0:0:0:0:
420,128,184385,1,0,0:0:0:0:
304,40,184573,6,0,L|256:44,2,40,12|0|0,0:0|0:0|0:0,0:0:0:0:
208,80,185135,1,0,0:0:0:0:
104,115,185323,2,0,L|143:111,2,40,10|0|0,0:0|0:0|0:0,0:0:0:0:
208,80,185885,1,0,0:0:0:0:
40,80,186073,6,0,L|36:-8,2,80,12|0|8,0:0|0:0|0:0,0:0:0:0:
44,156,187010,1,0,0:0:0:0:
44,156,187198,1,0,0:0:0:0:
44,156,187385,1,0,0:0:0:0:
116,244,187573,6,0,L|117:283,1,40,4|0,0:0|0:0,0:0:0:0:
120,352,187948,1,0,0:0:0:0:
296,232,188323,2,0,L|297:192,1,40,8|0,0:0|0:0,0:0:0:0:
280,160,188698,2,0,L|281:120,1,40,0|0,0:0|0:0,0:0:0:0:
236,52,189073,5,12,0:0:0:0:
260,40,189260,1,0,0:0:0:0:
287,37,189448,1,0,0:0:0:0:
312,45,189635,1,0,0:0:0:0:
488,104,189823,1,8,0:0:0:0:
465,115,190010,1,0,0:0:0:0:
438,118,190198,1,0,0:0:0:0:
413,110,190385,1,0,0:0:0:0:
449,6,190573,6,0,L|445:62,3,40,12|0|0|0,0:0|0:0|0:0|0:0,0:0:0:0:
328,176,191323,2,0,L|332:232,3,40,10|0|0|0,0:0|0:0|0:0|0:0,0:0:0:0:
336,288,192073,5,12,0:0:0:0:
480,356,192448,2,0,L|484:264,1,80,0|8,0:0|0:0,0:0:0:0:
496,256,193010,1,0,0:0:0:0:
468,260,193198,1,0,0:0:0:0:
492,228,193385,1,0,0:0:0:0:
464,232,193573,1,4,0:0:0:0:
472,160,193760,6,0,L|468:104,2,40,0|0|0,0:0|0:0|0:0,0:0:0:0:
396,256,194323,1,14,0:0:0:0:
396,256,194510,1,2,0:0:0:0:
396,256,194698,1,0,0:0:0:0:
492,332,194885,1,2,0:0:0:0:
432,368,195073,6,0,L|388:376,1,40,14|0,0:0|0:0,0:0:0:0:
360,368,195448,2,0,L|316:376,1,40,0|0,0:0|0:0,0:0:0:0:
156,344,195823,1,8,0:0:0:0:
180,324,196010,1,0,0:0:0:0:
212,332,196198,1,0,0:0:0:0:
188,352,196385,1,0,0:0:0:0:
76,280,196573,6,0,L|72:232,2,40,6|0|0,0:0|0:0|0:0,0:0:0:0:
36,184,197135,1,0,0:0:0:0:
1,80,197323,2,0,L|5:119,2,40,10|0|0,0:0|0:0|0:0,0:0:0:0:
36,184,197885,1,0,0:0:0:0:
128,20,198073,6,0,L|36:28,2,80,6|0|8,0:0|0:0|0:0,0:0:0:0:
196,48,199010,1,0,0:0:0:0:
196,48,199198,1,0,0:0:0:0:
196,48,199385,1,0,0:0:0:0:
304,96,199573,6,0,L|385:87,1,80,6|0,0:0|0:0,0:0:0:0:
320,264,200323,2,0,L|280:260,1,40,8|0,0:0|0:0,0:0:0:0:
248,236,200698,2,0,L|208:232,1,40,0|0,0:0|0:0,0:0:0:0:
164,304,201073,5,12,0:0:0:0:
140,316,201260,1,0,0:0:0:0:
113,319,201448,1,0,0:0:0:0:
88,311,201635,1,0,0:0:0:0:
72,152,201823,1,8,0:0:0:0:
95,141,202010,1,0,0:0:0:0:
122,138,202198,1,0,0:0:0:0:
147,146,202385,1,0,0:0:0:0:
120,248,202573,6,0,L|116:192,3,40,12|0|0|0,0:0|0:0|0:0|0:0,0:0:0:0:
236,276,203323,2,0,L|248:228,3,40,8|0|0|0,0:0|0:0|0:0|0:0,0:0:0:0:
312,364,204073,5,12,0:0:0:0:
332,356,204260,1,0,0:0:0:0:
476,320,204448,1,0,0:0:0:0:
456,312,204635,1,0,0:0:0:0:
320,288,204823,1,12,0:0:0:0:
340,280,205010,1,0,0:0:0:0:
484,244,205198,1,0,0:0:0:0:
464,236,205385,1,0,0:0:0:0:
348,208,205573,6,0,L|344:184,5,13.3333333333333,0|0|0|0|0|0,0:0|0:0|0:0|0:0|0:0|0:0,0:0:0:0:
344,184,205948,1,0,0:0:0:0:
328,112,206135,1,0,0:0:0:0:
372,48,206323,1,0,0:0:0:0:
448,56,206510,1,0,0:0:0:0:
476,128,206698,1,0,0:0:0:0:
476,128,206885,1,0,0:0:0:0:
432,192,207073,6,0,P|424:268|488:336,1,160,4|0,0:0|0:0,0:0:0:0:
364,312,207635,1,0,0:0:0:0:
263,363,207823,2,0,P|255:286|305:226,1,160,0|0,1:0|0:0,0:0:0:0:
288,132,208385,1,0,0:0:0:0:
212,192,208573,6,0,P|164:212|104:180,1,120,8|0,0:0|0:0,0:0:0:0:
32,60,209135,1,0,0:0:0:0:
120,24,209323,2,0,P|180:48|156:136,1,160,0|0,1:0|0:0,0:0:0:0:
166,129,209885,1,0,0:0:0:0:
352,248,210073,6,0,P|344:196|344:148,1,80,0|0,0:0|0:0,0:0:0:0:
444,40,210448,2,0,P|428:156|428:216,1,160,0|0,0:0|1:0,0:0:0:0:
448,368,211010,1,0,0:0:0:0:
492,280,211198,1,0,0:0:0:0:
492,280,211385,1,0,0:0:0:0:
492,280,211573,6,0,P|424:276|376:308,2,120,8|0|0,0:0|0:0|0:0,0:0:0:0:
328,256,212323,2,0,P|312:312|328:352,1,80,0|0,1:0|0:0,0:0:0:0:
204,308,212698,2,0,P|199:347|215:383,1,80,0|0,0:0|0:0,0:0:0:0:
0,256,213073,6,0,P|79:261|157:245,1,160,0|0,0:0|0:0,0:0:0:0:
208,128,213635,1,0,0:0:0:0:
160,8,213823,2,0,P|80:2|2:18,1,160,0|0,1:0|0:0,0:0:0:0:
64,148,214385,1,0,0:0:0:0:
208,128,214573,6,0,P|260:136|264:204,1,120,8|0,0:0|0:0,0:0:0:0:
228,248,214948,2,0,P|188:244|124:244,1,80,0|0,0:0|0:0,0:0:0:0:
284,356,215323,2,0,P|336:328|440:328,1,160,0|0,1:0|0:0,0:0:0:0:
476,184,215885,1,0,0:0:0:0:
424,248,216073,6,0,P|462:259|501:265,2,80,0|0|0,0:0|0:0|0:0,0:0:0:0:
360,204,216635,1,0,0:0:0:0:
316,140,216823,2,0,P|320:56|396:20,1,160,0|0,1:0|0:0,0:0:0:0:
68,100,217573,6,0,P|125:91|172:126,1,120,8|0,0:0|0:0,0:0:0:0:
148,268,218135,1,0,0:0:0:0:
72,208,218323,2,0,P|16:216|0:232,1,80,0|0,1:0|0:0,0:0:0:0:
40,376,218698,2,0,P|96:368|112:352,1,80,0|0,0:0|0:0,0:0:0:0:
240,376,219073,6,0,P|296:323|371:341,1,160,4|0,0:0|0:0,0:0:0:0:
400,232,219635,1,0,0:0:0:0:
500,180,219823,6,0,P|424:197|368:145,1,160,0|0,1:0|0:0,0:0:0:0:
276,160,220385,1,0,0:0:0:0:
312,69,220573,6,0,P|290:16|234:3,1,120,8|0,0:0|0:0,0:0:0:0:
112,88,221135,1,0,0:0:0:0:
88,184,221323,2,0,P|80:264|92:356,1,160,0|0,1:0|0:0,0:0:0:0:
196,304,221885,1,0,0:0:0:0:
382,330,222073,6,0,P|343:339|304:336,2,80,0|0|0,0:0|0:0|0:0,0:0:0:0:
476,356,222635,1,0,0:0:0:0:
456,260,222823,2,0,P|448:168|504:112,1,160,0|0,1:0|0:0,0:0:0:0:
448,16,223385,1,0,0:0:0:0:
368,92,223573,6,0,P|304:120|252:116,1,120,8|0,0:0|0:0,0:0:0:0:
116,84,224135,1,0,0:0:0:0:
96,179,224323,2,0,P|109:216|101:255,1,80,0|0,1:0|0:0,0:0:0:0:
16,268,224698,2,0,P|2:230|10:191,1,80,0|0,0:0|0:0,0:0:0:0:
72,336,225073,6,0,B|160:320|140:372|228:352,1,160,0|0,0:0|0:0,0:0:0:0:
304,368,225635,1,0,0:0:0:0:
356,308,225823,2,0,P|342:270|350:231,1,80,0|0,1:0|0:0,0:0:0:0:
436,219,226198,2,0,P|449:256|441:295,1,80,0|0,0:0|0:0,0:0:0:0:
380,151,226573,6,0,B|314:162|329:124|263:139,1,120,8|0,0:0|0:0,0:0:0:0:
140,216,227135,1,0,0:0:0:0:
55,167,227323,2,0,P|48:128|46:88,1,80,0|0,1:0|0:0,0:0:0:0:
200,0,227698,2,0,P|197:39|190:79,1,80,0|0,0:0|0:0,0:0:0:0:
140,216,228073,6,0,P|140:296|156:392,1,160,4|0,0:0|0:0,0:0:0:0:
256,352,228635,1,0,0:0:0:0:
240,348,228823,1,0,1:0:0:0:
376,348,229198,2,0,P|376:268|360:172,1,160,4|8,0:0|0:0,0:0:0:0:
260,212,229760,1,0,0:0:0:0:
276,216,229948,1,0,0:0:0:0:
256,280,230135,1,0,0:0:0:0:
304,336,230323,1,0,1:0:0:0:
380,328,230510,1,8,0:3:0:0:
408,256,230698,1,8,0:3:0:0:
408,256,230885,1,0,0:0:0:0:
492,204,231073,6,0,P|416:224|336:156,1,160,4|0,0:0|0:0,0:0:0:0:
288,92,231635,1,0,0:0:0:0:
192,36,231823,2,0,P|268:56|348:-12,1,160,0|0,1:0|0:0,0:0:0:0:
448,32,232385,1,0,0:0:0:0:
376,120,232573,6,0,P|368:164|420:216,1,120,8|0,0:0|0:0,0:0:0:0:
496,336,233135,1,0,0:0:0:0:
404,308,233323,2,0,P|316:312|280:388,1,160,0|0,1:0|0:0,0:0:0:0:
280,367,233885,1,0,0:0:0:0:
112,248,234073,6,0,P|68:244|28:236,1,80,0|0,0:0|0:0,0:0:0:0:
76,8,234448,2,0,P|84:88|80:168,1,160,0|0,0:0|1:0,0:0:0:0:
132,368,235198,1,0,0:0:0:0:
60,332,235385,1,0,0:0:0:0:
212,360,235573,6,0,P|239:307|231:249,2,120,8|0|0,0:0|0:0|0:0,0:0:0:0:
328,252,236323,2,0,P|364:237|404:238,1,80,0|0,1:0|0:0,0:0:0:0:
483,356,236698,2,0,P|446:370|406:369,1,80
484,272,237073,6,0,P|516:208|500:108,1,160,0|0,0:0|0:0,0:0:0:0:
408,40,237635,1,0,0:0:0:0:
280,60,237823,2,0,P|248:124|264:224,1,160,0|0,1:0|0:0,0:0:0:0:
300,316,238385,1,0,0:0:0:0:
372,232,238573,6,0,P|440:228|500:248,1,120,8|0,0:0|0:0,0:0:0:0:
504,252,238948,1,0,0:0:0:0:
452,152,239135,1,0,0:0:0:0:
512,56,239323,2,0,P|464:100|360:80,1,160,0|0,1:0|0:0,0:0:0:0:
240,64,239885,1,0,0:0:0:0:
216,144,240073,6,0,P|264:136|308:120,2,80,0|0|0,0:0|0:0|0:0,0:0:0:0:
160,84,240635,1,0,0:0:0:0:
80,64,240823,2,0,P|40:104|60:224,1,160,0|0,1:0|0:0,0:0:0:0:
232,268,241573,5,8,0:0:0:0:
164,224,241760,1,8,0:3:0:0:
88,252,241948,1,0,0:0:0:0:
88,252,242135,1,8,0:3:0:0:
232,268,242323,1,0,1:0:0:0:
232,268,242510,1,8,0:3:0:0:
156,372,242698,2,0,P|152:328|156:288,1,80,4|0,0:3|0:0,0:0:0:0:
232,268,243073,6,0,P|312:260|408:256,1,160,4|0,0:0|0:0,0:0:0:0:
500,280,243635,1,0,0:0:0:0:
464,172,243823,2,0,P|384:168|304:160,1,160,0|0,1:0|0:0,0:0:0:0:
280,68,244385,1,0,0:0:0:0:
208,132,244573,6,0,P|144:124|92:160,1,120,8|0,0:0|0:0,0:0:0:0:
80,296,245135,1,0,0:0:0:0:
172,260,245323,2,0,P|232:296|320:256,1,160,0|0,1:0|0:0,0:0:0:0:
376,316,245885,1,0,0:0:0:0:
392,236,246073,6,0,P|429:221|468:225,2,80,0|0|0,0:0|0:0|0:0,0:0:0:0:
296,348,246635,1,0,0:0:0:0:
204,320,246823,2,0,P|188:260|188:156,1,160,0|0,1:0|0:0,0:0:0:0:
80,200,247385,1,0,0:0:0:0:
96,88,247573,6,0,P|88:36|16:56,1,120,8|0,0:0|0:0,0:0:0:0:
80,200,248135,1,0,0:0:0:0:
187,162,248323,2,0,P|232:156|263:178,1,80,0|0,1:0|0:0,0:0:0:0:
340,168,248698,2,0,P|369:142|408:141,1,80,0|0,0:0|0:0,0:0:0:0:
460,196,249073,6,0,B|500:192|540:144|532:84|476:56|456:100,1,160
482,81,249635,1,0,0:0:0:0:
512,288,249823,2,0,P|467:282|436:304,1,80,0|0,1:0|0:0,0:0:0:0:
359,294,250198,2,0,P|329:268|290:267,1,80,0|0,0:0|0:0,0:0:0:0:
232,316,250573,6,0,B|202:313|173:277|178:233|220:212,1,120,8|0,0:0|0:0,0:0:0:0:
356,188,251135,1,0,0:0:0:0:
436,240,251323,1,0,1:0:0:0:
312,384,251698,2,0,P|313:344|320:304,1,80,0|0,0:0|0:0,0:0:0:0:
372,168,252073,6,0,P|372:88|356:-8,1,160,0|0,0:0|0:0,0:0:0:0:
136,36,252823,2,0,P|136:116|152:212,1,160,0|0,1:0|0:0,0:0:0:0:
212,236,253385,1,0,0:0:0:0:
260,172,253573,5,8,0:0:0:0:
260,172,253635,2,0,B|288:164|288:164|280:220,1,80
252,104,253948,2,0,B|224:96|224:96|232:152,1,80
240,36,254323,1,0,0:0:0:0:
240,36,254510,1,0,0:0:0:0:
160,156,254698,1,8,0:3:0:0:
160,156,254885,1,8,0:3:0:0:
124,92,255073,6,0,L|28:84,1,80,4|0,0:0|0:0,0:0:0:0:
32,12,255448,1,0,0:0:0:0:
16,16,255635,2,0,P|36:108|16:192,1,160,0|0,0:0|0:0,0:0:0:0:
120,216,256198,2,0,L|216:208,1,80,0|0,0:0|0:0,0:0:0:0:
36,280,256573,5,8,0:0:0:0:
36,280,256854,1,0,0:0:0:0:
36,280,257135,1,0,0:0:0:0:
104,308,257323,2,0,P|120:348|116:392,1,80,0|0,1:0|0:0,0:0:0:0:
264,256,257698,2,0,P|280:216|276:172,1,80,0|0,0:0|0:0,0:0:0:0:
208,88,258073,5,0,0:0:0:0:
196,92,258260,1,0,0:0:0:0:
152,80,258448,1,0,0:0:0:0:
140,84,258635,1,0,0:0:0:0:
296,320,259198,5,0,0:0:0:0:
308,324,259385,1,0,0:0:0:0:
352,312,259573,1,8,0:0:0:0:
364,316,259760,1,0,0:0:0:0:
436,280,260135,5,0,0:0:0:0:
352,152,260323,2,0,P|340:88|384:36,1,120,0|0,1:0|0:0,0:0:0:0:
384,40,260698,1,0,0:0:0:0:
480,24,260885,1,0,0:0:0:0:
352,152,261073,5,0,0:0:0:0:
352,152,261448,2,0,L|452:160,1,80,0|0,0:0|0:0,0:0:0:0:
312,216,261823,2,0,P|264:180|148:216,1,160,0|0,1:0|0:0,0:0:0:0:
76,256,262385,1,0,0:0:0:0:
16,160,262573,6,0,L|12:40,2,120,8|0|0,0:0|0:0|0:0,0:0:0:0:
76,256,263323,2,0,P|57:297|13:318,1,80,0|0,1:0|0:0,0:0:0:0:
29,315,263698,2,0,P|74:310|114:337,1,80,0|0,0:0|0:0,0:0:0:0:
160,384,264073,5,0,0:0:0:0:
440,336,264448,2,0,L|444:248,1,80,0|0,0:0|0:0,0:0:0:0:
428,340,264823,1,0,1:0:0:0:
416,344,265198,1,0,0:0:0:0:
336,340,265385,1,0,0:0:0:0:
196,224,265573,6,0,B|188:204|188:204|192:140,1,80,8|8,0:0|0:3,0:0:0:0:
316,148,265948,2,0,B|324:128|324:128|320:69,1,80,0|8,0:0|0:3,0:0:0:0:
256,0,266323,5,2,0:0:0:0:
256,0,266510,1,2,0:0:0:0:
256,0,266698,1,8,0:3:0:0:
256,96,266885,1,2,0:0:0:0:
256,192,267073,1,2,0:0:0:0:
256,192,267166,12,12,274573,0:0:0:0:
184,236,276073,6,0,L|92:244,1,80
40,272,276823,2,0,P|16:228|24:192,1,80
132,120,277573,6,0,L|224:128,1,80
276,156,278323,2,0,P|300:112|292:76,1,80
256,8,279073,1,0,0:0:0:0:
312,316,280385,5,0,0:0:0:0:
312,316,280479,1,0,0:0:0:0:
312,316,280573,1,8,0:3:0:0:
376,236,280948,2,0,L|372:280,1,40,0|8,0:0|0:3,0:0:0:0:
427,367,281510,2,0,L|423:327,1,40,0|8,0:0|0:3,0:0:0:0:
488,288,281885,1,0,0:0:0:0:
416,60,282073,6,0,P|376:52|344:84,1,80,4|0,0:0|0:0,0:0:0:0:
344,84,282635,1,0,0:0:0:0:
228,143,283010,1,0,0:0:0:0:
228,143,283198,1,0,0:0:0:0:
357,164,283573,1,0,0:0:0:0:
357,164,283760,1,0,0:0:0:0:
264,72,284135,1,8,0:3:0:0:
264,72,284323,1,8,0:3:0:0:
285,200,284698,2,0,L|280:264,1,60,0|0,0:0|0:0,0:0:0:0:
272,272,285073,6,0,P|232:280|200:248,1,80,4|0,0:0|0:0,0:0:0:0:
200,248,285635,1,0,0:0:0:0:
213,168,286198,1,0,0:0:0:0:
84,189,286760,1,0,0:0:0:0:
120,260,287135,1,8,0:3:0:0:
120,260,287323,1,8,0:3:0:0:
141,132,287698,2,0,L|136:68,1,60,0|0,0:0|0:0,0:0:0:0:
140,56,288073,6,0,P|180:48|212:80,1,80,4|0,0:0|0:0,0:0:0:0:
212,80,288635,1,0,0:0:0:0:
328,139,289010,1,0,0:0:0:0:
328,139,289198,1,0,0:0:0:0:
199,160,289573,1,0,0:0:0:0:
199,160,289760,1,0,0:0:0:0:
292,68,290135,1,8,0:3:0:0:
292,68,290323,1,8,0:3:0:0:
271,196,290698,2,0,L|276:260,1,60,0|0,0:0|0:0,0:0:0:0:
284,272,291073,6,0,P|324:280|356:248,1,80,4|0,0:0|0:0,0:0:0:0:
356,248,291635,1,0,0:0:0:0:
472,189,292198,1,0,0:0:0:0:
436,260,292385,1,0,0:0:0:0:
343,168,293135,1,8,0:3:0:0:
436,260,293323,1,8,0:3:0:0:
472,189,293698,2,0,P|488:168|492:148,1,40
415,132,294090,6,0,L|420:48,1,80
360,16,294839,1,0,0:0:0:0:
292,28,295222,1,0,0:0:0:0:
228,40,295606,2,0,L|200:36,2,20
124,288,296447,5,0,0:0:0:0:
120,276,296531,1,0,0:0:0:0:
96,268,296619,1,0,0:0:0:0:
92,256,296719,1,0,0:0:0:0:
72,252,296819,1,0,0:0:0:0:
68,240,296918,1,0,0:0:0:0:
84,220,297018,5,0,0:0:0:0:
88,232,297110,1,0,0:0:0:0:
112,240,297202,1,0,0:0:0:0:
116,252,297293,1,0,0:0:0:0:
136,256,297384,1,0,0:0:0:0:
140,268,297501,1,0,0:0:0:0:
184,320,297639,5,0,0:0:0:0:
304,356,298025,1,0,0:0:0:0:
472,312,298750,1,0,0:0:0:0:
468,324,301585,5,0,0:0:0:0:
256,192,301825,12,0,313649,0:0:0:0:
