osu file format v14

[General]
AudioFilename: audio.mp3
AudioLeadIn: 0
PreviewTime: 206030
Countdown: 0
SampleSet: Soft
StackLeniency: 0.4
Mode: 0
LetterboxInBreaks: 0
WidescreenStoryboard: 1

[Editor]
Bookmarks: 159068,183068
DistanceSpacing: 0.3
BeatDivisor: 4
GridSize: 8
TimelineZoom: 2.751902

[Metadata]
Title:Ben Se
TitleUnicode:本色
Artist:Ling Yuan yousa
ArtistUnicode:泠鸢yousa
Creator:melloe
Version:Evening of a Hundred Sighs
Source:
Tags:古风 十个htt呀啦索 怎么说呢 冷鸟 chinese 小语 洛天依
BeatmapID:1246711
BeatmapSetID:573120

[Difficulty]
HPDrainRate:5
CircleSize:4.2
OverallDifficulty:8
ApproachRate:9
SliderMultiplier:3.59999990463257
SliderTickRate:1

[Events]
//Background and Video events
0,0,"f934db9672a595b25fb8d5024533a33e.jpg",0,0
//Break Periods
2,136945,138955
2,267247,270947
//Storyboard Layer 0 (Background)
//Storyboard Layer 1 (Fail)
//Storyboard Layer 2 (Pass)
//Storyboard Layer 3 (Foreground)
//Storyboard Sound Samples

[TimingPoints]
90,750,4,2,16,5,1,0
90,-266.666666666666,4,2,16,5,0,0
6090,-200,4,2,16,5,0,0
11805,1895.40522184139,4,2,1,10,1,0
12278,1915.18904511866,4,2,1,10,1,0
12740,1699.59634586786,4,2,1,10,1,0
13595,1500,4,2,1,10,1,0
16263,832.599027246803,4,2,1,10,1,0
16471,809.345239701082,4,2,1,10,1,0
16572,676.998414695379,4,2,1,10,1,0
16572,-133.333333333333,4,2,1,10,0,0
16910,785.998742402012,4,2,1,10,1,0
17305,785.998742402012,4,2,1,10,1,0
17305,-133.333333333333,4,2,1,10,0,0
17698,779.220779220779,4,2,1,10,1,0
18087,707.001078176644,4,2,1,10,1,0
18440,750,4,2,1,10,1,0
18815,732.717036892303,4,2,1,10,1,0
19181,807.999192000808,4,2,1,10,1,0
19581,746.998001780345,4,2,2,5,1,0
19581,-400,4,2,21,20,0,0
19674,-400,4,2,21,5,0,0
19954,-300.666666666667,4,2,1,10,0,0
20328,-200.333333333333,4,2,1,10,0,0
21075,-250.333333333333,4,2,1,10,0,0
21448,-300.666666666667,4,2,1,5,0,0
21822,-400,4,2,1,5,0,0
22569,752.601177820843,4,2,1,10,1,0
22569,-200,4,2,1,10,0,0
24074,736.002158939666,4,2,1,10,1,0
25178,780.00078000078,4,2,1,10,1,0
25568,763.800928018127,4,2,1,5,1,0
25568,-400,4,2,21,20,0,0
25663,-400,4,2,21,5,0,0
25949,-300.666666666667,4,2,1,8,0,0
26331,-200.333333333333,4,2,1,10,0,0
27095,736.002158939666,4,2,1,10,1,0
27095,-300.333333333333,4,2,1,10,0,0
27463,714.740936191503,4,2,1,10,1,0
27463,-400.666666666667,4,2,1,10,0,0
27816,696.601166806954,4,2,1,10,1,0
27816,-100,4,2,1,25,0,0
28164,781.998396903286,4,2,1,10,1,0
28164,-83.3333333333333,4,2,1,10,0,0
28464,-83.3333333333333,4,2,1,5,0,0
28558,750,4,2,1,25,1,0
28558,-100,4,2,22,25,0,0
28745,-100,4,2,1,25,0,0
29683,-76.9230769230769,4,2,1,25,0,0
30058,-76.9230769230769,4,2,23,25,0,0
30339,-76.9230769230769,4,2,1,25,0,0
31183,-76.9230769230769,4,2,27,20,0,0
31370,-76.9230769230769,4,2,1,25,0,0
31558,-111.111111111111,4,2,28,15,0,0
31745,-111.111111111111,4,2,1,25,0,0
32308,-200,4,2,1,15,0,0
33339,-200,4,2,1,25,0,0
34558,-200,4,2,22,25,0,0
34933,-200,4,2,1,25,0,0
36058,-111.111111111111,4,2,23,25,0,0
36245,-111.111111111111,4,2,1,25,0,0
37558,-111.111111111111,4,2,25,35,0,0
37745,-111.111111111111,4,2,1,25,0,0
38683,-200,4,2,1,15,0,0
39058,-76.9230769230769,4,2,1,25,0,0
39433,-200,4,2,1,15,0,0
39808,-200,4,2,1,25,0,0
40933,-100,4,2,1,25,0,0
41308,-125,4,2,1,25,0,0
42620,-100,4,2,1,25,0,0
44308,-125,4,2,1,25,0,0
49933,-100,4,2,1,25,0,0
50683,-90.9090909090909,4,2,1,25,0,0
51433,-125,4,2,1,25,0,0
52183,-125,4,2,1,5,0,0
52276,-125,4,2,1,10,0,0
52370,-125,4,2,1,15,0,0
52558,-125,4,2,1,35,0,0
52933,-125,4,2,1,25,0,0
59308,-125,4,2,1,25,0,0
64558,-125,4,2,2,50,0,0
65308,-125,4,2,3,50,0,0
66058,-125,4,2,2,50,0,0
66808,-125,4,2,4,50,0,0
67558,-125,4,2,5,50,0,0
70558,-125,4,2,2,50,0,0
71308,-125,4,2,3,50,0,0
72058,-125,4,2,6,50,0,0
72808,-125,4,2,9,50,0,0
73933,-125,4,2,5,50,0,0
74120,-125,4,2,1,50,0,0
75808,-125,4,2,4,50,0,0
75995,-125,4,2,1,50,0,0
76370,-125,4,2,10,50,0,0
76558,-125,4,2,7,50,0,0
78808,-125,4,2,3,50,0,0
79558,-125,4,2,8,50,0,0
81058,-125,4,2,11,50,0,0
81433,-125,4,2,8,50,0,0
82558,-125,4,2,2,50,0,0
83308,-125,4,2,3,50,0,0
83683,-125,4,2,12,50,0,0
84058,-125,4,2,13,50,0,0
84245,-125,4,2,2,50,0,0
84808,-125,4,2,14,50,0,0
85933,-125,4,2,5,50,0,0
86308,-125,4,2,1,65,0,0
86495,-125,4,2,1,55,0,0
87058,-200,4,2,1,30,0,0
87433,-133.333333333333,4,2,1,22,0,0
87808,-100,4,2,1,25,0,0
88183,-83.3333333333333,4,2,1,33,0,0
88370,-66.6666666666667,4,2,1,40,0,0
88558,-76.9230769230769,4,2,16,80,0,1
88745,-76.9230769230769,4,2,1,40,0,1
89308,-71.4285714285714,4,2,1,40,0,1
89589,-71.4285714285714,4,2,1,5,0,1
89683,-166.666666666667,4,2,1,40,0,1
90058,-71.4285714285714,4,2,1,40,0,1
90339,-71.4285714285714,4,2,1,5,0,1
90433,-166.666666666667,4,2,1,40,0,1
90808,-166.666666666667,4,2,1,40,0,1
91183,-166.666666666667,4,2,1,20,0,1
91464,-166.666666666667,4,2,1,5,0,1
91558,-76.9230769230769,4,2,1,40,0,1
94558,-71.4285714285714,4,2,1,40,0,1
94839,-71.4285714285714,4,2,1,5,0,1
94933,-166.666666666667,4,2,1,40,0,1
95308,-71.4285714285714,4,2,1,40,0,1
95589,-71.4285714285714,4,2,1,5,0,1
95683,-166.666666666667,4,2,1,40,0,1
96058,-71.4285714285714,4,2,1,40,0,1
96339,-71.4285714285714,4,2,1,30,0,1
96433,-166.666666666667,4,2,1,40,0,1
96808,-83.3333333333333,4,2,1,40,0,1
97183,-142.857142857143,4,2,1,40,0,1
97839,-142.857142857143,4,2,1,5,0,1
98120,-142.857142857143,4,2,1,30,0,1
98308,-76.9230769230769,4,2,1,40,0,1
99058,-76.9230769230769,4,2,1,70,0,1
99808,-76.9230769230769,4,2,1,70,0,1
100558,-100,4,2,1,40,0,1
102058,-200,4,2,1,40,0,1
102433,-200,4,2,1,20,0,1
102995,-200,4,2,1,40,0,1
103183,-100,4,2,1,40,0,1
106558,-50,4,2,1,40,0,1
106839,-50,4,2,1,5,0,1
106933,-100,4,2,1,40,0,1
108058,-50,4,2,1,40,0,1
108339,-50,4,2,1,5,0,1
108433,-100,4,2,1,40,0,1
108808,-400,4,2,1,40,0,1
109183,-400,4,2,1,20,0,1
109370,-400,4,2,1,40,0,1
109558,-111.111111111111,4,2,1,40,0,1
110308,-125,4,2,1,40,0,1
111058,-142.857142857143,4,2,1,40,0,1
111808,-111.111111111111,4,2,1,40,0,0
112558,-71.4285714285714,4,2,1,40,0,1
113308,-66.6666666666667,4,2,1,40,0,1
113589,-66.6666666666667,4,2,1,5,0,1
113683,-166.666666666667,4,2,1,40,0,1
114058,-66.6666666666667,4,2,1,40,0,1
114339,-66.6666666666667,4,2,1,5,0,1
114433,-166.666666666667,4,2,1,40,0,1
114808,-111.111111111111,4,2,1,40,0,1
115183,-111.111111111111,4,2,1,20,0,1
115276,-111.111111111111,4,2,1,5,0,1
115370,-142.857142857143,4,2,1,40,0,1
115745,-142.857142857143,4,2,1,20,0,1
115839,-142.857142857143,4,2,1,5,0,1
115933,-100,4,2,1,40,0,1
116683,-71.4285714285714,4,2,1,40,0,1
118558,-66.6666666666667,4,2,1,40,0,1
118839,-66.6666666666667,4,2,1,5,0,1
118933,-125,4,2,1,40,0,1
119308,-66.6666666666667,4,2,1,40,0,1
119589,-66.6666666666667,4,2,1,5,0,1
119683,-125,4,2,1,40,0,1
120058,-66.6666666666667,4,2,1,40,0,1
120433,-125,4,2,1,40,0,1
120808,-76.9230769230769,4,2,1,40,0,1
121183,-155.038759689922,4,2,1,40,0,1
121839,-155.038759689922,4,2,1,5,0,1
122120,-155.038759689922,4,2,1,30,0,1
122308,-71.4285714285714,4,2,1,40,0,1
124558,-90.9090909090909,4,2,1,40,0,1
124933,-111.111111111111,4,2,1,40,0,1
125308,-90.9090909090909,4,2,1,40,0,1
125683,-111.111111111111,4,2,1,40,0,1
126058,-200,4,2,1,40,0,1
126433,-200,4,2,1,20,0,1
126995,-200,4,2,1,40,0,1
127183,-100,4,2,1,40,0,1
130558,-50,4,2,1,40,0,1
130839,-50,4,2,1,5,0,1
130933,-100,4,2,1,40,0,1
132058,-50,4,2,1,40,0,1
132339,-50,4,2,1,5,0,1
132433,-100,4,2,1,40,0,1
132808,-400,4,2,1,40,0,1
133183,-400,4,2,1,20,0,1
133464,-400,4,2,1,5,0,1
133558,-111.111111111111,4,2,1,40,0,1
134683,-83.3333333333333,4,2,1,40,0,1
135058,-100,4,2,1,40,0,1
136558,-100,4,2,1,40,0,0
139555,740.539606526622,4,2,1,30,1,0
139555,-100,4,2,15,20,0,0
142517,755.915035150049,4,2,1,20,1,0
142517,-100,4,2,15,20,0,0
147068,750,4,2,1,25,1,0
147068,-100,4,2,15,25,0,0
150058,-200,4,2,15,25,0,0
159422,750,4,2,1,25,1,0
159797,-125,4,2,1,25,0,0
161297,-100,4,2,1,25,0,0
162797,-125,4,2,1,25,0,0
168422,-100,4,2,1,25,0,0
169172,-90.9090909090909,4,2,1,25,0,0
170297,-133.333333333333,4,2,1,15,0,0
170672,-200,4,2,1,8,0,0
170859,-200,4,2,1,5,0,0
171047,-200,4,2,1,25,0,0
176297,-76.9230769230769,4,2,1,25,0,0
177609,-125,4,2,1,25,0,0
180047,-166.666666666667,4,2,1,25,0,0
180422,-83.3333333333333,4,2,1,25,0,0
180797,-166.666666666667,4,2,1,25,0,0
181172,-83.3333333333333,4,2,1,25,0,0
181547,-500,4,2,1,20,0,0
182297,-200,4,2,1,20,0,0
182578,-200,4,2,1,5,0,0
182672,-83.3333333333333,4,2,1,20,0,0
183047,-125,4,2,2,50,0,0
183797,-125,4,2,3,50,0,0
184547,-125,4,2,2,50,0,0
185297,-125,4,2,4,50,0,0
186047,-125,4,2,5,50,0,0
189047,-125,4,2,2,50,0,0
189797,-125,4,2,3,50,0,0
190547,-125,4,2,6,50,0,0
191297,-125,4,2,9,40,0,0
191484,-125,4,2,9,50,0,0
192422,-125,4,2,5,40,0,0
192609,-125,4,2,1,50,0,0
194297,-125,4,2,4,50,0,0
194484,-125,4,2,1,50,0,0
194859,-125,4,2,10,40,0,0
195047,-125,4,2,7,40,0,0
195234,-125,4,2,7,50,0,0
197297,-125,4,2,3,50,0,0
198047,-125,4,2,8,35,0,0
198234,-125,4,2,8,50,0,0
199547,-125,4,2,60,50,0,0
199922,-125,4,2,8,50,0,0
201047,-125,4,2,2,40,0,0
201234,-125,4,2,2,50,0,0
201797,-125,4,2,3,50,0,0
202172,-125,4,2,12,50,0,0
202547,-125,4,2,13,50,0,0
202734,-125,4,2,2,50,0,0
203297,-125,4,2,14,50,0,0
204422,-125,4,2,5,50,0,0
204797,-83.3333333333333,4,2,1,70,0,0
204984,-83.3333333333333,4,2,1,50,0,0
205547,-133.333333333333,4,2,1,30,0,0
206297,-100,4,2,1,25,0,0
206484,-90.9090909090909,4,2,1,25,0,0
206672,-83.3333333333333,4,2,1,33,0,0
206859,-66.6666666666667,4,2,1,40,0,0
207047,-76.9230769230769,4,2,16,80,0,1
207234,-76.9230769230769,4,2,1,40,0,1
207797,-66.6666666666667,4,2,1,40,0,1
208078,-66.6666666666667,4,2,1,5,0,1
208172,-166.666666666667,4,2,1,40,0,1
208547,-66.6666666666667,4,2,1,40,0,1
208828,-66.6666666666667,4,2,1,5,0,1
208922,-166.666666666667,4,2,1,40,0,1
209297,-156.25,4,2,1,40,0,1
209672,-156.25,4,2,1,20,0,1
209953,-156.25,4,2,1,5,0,1
210047,-71.4285714285714,4,2,1,40,0,1
213047,-66.6666666666667,4,2,1,40,0,1
213328,-66.6666666666667,4,2,1,5,0,1
213422,-125,4,2,1,40,0,1
213797,-66.6666666666667,4,2,1,40,0,1
214078,-66.6666666666667,4,2,1,5,0,1
214172,-125,4,2,1,40,0,1
214547,-66.6666666666667,4,2,1,40,0,1
214828,-66.6666666666667,4,2,1,30,0,1
214922,-125,4,2,1,40,0,1
215297,-76.9230769230769,4,2,1,40,0,1
215672,-166.666666666667,4,2,1,40,0,1
216328,-166.666666666667,4,2,1,5,0,1
216609,-166.666666666667,4,2,1,30,0,1
216797,-71.4285714285714,4,2,1,40,0,1
219047,-100,4,2,1,40,0,1
219328,-100,4,2,1,30,0,1
219422,-100,4,2,1,40,0,1
220078,-100,4,2,1,30,0,1
220172,-100,4,2,1,40,0,1
220547,-200,4,2,1,40,0,1
220922,-200,4,2,1,20,0,1
221484,-200,4,2,1,40,0,1
221672,-100,4,2,1,40,0,1
224297,-66.6666666666667,4,2,1,40,0,1
224672,-76.9230769230769,4,2,1,40,0,1
225047,-50,4,2,1,40,0,1
225328,-50,4,2,1,5,0,1
225422,-76.9230769230769,4,2,1,40,0,1
225797,-66.6666666666667,4,2,1,40,0,1
226172,-76.9230769230769,4,2,1,40,0,1
226547,-50,4,2,1,40,0,1
226828,-50,4,2,1,5,0,1
226922,-76.9230769230769,4,2,1,40,0,1
227297,-400,4,2,1,40,0,1
227672,-400,4,2,1,5,0,1
227859,-400,4,2,1,40,0,1
228047,-111.111111111111,4,2,1,40,0,1
228797,-125,4,2,1,40,0,1
229547,-142.857142857143,4,2,1,40,0,1
230297,-100,4,2,1,40,0,0
231047,-71.4285714285714,4,2,1,40,0,1
231422,-62.5,4,2,1,40,0,1
231797,-66.6666666666667,4,2,1,40,0,1
232078,-66.6666666666667,4,2,1,5,0,1
232172,-142.857142857143,4,2,1,40,0,1
232547,-66.6666666666667,4,2,1,40,0,1
232828,-66.6666666666667,4,2,1,5,0,1
232922,-142.857142857143,4,2,1,40,0,1
233297,-111.111111111111,4,2,1,40,0,1
233672,-111.111111111111,4,2,1,20,0,1
233765,-111.111111111111,4,2,1,5,0,1
233859,-142.857142857143,4,2,1,40,0,1
234234,-142.857142857143,4,2,1,20,0,1
234328,-142.857142857143,4,2,1,5,0,1
234422,-100,4,2,1,40,0,1
235172,-71.4285714285714,4,2,1,40,0,1
237047,-66.6666666666667,4,2,1,40,0,1
237328,-66.6666666666667,4,2,1,5,0,1
237422,-125,4,2,1,40,0,1
237797,-71.4285714285714,4,2,1,40,0,1
238078,-71.4285714285714,4,2,1,5,0,1
238172,-125,4,2,1,40,0,1
238547,-71.4285714285714,4,2,1,40,0,1
238922,-125,4,2,1,40,0,1
239203,-76.9230769230769,4,2,1,40,0,1
239672,-166.666666666667,4,2,1,40,0,1
240328,-166.666666666667,4,2,1,5,0,1
240609,-166.666666666667,4,2,1,30,0,1
240797,-125,4,2,1,40,0,1
243047,-76.9230769230769,4,2,1,40,0,1
244547,-200,4,2,1,40,0,1
244922,-200,4,2,1,20,0,1
245484,-200,4,2,1,40,0,1
245672,-100,4,2,1,40,0,1
248297,-62.5,4,2,1,40,0,1
248672,-83.3333333333333,4,2,1,40,0,1
249047,-52.6315789473684,4,2,1,40,0,1
249328,-52.6315789473684,4,2,1,5,0,1
249422,-83.3333333333333,4,2,1,40,0,1
249797,-76.9230769230769,4,2,1,40,0,1
250547,-55.5555555555556,4,2,1,40,0,1
250828,-55.5555555555556,4,2,1,5,0,1
250922,-100,4,2,1,40,0,1
251297,-500,4,2,1,40,0,1
251672,-500,4,2,1,20,0,1
251953,-500,4,2,1,5,0,1
252047,-111.111111111111,4,2,1,40,0,1
253547,-83.3333333333333,4,2,1,40,0,1
253922,-83.3333333333333,4,2,50,30,0,1
254109,-83.3333333333333,4,2,1,40,0,1
254297,-100,4,2,51,35,0,0
254484,-100,4,2,1,35,0,0
254672,-100,4,2,52,35,0,0
255047,-100,4,2,39,50,0,1
255234,-100,4,2,1,50,0,1
256922,-100,4,2,39,50,0,1
257109,-100,4,2,1,50,0,1
257672,-100,4,2,38,70,0,1
258047,-100,4,2,30,60,0,1
258234,-100,4,2,1,50,0,1
260297,-100,4,2,31,50,0,1
260484,-100,4,2,32,50,0,1
260859,-100,4,2,31,50,0,1
261047,-133.333333333333,4,2,33,60,0,1
261234,-133.333333333333,4,2,1,50,0,1
262172,-133.333333333333,4,2,37,50,0,1
262359,-133.333333333333,4,2,1,50,0,1
262547,-133.333333333333,4,2,34,40,0,1
262828,-133.333333333333,4,2,1,50,0,1
262922,-133.333333333333,4,2,35,40,0,1
263109,-133.333333333333,4,2,53,35,0,1
263297,-133.333333333333,4,2,53,45,0,1
263484,-133.333333333333,4,2,54,45,0,1
263672,-133.333333333333,4,2,36,45,0,1
263859,-133.333333333333,4,2,54,45,0,1
264047,750,4,2,1,55,1,1
264047,-100,4,2,55,55,0,1
264140,-100,4,2,1,25,0,1
266297,-133.333333333333,4,2,1,40,0,1
267047,-100,4,2,1,35,0,0
274547,-100,4,2,1,45,0,0
276047,-200,4,2,26,20,0,0
276422,-200,4,2,1,5,0,0
276797,-200,4,2,1,20,0,0
277547,-200,4,2,26,20,0,0
277922,-200,4,2,1,5,0,0
278297,-200,4,2,1,20,0,0
279047,-166.666666666667,4,2,20,35,0,0
279422,-166.666666666667,4,2,1,10,0,0
280359,-166.666666666667,4,2,1,45,0,0
282047,-100,4,2,1,45,0,0
286547,-100,4,2,1,45,0,0
287297,-83.3333333333333,4,2,1,45,0,0
288047,-100,4,2,1,45,0,0
291047,-142.857142857143,4,2,1,45,0,0
292359,-142.857142857143,4,2,1,35,0,0
293297,-142.857142857143,4,2,1,25,0,0
294075,1538.46153846154,4,2,1,15,1,0
294844,1533.9972132384,4,2,1,15,1,0
295610,2019.99798000202,4,2,1,15,1,0
296604,1601.00329539845,4,2,1,15,1,0
296804,1597.80568019919,4,2,1,15,1,0
297003,1478.94354133031,4,2,1,15,1,0
297187,1462.00611605892,4,2,1,15,1,0
297369,1879.28712375106,4,2,1,15,1,0
297486,2214.18554874899,4,2,1,15,1,0
297624,3092.2,4,2,1,15,1,0
298010,2227.55714285714,4,2,1,15,1,0
298735,1310.04366812227,4,2,1,5,1,0
301570,1924.00192400192,4,2,1,5,1,0
301570,-200,4,2,1,5,0,0
302528,2423.99757600242,4,2,1,5,1,0
303134,1418.00392314419,4,2,1,5,1,0
303843,1500,4,2,1,5,1,0
303843,-300,4,2,1,5,0,0
304593,1583.99112964967,4,2,1,5,1,0
305385,1690.99825263514,4,2,1,5,1,0
305385,-300,4,2,1,5,0,0
306230,1933.14538864277,4,2,1,5,1,0
307196,2954.57343346054,4,2,1,5,1,0
308672,1417.80287813984,4,2,1,5,1,0
308672,-400,4,2,16,5,0,0
314343,-400,4,2,16,5,0,0

[Colours]
Combo1 : 121,60,112
Combo2 : 239,24,24
Combo3 : 254,125,39
Combo4 : 251,164,91
Combo5 : 221,153,198

[HitObjects]
84,59,90,6,0,L|176:51,2,67.5000025749208,4|0|0,0:0|0:0|0:0,0:0:0:0:
299,144,1590,2,0,L|207:136,2,67.5000025749208,4|0|0,0:0|0:0|0:0,0:0:0:0:
84,229,3090,2,0,L|176:221,2,67.5000025749208,4|0|0,0:0|0:0|0:0,0:0:0:0:
299,314,4590,1,4,0:0:0:0:
203,291,4965,1,0,0:0:0:0:
160,202,5340,1,0,0:0:0:0:
159,104,5715,1,0,0:0:0:0:
239,32,6090,6,0,P|282:39|323:21,2,90,4|0|0,0:0|0:0|0:0,0:0:0:0:
452,145,7590,2,0,P|408:153|368:135,2,90,4|0|0,0:0|0:0|0:0,0:0:0:0:
238,259,9090,2,0,P|282:267|323:249,2,90,4|0|0,0:0|0:0|0:0,0:0:0:0:
451,372,10590,2,0,P|407:379|366:361,1,90,4|0,0:0|0:0,0:0:0:0:
316,265,11340,1,0,0:0:0:0:
348,165,11805,1,0,0:0:0:0:
313,90,12278,1,0,0:0:0:0:
321,48,12740,1,0,0:0:0:0:
308,27,13595,2,0,L|332:23,2,22.5
167,211,16263,5,0,0:0:0:0:
140,219,16367,1,0,0:0:0:0:
144,191,16471,1,0,0:0:0:0:
167,211,16572,2,0,P|171:276|111:330,1,135.000005149842
42,183,17305,2,0,P|37:117|97:63,1,135.000005149842
167,211,18087,1,0,0:0:0:0:
159,226,18440,1,0,0:0:0:0:
240,191,18627,1,0,0:0:0:0:
374,258,18815,1,0,0:0:0:0:
455,223,19181,1,0,0:0:0:0:
442,234,19581,6,0,L|444:222,3,11.25,2|0|0|0,0:0|0:0|0:0|0:0,0:0:0:0:
401,239,19954,2,0,L|401:215,3,14.9667410828699
335,163,20328,2,0,P|322:178|314:195,3,22.4625629663087
252,132,20701,2,0,P|246:154|247:163,3,22.4625629663087
163,201,21075,2,0,L|151:169,3,17.9760323226265
97,219,21448,2,0,P|95:210|96:198,3,14.9667410828699
51,192,21822,2,0,L|61:175,4,11.25
51,169,22569,5,0,0:0:0:0:
206,192,22945,1,0,0:0:0:0:
44,153,23321,1,0,0:0:0:0:
271,126,23697,1,0,0:0:0:0:
325,192,24074,1,0,0:0:0:0:
373,48,24442,5,0,0:0:0:0:
325,192,24626,1,0,0:0:0:0:
421,308,24810,1,0,0:0:0:0:
180,241,25178,1,0,0:0:0:0:
261,374,25568,6,0,L|274:364,3,11.25,4|0|0|0,0:0|0:0|0:0|0:0,0:0:0:0:
242,342,25949,2,0,L|268:339,3,14.9667410828699
307,263,26331,2,0,P|282:254|271:241,3,22.4625629663087
317,179,26713,2,0,P|305:180|287:177,3,22.4625629663087
229,115,27095,2,0,L|249:100,3,14.9833513238007
192,51,27463,2,0,L|203:52,1,11.2312814831543
205,8,27641,1,8,0:3:0:0:
322,37,27816,1,8,0:3:0:0:
308,19,28164,6,0,B|293:124|316:175|367:185,1,161.999995056153
375,159,28555,5,10,0:0:0:0:
239,131,28745,1,0,0:0:0:0:
131,215,28933,1,8,0:0:0:0:
47,188,29120,1,0,0:0:0:0:
90,55,29308,1,8,0:0:0:0:
208,86,29683,2,0,P|163:96|82:62,1,116.999994644165,8|0,0:0|0:0,0:0:0:0:
90,55,30058,5,14,0:0:0:0:
69,153,30339,5,8,0:0:0:0:
48,251,30620,5,8,0:0:0:0:
159,317,30808,5,8,0:0:0:0:
158,292,31183,1,12,0:0:0:0:
250,271,31370,1,0,0:0:0:0:
347,309,31558,6,0,P|344:254|350:196,1,80.9999975280763,10|0,0:0|0:0,0:0:0:0:
367,316,31933,2,0,P|363:235|370:171,1,121.499996292114,8|8,0:0|0:0,0:0:0:0:
369,92,32308,2,0,L|377:128,3,22.5,8|0|0|0,0:0|0:0|0:0|0:0,0:0:0:0:
283,116,32683,2,0,L|285:93,3,22.5,8|0|0|0,0:0|0:0|0:0|0:0,0:0:0:0:
306,94,33058,5,8,0:0:0:0:
293,192,33339,5,8,0:0:0:0:
279,288,33620,5,8,0:0:0:0:
164,322,33808,5,8,0:0:0:0:
303,272,34183,5,8,0:0:0:0:
314,194,34370,1,0,0:0:0:0:
326,115,34558,5,10,0:0:0:0:
406,133,34933,1,8,0:0:0:0:
204,251,35308,5,8,0:0:0:0:
392,244,35683,1,8,0:0:0:0:
183,139,36058,2,0,P|230:128|282:141,1,80.9999975280763,14|0,0:0|0:0,0:0:0:0:
174,89,36433,5,0,0:0:0:0:
271,113,36620,1,8,0:0:0:0:
412,40,36808,1,8,0:0:0:0:
509,64,37183,5,8,0:0:0:0:
465,168,37370,1,0,0:0:0:0:
485,291,37558,6,0,P|431:296|374:290,1,80.9999975280763,10|0,0:3|0:0,0:0:0:0:
489,308,37933,2,0,P|408:313|329:301,1,161.999995056153
161,245,38683,2,0,L|165:268,3,22.5,8|0|0|0,3:3|0:3|0:3|0:3,0:3:0:0:
243,244,39058,2,0,P|274:174|201:183,1,175.499991966248,12|0,3:2|3:0,0:0:0:0:
161,245,39433,2,0,L|165:268,3,22.5,8|0|0|0,3:0|0:0|0:0|0:0,0:0:0:0:
229,327,39808,5,8,3:0:0:0:
229,327,39995,1,8,0:3:0:0:
338,335,40183,1,8,3:2:0:0:
338,335,40370,1,8,0:3:0:0:
444,341,40558,1,0,3:0:0:0:
168,86,40933,6,0,P|184:143|180:190,1,90,8|0,0:0|0:0,0:0:0:0:
136,261,41308,2,0,P|177:274|214:265,1,72
275,204,41683,2,0,P|310:199|343:212,1,72,8|0,0:0|0:0,0:0:0:0:
300,281,42058,2,0,P|309:205|342:112,1,144,0|8,0:0|0:0,0:0:0:0:
418,27,42620,1,0,0:0:0:0:
348,125,42808,2,0,P|319:210|310:300,1,180,4|8,0:0|0:0,0:0:0:0:
136,261,43370,1,0,0:0:0:0:
117,341,43558,1,0,0:0:0:0:
135,190,43933,5,8,0:0:0:0:
118,270,44121,1,0,0:0:0:0:
100,350,44308,2,0,P|186:310|192:237,1,144,8|8,0:0|0:0,0:0:0:0:
234,107,44870,1,0,0:0:0:0:
216,188,45058,2,0,P|303:148|309:75,1,144,0|8,0:0|0:0,0:0:0:0:
333,27,45620,1,8,0:0:0:0:
394,80,45808,5,12,0:0:0:0:
234,107,45995,1,4,0:0:0:0:
212,83,46370,5,12,0:0:0:0:
412,106,46558,1,4,0:0:0:0:
268,245,46933,6,0,P|259:210|262:175,2,72,8|0|0,0:0|0:0|0:0,0:0:0:0:
174,15,47683,2,8,P|158:47|155:83,1,72,8|0,0:0|0:0,0:0:0:0:
268,245,48058,2,0,P|217:232|160:152,1,144,0|8,0:0|0:0,0:0:0:0:
366,222,48620,1,0,0:0:0:0:
366,222,48808,2,0,P|326:256|227:257,1,144,0|8,0:0|0:0,0:0:0:0:
312,55,49558,6,0,P|354:62|385:106,1,72
237,75,49933,2,0,P|266:53|334:47,1,90,8|0,0:0|0:0,0:0:0:0:
389,73,50308,1,2,0:0:0:0:
222,60,50683,2,0,P|315:25|412:78,1,198.000006042481,8|0,0:0|0:0,0:0:0:0:
202,219,51433,5,0,0:0:0:0:
215,240,51620,1,8,0:0:0:0:
89,102,51808,2,0,P|142:107|192:154,1,108
220,212,52183,2,0,L|228:229,6,18,8|0|0|0|0|0|0,0:0|0:0|0:0|0:0|0:0|0:0|0:0,0:0:0:0:
157,69,52558,1,0,0:0:0:0:
142,275,52933,5,8,0:0:0:0:
333,259,53308,1,0,0:0:0:0:
429,295,53683,1,8,0:0:0:0:
429,295,53870,1,0,0:0:0:0:
356,348,54058,5,0,0:0:0:0:
333,259,54433,1,8,0:0:0:0:
353,169,54808,1,0,0:0:0:0:
421,106,55183,1,8,0:0:0:0:
232,38,55558,5,4,0:0:0:0:
43,42,55933,1,8,0:0:0:0:
216,134,56308,1,2,0:0:0:0:
73,141,56683,1,0,0:0:0:0:
200,230,57058,1,0,0:0:0:0:
103,240,57433,1,8,0:0:0:0:
164,308,57620,5,8,0:0:0:0:
346,340,57808,1,12,0:0:0:0:
363,188,57995,1,4,0:0:0:0:
335,168,58370,5,12,0:0:0:0:
372,352,58558,1,4,0:0:0:0:
288,72,58933,5,8,0:0:0:0:
300,36,59308,2,0,P|251:41|173:117,1,144,2|8,0:0|0:0,0:0:0:0:
74,262,60058,1,0,0:0:0:0:
89,105,60433,5,8,0:0:0:0:
134,49,60620,1,0,0:0:0:0:
144,155,60808,1,0,0:0:0:0:
94,262,60995,1,0,0:0:0:0:
144,367,61183,1,8,0:0:0:0:
363,103,61558,6,0,P|311:74|220:103,1,144,0|8,0:0|0:0,0:0:0:0:
180,156,62120,1,0,0:0:0:0:
422,54,62308,2,0,P|290:35|224:79,1,216,2|0,0:0|0:0,0:0:0:0:
180,156,63058,6,0,P|144:149|109:127,1,72,0|8,0:0|0:0,0:0:0:0:
337,133,63433,2,0,P|306:150|271:156,1,72,0|8,0:0|0:0,0:0:0:0:
407,75,63808,1,8,0:0:0:0:
431,279,63995,2,0,P|399:309|272:320,1,144,8|0,0:0|0:0,0:0:0:0:
129,323,64558,5,2,3:0:0:0:
101,243,64745,1,0,0:0:0:0:
173,156,64933,1,8,0:0:0:0:
201,76,65120,1,0,0:0:0:0:
118,92,65308,5,10,0:3:0:0:
256,140,65495,1,0,0:0:0:0:
394,92,65683,1,8,3:2:0:0:
339,28,65870,1,0,3:2:0:0:
355,167,66058,5,2,3:2:0:0:
385,237,66245,1,0,0:0:0:0:
339,297,66433,1,8,0:0:0:0:
309,227,66620,1,0,0:0:0:0:
414,307,66808,5,10,3:3:0:0:
264,288,66995,1,0,0:0:0:0:
271,134,67183,1,8,0:0:0:0:
376,136,67370,1,0,0:0:0:0:
325,44,67558,5,2,3:0:0:0:
271,134,67745,1,0,0:0:0:0:
345,293,67933,5,8,0:0:0:0:
237,336,68120,1,0,0:0:0:0:
141,265,68308,1,2,0:0:0:0:
148,354,68683,5,8,3:2:0:0:
237,336,68870,1,0,3:0:0:0:
326,318,69058,1,0,3:0:0:0:
329,228,69433,5,8,0:0:0:0:
326,318,69620,1,0,0:0:0:0:
423,346,69808,5,8,3:3:0:0:
431,295,69995,1,0,0:0:0:0:
238,273,70183,5,8,0:0:0:0:
225,183,70370,1,0,0:0:0:0:
430,127,70558,5,2,3:0:0:0:
362,186,70745,1,0,0:0:0:0:
225,183,70933,5,8,0:0:0:0:
157,124,71120,1,0,0:0:0:0:
174,37,71308,1,2,0:0:0:0:
240,99,71495,5,0,0:0:0:0:
144,208,71683,1,8,3:2:0:0:
161,342,71870,1,0,3:0:0:0:
296,332,72058,5,2,3:0:0:0:
227,303,72245,1,0,0:0:0:0:
159,267,72433,5,8,3:2:0:0:
287,257,72620,1,0,0:0:0:0:
355,285,72808,5,10,0:3:0:0:
92,235,72995,1,0,0:0:0:0:
156,191,73183,5,8,0:0:0:0:
415,245,73370,1,0,0:0:0:0:
92,235,73558,1,0,3:0:0:0:
287,47,73933,5,10,0:0:0:0:
258,200,74120,1,4,0:0:0:0:
364,263,74308,5,8,0:3:0:0:
364,263,74495,1,8,0:3:0:0:
261,316,74683,1,8,3:2:0:0:
261,316,74870,1,4,3:2:0:0:
120,270,75058,5,0,3:0:0:0:
120,270,75245,1,8,0:0:0:0:
44,236,75433,1,8,0:0:0:0:
92,124,75620,1,0,0:0:0:0:
68,46,75808,5,4,3:2:0:0:
171,143,75995,1,4,0:0:0:0:
380,152,76183,5,8,3:3:0:0:
482,249,76370,1,4,0:0:0:0:
413,371,76558,5,10,3:2:0:0:
340,278,76745,1,0,0:0:0:0:
219,262,76933,1,8,0:0:0:0:
274,329,77120,1,0,0:0:0:0:
373,203,77308,5,8,0:3:0:0:
380,86,77495,1,0,0:0:0:0:
266,33,77683,1,8,3:2:0:0:
298,116,77870,1,0,3:2:0:0:
375,99,78058,5,0,3:2:0:0:
293,129,78245,1,0,0:0:0:0:
201,113,78433,1,8,3:2:0:0:
119,143,78620,1,0,0:0:0:0:
191,197,78808,1,2,0:3:0:0:
266,49,78995,5,0,0:0:0:0:
137,62,79183,1,8,0:0:0:0:
113,226,79370,1,0,0:0:0:0:
235,275,79558,5,2,3:0:0:0:
246,195,79745,1,0,0:0:0:0:
137,62,79933,5,8,0:0:0:0:
266,49,80120,1,0,0:0:0:0:
374,122,80308,1,2,0:0:0:0:
372,18,80683,5,8,0:0:0:0:
266,49,80870,1,0,0:0:0:0:
160,80,81058,1,0,0:0:0:0:
157,170,81433,5,8,0:0:0:0:
160,80,81620,1,0,0:0:0:0:
85,32,81808,5,2,3:2:0:0:
77,83,81995,1,0,0:0:0:0:
248,142,82183,5,8,0:0:0:0:
281,252,82370,1,8,0:0:0:0:
428,222,82558,5,2,3:0:0:0:
349,196,82745,1,0,0:0:0:0:
281,252,82933,1,8,0:0:0:0:
359,277,83120,1,0,0:0:0:0:
415,142,83308,5,2,0:0:0:0:
281,252,83495,1,0,3:0:0:0:
142,147,83683,1,8,3:2:0:0:
209,95,83870,1,0,3:0:0:0:
111,237,84058,5,2,3:2:0:0:
142,147,84245,1,0,0:0:0:0:
231,173,84433,1,8,0:0:0:0:
200,263,84620,1,0,0:0:0:0:
279,236,84808,5,4,0:3:0:0:
209,95,84995,1,0,0:0:0:0:
64,169,85183,1,8,0:0:0:0:
134,319,85370,1,0,0:0:0:0:
17,240,85558,5,0,3:0:0:0:
98,246,85746,1,0,0:0:0:0:
206,165,85933,1,10,0:0:0:0:
325,167,86120,1,0,0:0:0:0:
405,138,86308,5,4,0:0:0:0:
340,84,86495,1,0,0:0:0:0:
325,167,86683,1,8,0:0:0:0:
368,308,86870,1,0,0:0:0:0:
264,340,87058,6,0,L|274:354,5,15
310,335,87433,2,0,L|275:320,3,33.7500012874604
301,285,87808,6,0,P|282:271|259:227,1,45
264,232,87995,2,0,P|260:202|240:164,1,45
228,151,88183,2,0,P|197:126|163:121,1,53.9999983520508,8|0,3:0|0:0,0:0:0:0:
97,118,88370,2,0,P|68:127|35:162,1,67.5000025749208,8|0,3:0|0:0,0:0:0:0:
42,270,88558,6,0,P|110:301|186:269,1,116.999994644165,4|0,3:2|0:0,0:0:0:0:
233,119,88933,2,0,B|213:58|240:46|240:46|268:49|255:91,1,116.999994644165,8|0,0:0|0:0,0:0:0:0:
283,286,89308,6,0,P|339:318|459:270,1,188.999994232178,8|0,0:3|0:0,0:0:0:0:
364,206,89683,2,0,P|351:181|351:149,1,53.9999983520508
283,279,90058,2,0,P|339:311|459:263,1,188.999994232178,4|0,0:0|0:0,0:0:0:0:
364,199,90433,2,0,P|351:174|351:142,1,53.9999983520508
283,272,90808,6,0,P|339:304|454:263,1,188.999994232178,4|0,0:0|0:0,0:0:0:0:
364,192,91558,6,0,P|352:167|410:67,1,116.999994644165,0|0,3:0|0:0,0:0:0:0:
436,148,91933,5,0,0:0:0:0:
269,129,92120,1,0,0:0:0:0:
184,204,92308,5,8,0:0:0:0:
231,300,92495,1,0,0:0:0:0:
269,129,92683,1,0,0:0:0:0:
222,33,92870,1,4,0:0:0:0:
184,204,93058,1,4,0:0:0:0:
308,310,93433,1,0,0:0:0:0:
457,279,93808,5,8,0:0:0:0:
265,237,93995,1,0,0:0:0:0:
201,349,94183,5,0,0:0:0:0:
10,307,94370,1,8,0:0:0:0:
54,161,94558,6,0,B|50:233|86:305|178:273,1,188.999994232178,0|0,3:0|0:0,0:0:0:0:
232,232,94933,2,0,P|246:266|239:306,1,53.9999983520508
316,376,95308,2,0,B|312:307|348:235|424:252,1,188.999994232178,8|0,0:0|0:0,0:0:0:0:
448,365,95683,2,0,P|416:349|404:321,1,53.9999983520508
427,234,96058,2,0,B|358:238|286:202|303:126,1,188.999994232178,4|0,0:0|0:0,0:0:0:0:
359,69,96433,2,0,P|377:89|386:116,1,53.9999983520508
347,202,96808,2,0,P|397:214|448:189,1,107.999993843079,8|0,0:0|0:0,0:0:0:0:
360,44,97183,6,0,B|459:177|377:317|251:269,1,314.999982042313,4|0,0:0|0:0,0:0:0:0:
90,130,98308,5,4,0:0:0:0:
175,144,98495,1,0,0:0:0:0:
262,155,98683,2,0,B|285:127|281:84|256:41,1,116.999991544724
157,258,99058,1,12,0:0:0:0:
282,286,99808,5,0,0:0:0:0:
466,306,99995,1,0,0:0:0:0:
461,93,100183,5,0,0:0:0:0:
281,130,100370,1,0,0:0:0:0:
302,298,100558,6,0,P|309:234|366:168,1,135,12|0,3:0|0:0,0:0:0:0:
452,134,100933,1,0,0:0:0:0:
343,157,101120,1,0,0:0:0:0:
223,179,101308,6,0,P|230:115|287:49,1,135,8|0,0:0|0:0,0:0:0:0:
373,14,101683,1,0,0:0:0:0:
262,38,101870,1,4,0:0:0:0:
110,14,102058,6,0,B|82:54|46:162|74:198|134:222,1,225,4|0,0:0|0:0,0:0:0:0:
185,115,103183,2,0,P|157:135|145:163,1,45
130,290,103370,2,0,P|142:322|166:341,1,45
206,274,103558,5,4,0:0:0:0:
388,224,103745,1,0,0:0:0:0:
298,74,103933,5,0,0:0:0:0:
480,24,104120,1,0,0:0:0:0:
376,96,104308,5,4,0:0:0:0:
388,224,104495,1,0,0:0:0:0:
272,220,104683,5,8,3:2:0:0:
288,328,104870,1,8,3:2:0:0:
192,284,105058,5,8,3:0:0:0:
100,316,105245,1,0,0:0:0:0:
112,236,105433,5,0,0:0:0:0:
36,264,105620,1,0,0:0:0:0:
52,180,105808,6,0,L|100:92,1,90,8|0,0:0|0:0,0:0:0:0:
184,181,106183,2,0,L|111:235,1,90,0|8,0:0|0:3,0:0:0:0:
178,101,106558,2,0,B|242:89|292:157|272:218|231:249|231:249|158:304,1,270,8|0,0:0|0:0,0:0:0:0:
111,235,106933,2,0,L|184:181,1,90
461,207,107308,6,0,L|413:295,1,90,8|0,0:3|0:0,0:0:0:0:
327,204,107683,2,0,L|400:150,1,90,8|0,0:0|0:0,0:0:0:0:
333,284,108058,2,0,B|269:296|219:228|239:167|280:136|280:136|353:81,1,270,8|0,0:3|0:0,0:0:0:0:
399,150,108433,2,0,L|326:204,1,90
65,353,108808,6,0,P|73:305|86:284,1,67.5
40,328,109558,6,0,P|78:260|90:158,1,161.999995056153,4|0,3:2|0:0,0:0:0:0:
255,259,110120,5,8,3:3:0:0:
27,315,110308,2,0,P|50:274|69:151,1,144,0|4,0:0|0:0,0:0:0:0:
145,271,110870,5,0,0:0:0:0:
14,305,111058,2,0,P|43:242|49:167,1,125.999996154785,4|0,0:1|0:0,0:0:0:0:
192,154,111620,5,4,0:0:0:0:
377,40,111808,5,4,0:0:0:0:
396,194,111995,1,4,0:0:0:0:
199,192,112183,5,0,3:0:0:0:
180,346,112370,1,4,0:0:0:0:
420,311,112558,6,0,P|370:272|271:258,1,125.999996154785,4|0,3:0|0:0,0:0:0:0:
140,312,112933,2,0,B|136:343|159:346|159:346|192:334|169:270,1,125.999996154785
97,53,113308,6,0,P|162:166|276:168,1,202.500007724762,8|0,0:0|0:0,0:0:0:0:
216,65,113683,2,0,P|236:36|261:24,1,53.9999983520508
102,47,114058,2,0,P|167:160|281:162,1,202.500007724762,4|0,0:0|0:0,0:0:0:0:
221,59,114433,2,0,P|241:30|266:18,1,53.9999983520508
107,41,114808,6,0,P|172:154|253:167,1,202.500007724762,4|0,0:0|0:0,0:0:0:0:
226,53,115370,2,0,B|247:-2|320:-7|389:23,1,157.499995193482
386,131,115933,2,0,P|350:104|308:92,1,90
200,54,116308,2,0,P|194:98|205:141,1,90,8|0,0:3|0:0,0:0:0:0:
162,230,116683,2,0,B|196:293|290:297,1,125.999996154785
449,247,117058,5,12,0:0:0:0:
108,299,117433,1,0,0:0:0:0:
449,247,117808,5,8,0:0:0:0:
279,119,117995,1,0,0:0:0:0:
175,191,118183,5,0,0:0:0:0:
5,63,118370,1,4,0:0:0:0:
102,35,118558,6,0,B|76:109|90:179|158:192|175:190,1,202.500002360344
236,246,118933,2,0,P|253:214|254:178,1,72
256,95,119308,2,0,B|272:93|339:104|359:176|322:267,1,202.500007724762,8|0,0:0|0:0,0:0:0:0:
236,246,119683,2,0,P|238:281|259:314,1,72,0|8,0:0|0:0,0:0:0:0:
497,247,120058,2,0,P|426:202|319:267,1,202.500007724762,12|0,0:2|0:0,0:0:0:0:
413,363,120433,2,0,P|420:328|413:292,1,72
237,280,120808,2,0,P|267:328|320:348,1,116.999994644165,8|0,0:0|0:0,0:0:0:0:
407,156,121183,6,0,P|441:285|322:348,1,290.249996739864,4|0,0:0|0:0,0:0:0:0:
94,246,122308,5,8,0:0:0:0:
179,234,122496,1,0,0:0:0:0:
98,257,122682,5,8,0:0:0:0:
13,269,122870,1,0,0:0:0:0:
60,128,123058,5,8,0:3:0:0:
132,376,123245,1,4,0:1:0:0:
96,251,123620,1,4,0:1:0:0:
13,269,123808,5,4,0:1:0:0:
179,234,123995,1,0,0:0:0:0:
334,319,124183,5,0,0:0:0:0:
500,284,124370,1,0,0:0:0:0:
397,179,124558,6,0,B|394:108|358:84|321:85,1,99.0000030212403,4|0,3:0|0:0,0:0:0:0:
303,244,124839,1,0,0:0:0:0:
303,244,124933,2,0,P|314:198|306:153,1,80.9999975280763
102,222,125308,2,0,B|105:293|141:317|178:316,1,99.0000030212403,8|0,0:0|0:0,0:0:0:0:
196,157,125589,1,0,0:0:0:0:
196,157,125683,2,0,P|185:203|193:248,1,80.9999975280763
411,370,126058,6,0,B|439:330|475:222|447:186|387:162,1,225,12|0,0:0|0:0,0:0:0:0:
334,270,127183,2,0,P|362:250|374:222,1,45,8|0,0:3|0:0,0:0:0:0:
386,94,127370,2,0,P|374:62|350:43,1,45
310,110,127558,5,0,0:0:0:0:
124,160,127745,1,0,0:0:0:0:
218,310,127933,5,0,0:0:0:0:
32,360,128120,1,0,0:0:0:0:
136,288,128308,5,8,0:3:0:0:
124,160,128495,1,0,0:0:0:0:
240,164,128683,5,0,0:0:0:0:
224,56,128870,1,0,0:0:0:0:
320,100,129058,5,8,0:0:0:0:
412,68,129245,1,0,0:0:0:0:
400,148,129433,5,0,0:0:0:0:
476,120,129620,1,0,0:0:0:0:
459,202,129808,6,0,L|411:290,1,90,8|0,0:3|0:0,0:0:0:0:
327,201,130183,2,0,L|400:147,1,90
333,281,130558,2,0,B|269:293|219:225|239:164|280:133|280:133|353:78,1,270,8|0,0:0|0:0,0:0:0:0:
400,147,130933,2,0,L|327:201,1,90
50,175,131308,6,0,L|98:87,1,90,4|0,0:0|0:0,0:0:0:0:
183,177,131683,2,0,L|110:231,1,90
178,98,132058,2,0,B|242:86|292:154|272:215|231:246|231:246|158:301,1,270,8|0,0:0|0:0,0:0:0:0:
111,231,132433,2,0,L|184:177,1,90
389,355,132808,6,0,P|383:328|390:274,1,78.75,4|0,0:0|0:0,0:0:0:0:
338,363,133558,6,0,P|351:307|340:179,2,161.999995056153,0|0|4,0:0|0:0|0:0,0:0:0:0:
170,161,134683,2,0,P|250:154|314:169,1,107.999996704102,0|4,0:0|0:0,0:0:0:0:
468,213,135058,2,0,P|471:179|469:141,1,45,8|8,0:3|3:0,0:0:0:0:
394,189,135339,5,0,3:0:0:0:
394,189,135433,1,0,3:0:0:0:
415,107,135620,1,0,3:0:0:0:
368,36,135807,5,4,0:1:0:0:
410,266,135994,1,4,0:0:0:0:
249,68,136182,5,4,0:1:0:0:
236,175,136369,1,8,0:0:0:0:
115,107,136558,5,0,0:0:0:0:
115,107,136651,1,0,0:0:0:0:
115,107,136745,1,0,0:0:0:0:
205,54,139555,5,14,0:3:0:0:
320,65,140295,1,0,0:0:0:0:
356,138,141036,1,0,0:0:0:0:
340,180,141776,1,0,0:0:0:0:
150,158,142517,6,0,L|158:118,4,22.5,14|0|0|0|0,0:3|0:0|0:0|0:0|0:0,0:0:0:0:
218,266,143272,1,0,0:0:0:0:
313,242,144028,1,0,0:0:0:0:
335,208,144784,1,0,0:0:0:0:
109,251,145540,5,14,0:3:0:0:
335,208,146296,1,0,0:0:0:0:
388,90,147068,5,14,3:0:0:0:
313,130,147255,1,0,0:0:0:0:
192,116,147443,1,8,0:0:0:0:
188,203,147630,1,0,0:0:0:0:
99,279,147818,1,14,0:3:0:0:
104,285,148005,1,0,0:0:0:0:
110,280,148193,1,8,0:0:0:0:
105,274,148380,1,0,0:0:0:0:
92,181,148568,5,0,0:0:0:0:
188,203,148755,1,0,0:0:0:0:
290,298,148943,1,8,0:0:0:0:
316,224,149130,1,0,0:0:0:0:
369,158,149318,1,6,0:3:0:0:
374,164,149505,1,0,0:0:0:0:
380,159,149693,1,0,0:0:0:0:
375,153,149880,1,0,0:0:0:0:
319,93,150068,6,0,L|331:114,1,22.5,14|0,0:3|0:0,0:0:0:0:
293,19,150255,1,0,0:0:0:0:
242,79,150443,1,8,0:0:0:0:
165,65,150630,1,0,0:0:0:0:
191,139,150818,1,6,0:3:0:0:
196,145,151005,1,0,0:0:0:0:
202,140,151193,1,0,0:0:0:0:
197,134,151380,1,0,0:0:0:0:
148,240,151568,5,14,0:3:0:0:
177,316,151755,1,0,0:0:0:0:
304,356,151943,1,0,0:0:0:0:
333,280,152130,1,0,0:0:0:0:
472,211,152318,5,14,0:3:0:0:
447,300,152505,1,0,0:0:0:0:
333,280,152693,1,0,0:0:0:0:
244,305,152880,1,0,0:0:0:0:
148,240,153068,5,14,0:3:0:0:
178,165,153255,1,0,0:0:0:0:
269,123,153443,1,0,0:0:0:0:
264,37,153630,1,0,0:0:0:0:
182,44,153818,1,4,0:0:0:0:
187,50,154005,1,0,0:0:0:0:
193,45,154193,1,4,0:0:0:0:
188,39,154380,1,0,0:0:0:0:
77,105,154568,5,4,0:0:0:0:
152,114,154755,1,0,0:0:0:0:
246,158,154943,1,4,0:0:0:0:
259,81,155130,1,0,0:0:0:0:
346,19,155318,1,4,0:0:0:0:
351,25,155505,1,0,0:0:0:0:
357,20,155693,1,4,0:0:0:0:
352,14,155880,1,0,0:0:0:0:
418,90,156068,5,4,0:0:0:0:
330,116,156255,1,0,0:0:0:0:
203,231,156443,1,8,0:0:0:0:
295,214,156630,1,0,0:0:0:0:
367,271,156818,1,4,0:0:0:0:
372,277,157005,1,0,0:0:0:0:
378,272,157193,1,4,0:0:0:0:
373,266,157380,1,0,0:0:0:0:
144,353,157568,5,14,0:3:0:0:
65,274,157755,1,0,0:0:0:0:
94,161,157943,1,0,0:0:0:0:
66,94,158130,1,0,0:0:0:0:
125,36,158318,2,0,P|131:22|131:8,1,22.5,2|0,3:0|3:0,0:0:0:0:
44,24,158505,1,8,0:0:0:0:
130,50,158693,2,0,P|139:62|151:69,1,22.5,0|0,3:0|3:0,3:0:0:0:
116,51,158880,2,0,P|100:52|88:59,1,22.5,10|0,3:3|3:0,3:0:0:0:
161,240,159068,1,2,3:0:0:0:
274,357,159422,6,0,P|270:297|286:233,1,89.9999976158142,8|0,0:0|0:0,0:0:0:0:
358,257,159797,2,0,P|394:261|450:229,1,72,2|0,0:0|0:0,0:0:0:0:
302,189,160172,2,0,P|266:185|210:217,1,72,8|0,0:0|0:0,0:0:0:0:
274,267,160547,2,0,P|270:219|230:101,1,144,0|8,0:0|0:0,0:0:0:0:
182,22,161109,1,0,0:0:0:0:
253,108,161297,2,0,P|279:194|289:284,1,180,2|8,0:0|0:0,0:0:0:0:
140,249,161859,1,0,0:0:0:0:
115,326,162047,1,0,0:0:0:0:
146,164,162422,5,8,0:0:0:0:
121,241,162609,1,0,0:0:0:0:
96,318,162797,2,0,P|174:301|204:243,1,144,8|8,0:3|0:0,0:0:0:0:
64,153,163547,2,0,P|102:94|170:84,1,144,0|8,0:0|0:0,0:0:0:0:
146,164,164109,1,8,0:0:0:0:
230,172,164297,5,4,0:0:0:0:
254,320,164484,1,4,0:0:0:0:
226,352,164860,5,4,0:0:0:0:
262,144,165047,1,4,0:0:0:0:
439,121,165422,6,0,P|398:160|395:202,2,72,8|0|2,0:0|0:0|0:0,0:0:0:0:
274,256,166172,2,0,P|314:216|318:175,1,72,8|0,0:0|0:0,0:0:0:0:
265,1,166547,2,0,P|315:54|326:141,1,144,0|8,0:0|0:0,0:0:0:0:
382,322,167109,1,0,0:0:0:0:
382,322,167297,2,0,P|331:269|321:181,1,144,2|8,0:0|0:0,0:0:0:0:
208,241,168047,6,0,P|166:234|135:190,1,72
283,221,168422,2,0,P|254:243|186:249,1,90,8|0,0:0|0:0,0:0:0:0:
131,223,168797,1,2,0:0:0:0:
298,236,169172,2,0,P|205:271|108:218,1,198.000006042481,8|0,0:0|0:0,0:0:0:0:
137,68,169922,5,0,0:0:0:0:
77,106,170109,1,8,0:0:0:0:
211,120,170297,2,0,L|203:80,5,22.5000008583069,2|0|0|0|0|0,0:0|0:0|0:0|0:0|0:0|0:0,0:0:0:0:
272,51,170672,2,0,L|269:65,3,11.25,8|0|0|0,0:0|0:0|0:0|0:0,0:0:0:0:
306,54,170859,2,0,L|303:68,2,11.25
353,161,171047,1,4,0:0:0:0:
399,88,171422,5,8,0:0:0:0:
433,289,171797,1,2,0:0:0:0:
359,246,172171,1,8,0:0:0:0:
359,246,172359,1,0,0:0:0:0:
134,287,172547,5,0,0:0:0:0:
97,209,172922,1,8,0:0:0:0:
146,141,173296,1,2,0:0:0:0:
225,154,173672,1,8,0:0:0:0:
256,230,174047,5,4,0:0:0:0:
28,250,174422,1,8,0:0:0:0:
54,174,174797,1,2,0:0:0:0:
256,230,175172,1,8,0:0:0:0:
231,152,175547,1,0,0:0:0:0:
54,174,175922,1,8,0:0:0:0:
80,98,176109,5,4,0:0:0:0:
231,152,176297,1,12,0:0:0:0:
208,297,176484,1,4,0:0:0:0:
236,317,176859,5,12,0:0:0:0:
203,130,177047,1,4,0:0:0:0:
370,189,177422,5,0,0:0:0:0:
292,152,177797,2,0,P|308:92|403:95,1,144
356,293,178547,1,0,0:0:0:0:
155,343,178922,5,8,0:0:0:0:
286,341,179109,1,0,0:0:0:0:
220,383,179296,1,2,0:0:0:0:
162,267,179484,1,0,0:0:0:0:
221,152,179671,1,8,0:0:0:0:
148,114,179859,1,0,0:0:0:0:
234,13,180047,6,0,P|190:21|138:6,1,80.9999975280763
141,7,180422,2,0,P|152:62|132:158,1,107.999996704102
105,193,180797,2,0,P|149:201|201:186,1,80.9999975280763
198,187,181172,2,0,P|187:242|207:338,1,107.999996704102
436,256,181547,6,0,P|412:232|380:216,1,63
386,218,182297,2,0,L|314:218,1,67.5
300,240,182672,6,0,L|288:168,1,53.9999983520508
248,116,182859,2,0,L|260:44,1,53.9999983520508
383,61,183047,5,2,3:0:0:0:
411,141,183234,1,0,0:0:0:0:
339,228,183422,1,8,0:0:0:0:
311,308,183609,1,0,0:0:0:0:
394,292,183797,5,10,0:3:0:0:
256,244,183984,1,0,0:0:0:0:
118,292,184172,1,8,3:2:0:0:
173,356,184359,1,0,3:2:0:0:
157,217,184547,5,2,3:2:0:0:
127,147,184734,1,0,0:0:0:0:
173,87,184922,1,8,0:0:0:0:
203,157,185109,1,0,0:0:0:0:
98,77,185297,5,10,3:3:0:0:
248,96,185484,1,0,0:0:0:0:
241,250,185672,1,8,0:0:0:0:
136,248,185859,1,0,0:0:0:0:
187,340,186047,5,2,3:0:0:0:
241,250,186234,1,0,0:0:0:0:
167,91,186422,5,8,0:0:0:0:
275,48,186609,1,0,0:0:0:0:
371,119,186797,1,2,0:0:0:0:
364,30,187172,5,8,3:2:0:0:
275,48,187359,1,0,3:0:0:0:
186,66,187547,1,0,3:0:0:0:
183,156,187922,5,8,0:0:0:0:
186,66,188109,1,0,0:0:0:0:
89,38,188297,5,8,3:3:0:0:
81,89,188484,1,0,0:0:0:0:
274,111,188672,5,8,0:0:0:0:
287,201,188859,1,0,0:0:0:0:
82,257,189047,5,2,3:0:0:0:
150,198,189234,1,0,0:0:0:0:
287,201,189422,5,8,0:0:0:0:
355,260,189609,1,0,0:0:0:0:
338,347,189797,1,2,0:0:0:0:
272,285,189984,5,0,0:0:0:0:
368,176,190172,1,8,3:2:0:0:
351,42,190359,1,0,3:0:0:0:
216,52,190547,5,2,3:0:0:0:
285,81,190734,1,0,0:0:0:0:
353,117,190922,5,8,3:2:0:0:
225,127,191109,1,0,0:0:0:0:
157,99,191297,5,14,0:3:0:0:
420,149,191484,1,0,0:0:0:0:
356,193,191672,5,8,0:0:0:0:
97,139,191859,1,0,0:0:0:0:
420,149,192047,1,0,3:0:0:0:
225,337,192422,5,14,0:0:0:0:
254,184,192609,1,4,0:0:0:0:
148,121,192797,5,8,0:3:0:0:
148,121,192984,1,8,0:3:0:0:
251,68,193172,1,8,3:2:0:0:
251,68,193359,1,4,3:2:0:0:
392,114,193547,5,0,3:0:0:0:
392,114,193734,1,8,0:0:0:0:
468,148,193922,1,8,0:0:0:0:
420,260,194109,1,0,0:0:0:0:
444,338,194297,5,6,3:2:0:0:
341,241,194484,1,4,0:0:0:0:
132,232,194672,5,8,3:3:0:0:
30,135,194859,1,6,0:0:0:0:
99,13,195047,5,14,3:2:0:0:
172,106,195234,1,0,0:0:0:0:
293,122,195422,1,8,0:0:0:0:
238,55,195609,1,0,0:0:0:0:
139,181,195797,5,8,0:3:0:0:
132,298,195984,1,0,0:0:0:0:
246,351,196172,1,8,3:2:0:0:
214,268,196359,1,0,3:2:0:0:
137,285,196547,5,0,3:2:0:0:
219,255,196734,1,0,0:0:0:0:
311,271,196922,1,8,3:2:0:0:
393,241,197109,1,0,0:0:0:0:
321,187,197297,1,2,0:3:0:0:
246,335,197484,5,0,0:0:0:0:
375,322,197672,1,8,0:0:0:0:
399,158,197859,1,0,0:0:0:0:
277,109,198047,5,6,3:0:0:0:
266,189,198234,1,0,0:0:0:0:
375,322,198422,5,8,0:0:0:0:
246,335,198609,1,0,0:0:0:0:
138,262,198797,1,2,0:0:0:0:
140,366,199172,5,8,0:0:0:0:
246,335,199359,1,0,0:0:0:0:
352,304,199547,1,2,0:0:0:0:
355,214,199922,5,8,0:0:0:0:
352,304,200109,1,0,0:0:0:0:
427,352,200297,5,2,3:2:0:0:
435,301,200484,1,0,0:0:0:0:
264,242,200672,5,8,0:0:0:0:
231,132,200859,1,8,0:0:0:0:
84,162,201047,5,2,3:0:0:0:
163,188,201234,1,0,0:0:0:0:
231,132,201422,1,8,0:0:0:0:
153,107,201609,1,0,0:0:0:0:
97,242,201797,5,2,0:0:0:0:
231,132,201984,1,0,3:0:0:0:
370,237,202172,1,10,3:2:0:0:
303,289,202359,1,0,3:0:0:0:
401,147,202547,5,6,3:2:0:0:
370,237,202734,1,0,0:0:0:0:
281,211,202922,1,8,0:0:0:0:
312,121,203109,1,0,0:0:0:0:
233,148,203297,5,4,0:3:0:0:
303,289,203484,1,0,0:0:0:0:
448,215,203672,1,8,0:0:0:0:
378,65,203859,1,0,0:0:0:0:
495,144,204047,5,0,3:0:0:0:
414,138,204235,1,0,0:0:0:0:
306,219,204422,1,10,0:0:0:0:
187,217,204609,1,0,0:0:0:0:
107,246,204797,5,4,0:0:0:0:
172,300,204984,1,0,0:0:0:0:
187,217,205172,1,8,0:0:0:0:
144,76,205359,1,0,0:0:0:0:
302,72,205547,6,0,L|298:104,5,22.5000008583069
262,60,205922,2,0,L|274:112,3,33.7500012874604,0|0|0|0,3:0|0:0|0:0|0:0,0:0:0:0:
176,33,206297,6,0,P|192:65|196:97,1,45
200,104,206484,2,0,P|204:132|188:180,1,49.5000015106202
212,209,206672,2,0,P|222:234|257:258,1,53.9999983520508,8|0,3:3|0:0,0:0:0:0:
327,267,206859,2,0,P|369:254|398:213,1,67.5000025749208,8|0,3:3|0:0,0:0:0:0:
394,100,207047,6,0,B|340:119|340:119|301:133|298:180,1,116.999994644165,4|0,3:2|0:0,0:0:0:0:
470,242,207422,2,0,B|534:239|536:210|536:210|523:185|488:211,1,116.999994644165,8|0,0:0|0:0,0:0:0:0:
292,177,207797,6,0,P|207:141|226:0,1,202.500007724762,4|0,0:0|0:0,0:0:0:0:
281,80,208172,2,0,B|304:77|324:51,1,53.9999983520508
297,173,208547,2,0,P|212:137|231:-4,1,202.500007724762,4|0,0:0|0:0,0:0:0:0:
287,76,208922,2,0,B|310:73|330:47,1,53.9999983520508
302,170,209297,6,0,P|217:134|216:13,1,201.599994659424,4|0,0:0|0:0,0:0:0:0:
292,73,210047,6,0,B|370:68|309:-4|444:17|451:38,1,125.999996154785
504,52,210422,2,0,P|495:126|511:179,1,125.999996154785
423,218,210797,5,8,0:0:0:0:
340,246,210984,1,0,0:0:0:0:
243,261,211172,5,0,0:0:0:0:
325,233,211359,1,8,0:0:0:0:
407,205,211547,1,12,0:0:0:0:
258,274,211922,5,0,0:0:0:0:
423,292,212297,5,0,0:0:0:0:
121,339,212484,1,0,0:0:0:0:
115,105,212672,5,0,0:0:0:0:
417,152,212859,1,8,0:0:0:0:
318,315,213047,6,0,B|335:253|299:157|219:171,1,202.500007724762
164,232,213422,2,0,P|193:252|228:255,1,72
223,171,213797,2,0,B|205:109|241:13|321:27,1,202.500007724762,4|0,0:0|0:0,0:0:0:0:
376,90,214172,2,0,P|346:110|311:113,1,72
406,13,214547,2,0,B|476:37|489:152|372:188,1,202.500002360344,4|0,0:0|0:0,0:0:0:0:
319,147,214922,2,0,P|313:182|326:215,1,72
407,172,215297,2,0,P|468:174|515:208,1,116.999994644165,8|0,0:0|0:0,0:0:0:0:
186,161,215672,6,0,B|161:162|137:180|128:224|147:259|213:271|232:254|251:207|283:183|345:226,1,269.999984607697,4|0,0:0|0:0,0:0:0:0:
317,369,216797,5,8,0:3:0:0:
326,215,216984,1,0,0:0:0:0:
195,315,217172,5,0,0:0:0:0:
186,161,217359,1,0,0:0:0:0:
326,215,217547,5,12,0:0:0:0:
34,186,218297,5,0,3:0:0:0:
21,32,218484,1,0,3:0:0:0:
316,43,218672,5,0,3:0:0:0:
303,197,218859,1,0,3:0:0:0:
175,237,219047,6,0,P|115:276|33:236,1,135,12|0,3:0|0:0,0:0:0:0:
106,200,219422,1,0,0:0:0:0:
241,159,219609,1,0,0:0:0:0:
362,214,219797,2,0,P|421:253|503:213,1,135
430,177,220172,1,0,0:0:0:0:
227,65,220359,1,0,0:0:0:0:
22,173,220547,6,0,B|32:192|24:225|24:225|8:293|0:335|56:370|87:360,1,225
236,290,221672,2,0,P|229:269|215:252,1,45,8|0,0:3|0:0,0:0:0:0:
111,252,221859,2,0,P|96:269|89:290,1,45
163,307,222047,5,0,0:0:0:0:
131,80,222234,1,0,0:0:0:0:
384,88,222422,5,0,0:0:0:0:
352,315,222609,1,0,0:0:0:0:
348,115,222797,5,4,0:0:0:0:
328,274,222984,1,0,0:0:0:0:
189,271,223172,5,0,0:0:0:0:
168,110,223359,1,8,0:3:0:0:
215,232,223547,5,4,0:0:0:0:
205,140,223734,1,0,0:0:0:0:
313,142,223922,5,0,0:0:0:0:
303,234,224109,1,8,0:0:0:0:
106,25,224297,6,0,B|69:68|69:68|38:106|52:151,1,135.000005149842,4|0,0:0|0:0,0:0:0:0:
240,136,224672,2,0,B|205:120|205:120|160:101|131:123,1,116.999994644165
171,192,225047,2,8,B|187:253|187:253|205:336|120:370|75:320|75:265,1,269.999992847443,12|8,0:0|0:0,0:0:0:0:
131,123,225422,2,0,B|160:101|205:120|205:120|240:136,1,116.999994644165
406,359,225797,6,0,B|443:316|443:316|474:278|460:233,1,135.000005149842,4|0,0:0|0:0,0:0:0:0:
272,248,226172,2,0,B|307:264|307:264|352:283|381:261,1,116.999994644165
341,192,226547,2,0,B|325:131|325:131|307:48|392:14|441:64|437:119,1,269.999992847443,12|0,0:0|0:0,0:0:0:0:
381,261,226922,2,0,B|352:283|307:264|307:264|272:248,1,116.999994644165
282,20,227297,6,0,P|254:4|212:0,1,67.5,4|0,0:0|0:0,0:0:0:0:
302,47,228047,6,0,P|194:45|128:73,1,161.999995056153,0|8,0:0|3:3,0:0:0:0:
40,168,228609,5,8,3:3:0:0:
297,66,228797,2,0,P|226:60|136:94,1,144,8|4,3:3|0:2,0:0:0:0:
148,224,229359,5,0,0:0:0:0:
293,87,229547,2,0,P|234:81|156:106,1,125.999996154785,4|0,0:1|0:0,0:0:0:0:
255,224,230109,5,4,0:0:0:0:
170,98,230297,1,4,0:0:0:0:
153,197,230484,1,0,3:0:0:0:
255,224,230672,1,4,0:1:0:0:
170,98,230859,1,4,0:1:0:0:
438,191,231047,6,0,P|487:180|504:72,1,125.999996154785,12|0,3:0|0:0,0:0:0:0:
257,56,231422,2,0,B|248:28|267:17|267:17|295:25|300:94|242:127,1,144,8|0,0:0|0:0,0:0:0:0:
27,164,231797,6,0,B|38:271|93:303|162:280,1,202.500007724762,4|0,0:0|0:0,0:0:0:0:
199,211,232172,2,0,P|231:205|270:216,1,62.9999980773926
32,164,232547,2,0,B|43:271|98:303|167:280,1,202.500007724762,4|0,0:0|0:0,0:0:0:0:
204,211,232922,2,0,P|236:205|275:216,1,62.9999980773926
37,164,233297,6,0,B|48:271|103:303|172:280,1,202.500007724762,4|0,0:0|0:0,0:0:0:0:
209,211,233859,2,0,B|250:195|288:205|289:233|318:245|382:219,1,157.499995193482
329,151,234422,6,0,P|296:105|282:45,1,90
480,112,234797,2,0,P|450:145|412:169,1,90,8|0,0:0|0:0,0:0:0:0:
274,211,235172,2,0,P|191:191|114:131,1,125.999996154785,0|0,3:0|3:0,0:0:0:0:
23,42,235547,1,12,0:0:0:0:
88,96,235922,1,0,0:0:0:0:
103,13,236297,5,8,0:3:0:0:
130,283,236484,1,8,0:3:0:0:
34,322,236672,5,0,3:0:0:0:
255,182,236859,1,8,0:3:0:0:
393,367,237047,6,0,B|332:352|308:280|366:200,1,202.500002360344
486,262,237422,2,0,P|447:283|411:286,1,72
335,46,237797,2,0,B|395:60|418:131|361:210,1,188.999989225388,4|0,0:0|0:0,0:0:0:0:
216,106,238172,2,0,P|224:71|251:48,1,71.9999980926514,0|8,0:0|0:0,0:0:0:0:
303,125,238547,2,0,P|228:193|140:151,1,188.999989225388,12|0,0:0|0:0,0:0:0:0:
132,85,238922,2,0,P|98:96|77:125,1,71.9999980926514,0|8,0:0|0:0,0:0:0:0:
278,251,239297,2,0,P|234:175|114:195,1,175.499991966248,8|0,0:0|0:0,0:0:0:0:
39,259,239672,6,0,B|102:324|174:279|143:238|215:193|284:256,1,269.999984607697,4|0,0:0|0:0,0:0:0:0:
50,86,240797,6,0,L|138:72,1,72,8|0,0:3|0:0,0:0:0:0:
267,125,241172,2,0,L|179:139,1,72,4|0,0:0|0:0,0:0:0:0:
144,211,241547,5,12,0:0:0:0:
193,285,241734,1,8,0:0:0:0:
326,242,241922,5,0,3:0:0:0:
324,348,242109,1,0,3:0:0:0:
503,260,242297,5,8,3:0:0:0:
451,124,242484,1,4,0:1:0:0:
196,137,242672,5,4,0:1:0:0:
324,348,242859,1,4,3:1:0:0:
451,124,243047,6,0,P|372:108|322:139,1,116.999994644165,12|0,3:0|0:0,0:0:0:0:
301,279,243328,1,0,0:0:0:0:
301,279,243422,2,0,B|307:206|291:185|255:175,1,116.999994644165
241,62,243797,2,0,P|286:97|340:121,1,116.999994644165,8|0,0:0|0:0,0:0:0:0:
264,178,244079,1,0,0:0:0:0:
264,178,244172,2,0,B|235:188|221:206|227:278,1,116.999994644165
340,210,244547,6,0,B|317:220|288:212|288:212|222:194|184:188|143:244|153:275,1,224.999994039536
264,300,245672,2,0,P|247:285|226:278,1,45,8|0,0:3|0:0,0:0:0:0:
76,265,245859,2,0,P|53:267|33:277,1,45
77,341,246047,5,4,0:0:0:0:
45,114,246234,1,0,0:0:0:0:
327,121,246422,5,0,0:0:0:0:
295,348,246609,1,0,0:0:0:0:
291,148,246797,5,4,0:0:0:0:
269,307,246984,1,0,0:0:0:0:
103,306,247172,5,0,0:0:0:0:
81,145,247359,1,0,0:0:0:0:
129,266,247547,5,12,0:0:0:0:
119,174,247734,1,0,0:0:0:0:
256,175,247922,5,0,0:0:0:0:
246,267,248109,1,0,0:0:0:0:
120,155,248297,6,0,B|167:138|181:172|227:217|264:177|296:132,1,143.999996185303,4|0,0:0|0:0,0:0:0:0:
230,97,248672,2,0,P|230:50|276:10,1,107.999996704102,0|8,0:0|0:3,0:0:0:0:
340,153,249047,2,0,B|366:222|282:312|124:254,1,256.499993150711
49,150,249422,2,0,B|29:132|12:145|12:145|-2:175|76:208,1,107.999993843079
163,265,249797,6,0,P|237:286|278:321,1,116.999994644165,12|0,0:0|0:0,0:0:0:0:
425,348,250172,2,0,P|445:293|445:235,1,116.999994644165
387,68,250547,2,0,B|420:85|423:106|423:106|411:144|350:20|269:62|233:125,1,242.999992584229,8|0,0:3|0:0,0:0:0:0:
362,221,250922,2,0,P|350:178|316:149,1,90
46,210,251297,6,0,P|61:178|86:156,1,63,4|0,0:0|0:0,0:0:0:0:
50,251,252047,6,0,P|117:208|215:236,2,161.999995056153,0|8|8,0:0|0:0|0:3,0:0:0:0:
187,342,253172,1,0,0:0:0:0:
492,143,253547,2,0,L|506:66,1,53.9999983520508,8|0,3:3|0:0,0:0:0:0:
414,179,253829,5,0,3:0:0:0:
414,179,253922,1,2,3:1:0:0:
334,198,254109,1,4,0:1:0:0:
234,130,254297,5,6,0:1:0:0:
153,199,254484,1,4,0:1:0:0:
24,217,254672,5,2,3:1:0:0:
0,345,254859,1,0,3:0:0:0:
179,322,255047,6,0,L|268:324,1,90,14|0,3:0|0:0,0:0:0:0:
389,232,255422,1,0,0:0:0:0:
269,325,255609,2,0,P|184:334|82:266,1,180
60,207,256172,2,0,L|68:111,1,90,0|8,0:0|0:0,0:0:0:0:
132,48,256547,1,12,0:0:0:0:
452,60,256922,5,2,0:0:0:0:
400,141,257109,1,8,0:3:0:0:
404,237,257297,1,8,0:0:0:0:
460,315,257672,1,4,0:0:0:0:
460,315,258047,5,6,0:0:0:0:
393,363,258234,1,0,0:0:0:0:
311,366,258422,1,8,0:3:0:0:
241,322,258609,1,0,0:0:0:0:
460,315,259172,5,0,0:0:0:0:
311,366,259359,1,8,0:0:0:0:
393,363,259547,1,8,0:3:0:0:
241,322,259734,2,0,B|206:294|158:310|158:310|145:337|121:359|71:356,1,180,0|8,0:0|0:0,0:0:0:0:
85,278,260297,5,8,0:3:0:0:
159,230,260484,1,0,0:0:0:0:
201,129,260672,1,0,0:0:0:0:
190,4,260859,1,8,0:3:0:0:
201,129,261047,6,0,P|232:173|271:180,1,67.5000025749208,10|0,0:3|0:0,0:0:0:0:
349,85,261422,1,0,0:0:0:0:
275,107,261609,1,0,0:0:0:0:
209,247,261797,1,12,0:0:0:0:
61,291,262172,1,2,0:0:0:0:
122,228,262359,5,8,0:0:0:0:
277,302,262547,1,6,0:3:0:0:
361,288,262828,1,0,0:0:0:0:
361,288,262921,1,2,0:0:0:0:
424,158,263109,1,2,0:0:0:0:
508,144,263297,5,12,0:0:0:0:
426,177,263484,1,2,0:0:0:0:
319,153,263672,1,6,0:0:0:0:
223,72,263859,1,4,0:0:0:0:
60,100,264047,5,12,0:3:0:0:
65,100,264140,1,0,0:0:0:0:
71,101,264234,1,0,0:0:0:0:
77,102,264328,1,0,0:0:0:0:
82,104,264422,1,8,0:3:0:0:
88,107,264515,1,0,0:0:0:0:
92,110,264609,1,0,0:0:0:0:
97,114,264703,1,0,0:0:0:0:
101,119,264797,1,12,0:0:0:0:
104,123,264890,1,0,0:0:0:0:
107,128,264984,1,0,0:0:0:0:
109,134,265078,1,0,0:0:0:0:
111,139,265172,1,8,0:3:0:0:
113,145,265265,1,0,0:0:0:0:
114,151,265359,1,8,0:0:0:0:
115,156,265453,1,0,0:0:0:0:
116,162,265547,1,4,3:1:0:0:
117,168,265640,1,0,0:0:0:0:
118,174,265734,1,0,0:0:0:0:
118,180,265828,1,8,0:0:0:0:
119,185,265922,1,8,0:0:0:0:
121,191,266015,1,0,0:0:0:0:
123,197,266109,1,8,0:3:0:0:
126,201,266203,1,0,0:0:0:0:
139,209,266297,5,12,0:0:0:0:
262,157,266485,1,8,0:0:0:0:
376,180,266672,1,8,3:2:0:0:
448,240,266860,1,4,0:0:0:0:
480,299,267047,1,4,3:2:0:0:
256,192,271547,12,0,273797,0:0:0:0:
256,192,274547,5,12,0:0:0:0:
177,128,276047,6,0,P|226:128|323:228,1,180,4|0,0:0|0:0,0:0:0:0:
177,128,277547,2,0,P|226:128|323:228,1,180,4|0,0:0|0:0,0:0:0:0:
105,123,279047,2,0,P|292:132|365:292,1,377.999988464356,2|0,0:0|0:0,0:0:0:0:
365,288,280453,1,4,0:1:0:0:
365,288,280547,1,4,0:1:0:0:
258,225,280921,5,4,0:1:0:0:
217,291,281109,1,4,0:1:0:0:
61,287,281484,5,0,0:0:0:0:
61,287,281672,1,8,0:0:0:0:
77,165,281859,1,0,0:0:0:0:
93,43,282047,2,0,P|195:47|249:109,1,180,4|8,3:0|0:0,0:0:0:0:
162,240,282609,2,0,P|226:299|314:297,1,180,8|0,3:0|0:0,0:0:0:0:
408,219,283172,1,8,0:0:0:0:
373,66,283547,5,12,0:0:0:0:
392,97,283734,1,4,0:0:0:0:
278,143,284109,5,0,0:0:0:0:
342,180,284296,1,8,3:3:0:0:
408,219,284484,1,0,0:0:0:0:
408,219,284859,5,0,0:0:0:0:
333,312,285047,2,0,P|255:317|177:246,1,180,0|8,3:0|0:0,0:0:0:0:
171,161,285609,2,0,P|209:92|311:66,1,180,0|0,3:0|0:0,0:0:0:0:
389,97,286172,1,0,3:0:0:0:
34,203,286547,6,0,P|110:175|207:214,1,180
272,267,287109,1,4,0:1:0:0:
452,125,287297,6,0,P|338:26|210:106,1,323.999990112305
272,267,288047,2,0,P|292:221|281:173,1,90,8|0,0:0|0:0,0:0:0:0:
211,107,288422,1,0,0:0:0:0:
164,214,289172,5,0,0:0:0:0:
232,104,289359,1,0,0:0:0:0:
405,85,289547,2,0,P|371:114|295:115,2,90,4|4|0,0:0|0:0|0:0,0:0:0:0:
489,82,290109,1,4,0:1:0:0:
449,13,290297,1,4,0:1:0:0:
451,158,290671,5,0,3:0:0:0:
344,219,290859,1,0,3:0:0:0:
320,352,291047,2,0,P|260:333|199:340,1,125.999996154785,8|0,3:2|0:0,0:0:0:0:
57,321,291609,2,0,P|103:278|127:222,1,125.999996154785
87,120,292172,1,0,0:0:0:0:
87,120,292359,1,4,0:1:0:0:
87,120,293109,1,4,0:1:0:0:
235,48,293297,1,8,0:3:0:0:
144,41,293672,1,4,0:1:0:0:
233,69,293859,1,0,3:0:0:0:
323,98,294075,6,0,P|332:131|324:205,1,90
336,206,294844,2,0,P|279:222|255:248,1,90
264,262,295610,1,0,0:0:0:0:
256,192,296114,12,0,298010,0:0:0:0:
393,75,298735,5,0,0:0:0:0:
116,204,301570,6,0,B|182:184|185:233|258:213,1,146.25
271,222,303843,2,0,P|280:196|309:169,1,60
316,165,305385,2,0,P|349:182|377:182,1,60
385,172,307196,1,0,0:0:0:0:
385,172,308672,2,0,L|385:154,1,11.25,4|0,0:0|0:0,0:0:0:0:
