osu file format v14

[General]
AudioFilename: audio.mp3
AudioLeadIn: 0
PreviewTime: 16043
Countdown: 0
SampleSet: Soft
StackLeniency: 0.4
Mode: 0
LetterboxInBreaks: 0
WidescreenStoryboard: 1

[Editor]
Bookmarks: 87816,137316,205566,255066,282068,293891
DistanceSpacing: 1.6
BeatDivisor: 8
GridSize: 4
TimelineZoom: 1.899999

[Metadata]
Title:Ben Se
TitleUnicode:本色
Artist:Ling Yuan yousa
ArtistUnicode:泠鸢yousa
Creator:09kami
Version:Qingyi Insane
Source:
Tags:古风 十个HTT呀啦索 怎么说呢 冷鸟 chinese Crystal 小语 洛天依
BeatmapID:1257802
BeatmapSetID:567325

[Difficulty]
HPDrainRate:5.2
CircleSize:4.1
OverallDifficulty:8
ApproachRate:8.5
SliderMultiplier:1.6
SliderTickRate:1

[Events]
//Background and Video events
0,0,"304234418.jpg",0,0
//Break Periods
//Storyboard Layer 0 (Background)
//Storyboard Layer 1 (Fail)
//Storyboard Layer 2 (Pass)
//Storyboard Layer 3 (Foreground)
Sprite,Foreground,Centre,"SB\mp2.png",320,240 M,0,28574,,459.8755,98.12405 F,0,28574,29324,0,1 F,0,29324,33074,1 F,0,33074,34574,1,0
//Storyboard Sound Samples
Sample,69074,0,"normal-hitwhistle.wav",70
Sample,75074,0,"drum-hitfinish.wav",70
Sample,75824,0,"soft-hitfinish.wav",70
Sample,81074,0,"normal-hitfinish.wav",70
Sample,85949,0,"normal-hitfinish.wav",70
Sample,187568,0,"soft-hitfinish.wav",70
Sample,192068,0,"normal-hitwhistle.wav",70
Sample,192443,0,"normal-hitclap.wav",70
Sample,271943,0,"soft-hitnormal.wav",70
Sample,272318,0,"soft-hitnormal.wav",70

[TimingPoints]
106,750,4,2,1,10,1,0
106,-200,4,2,1,10,0,0
11356,928.792569659443,4,2,1,20,1,0
11820,947.7,4,2,1,20,1,0
12293,924.499229583975,4,2,1,20,1,0
12755,851.063829787234,4,2,1,20,1,0
13606,745.619485522555,4,2,1,10,1,0
13606,-200,4,2,1,10,0,0
16588,750,4,2,1,10,1,0
19588,-200,4,2,1,10,0,0
21463,-200,4,2,1,10,0,0
21838,-200,4,2,1,5,0,0
22588,-100,4,2,1,10,0,0
25588,-200,4,2,1,10,0,0
27463,-100,4,2,1,5,0,0
27629,750,4,2,1,5,1,0
27816,-100,4,2,1,25,0,0
28566,750,4,1,1,25,1,0
28566,-100,4,1,1,25,0,0
34847,-100,4,1,1,5,0,0
34941,-100,4,1,1,25,0,0
35222,-100,4,1,1,5,0,0
35316,-100,4,1,1,25,0,0
35597,-100,4,1,1,5,0,0
35691,-100,4,1,1,25,0,0
40941,-100,4,2,1,25,0,0
63066,-100,4,2,1,25,0,0
64566,-100,4,2,1,25,0,0
87066,-100,4,2,1,35,0,0
87816,-50,4,2,1,35,0,0
88566,-50,4,2,1,45,0,1
108816,-29.2397660818714,4,2,1,45,0,1
109566,-50,4,2,1,45,0,1
132816,-29.2397660818714,4,2,1,45,0,0
133566,-50,4,2,1,45,0,0
136566,-50,4,2,1,25,0,0
139539,751.173708920188,4,2,1,25,1,0
145548,759.493670886076,4,2,1,25,1,0
145548,-100,4,2,1,25,0,0
147066,750,4,2,1,25,1,0
159066,-100,4,2,1,25,0,0
184566,-200,4,2,1,25,0,0
189066,-100,4,2,1,35,0,0
205566,-100,4,2,1,15,0,0
206316,-50,4,2,1,45,0,0
207066,-50,4,2,1,45,0,1
227316,-25,4,2,1,45,0,1
228066,-50,4,2,1,45,0,1
230316,-50,4,2,1,45,0,1
231066,-50,4,2,1,45,0,1
251316,-25,4,2,1,45,0,1
252066,-50,4,2,1,45,0,1
255066,-50,4,2,1,45,0,0
275316,-250,4,1,1,45,0,0
282066,-133.333333333333,4,2,1,45,0,0
283191,-66.6666666666667,4,2,1,45,0,0
293691,800,4,2,1,10,1,0
294091,750,4,2,1,45,1,0
294091,-80,4,2,1,45,0,0
296341,839.160839160839,4,2,1,30,1,0
296341,-200,4,2,1,30,0,0
298019,-200,4,2,1,5,0,0
298564,952.380952380952,4,2,1,15,1,0
299040,789.473684210526,4,2,1,15,1,0
299829,857.142857142857,4,2,1,15,1,0
300686,1811.43012408296,4,2,1,15,1,0
301591,750,4,2,1,15,1,0
304591,805.369127516779,4,2,1,15,1,0
305396,845.070422535211,4,2,1,15,1,0
306241,991.735537190083,4,2,1,15,1,0
307232,1435.40669856459,4,2,1,5,1,0
308667,1411.76470588235,4,2,1,5,1,0

[Colours]
Combo1 : 255,94,94
Combo2 : 141,243,223

[HitObjects]
74,92,106,6,0,B|113:78|113:78|157:95,1,80,8|0,0:0|0:0,0:0:0:0:
158,103,1606,2,0,B|119:117|119:117|75:100,1,80,4|0,0:0|0:0,0:0:0:0:
42,197,3106,6,0,L|45:287,1,80,8|0,0:0|0:0,0:0:0:0:
52,289,4606,2,0,L|49:209,1,80,4|0,0:0|0:0,0:0:0:0:
225,265,6106,6,0,B|281:253|253:274|311:261,1,80,8|0,0:0|0:0,0:0:0:0:
317,257,7606,2,0,B|265:268|293:247|237:259,1,80,4|0,0:0|0:0,0:0:0:0:
395,208,9106,6,0,B|469:240|469:240|399:291,1,160,8|4,0:0|0:1,0:0:0:0:
404,286,10981,1,0,1:0:0:0:
404,286,11356,1,0,1:0:0:0:
336,323,11820,1,0,1:0:0:0:
268,291,12293,1,0,1:0:0:0:
202,327,12755,1,2,1:0:0:0:
137,287,13606,6,0,L|136:269,3,10,4|0|0|0,0:1|0:1|0:1|0:1,0:0:0:0:
72,101,16588,5,0,1:0:0:0:
164,94,16963,1,0,0:0:0:0:
169,187,17338,1,0,1:0:0:0:
261,180,17713,2,0,B|180:152|197:238|95:199,1,160,0|8,0:0|0:0,0:0:0:0:
52,141,18650,1,0,0:0:0:0:
110,204,18838,6,0,L|106:297,1,80,0|8,1:0|0:0,0:0:0:0:
54,364,19588,6,0,P|120:284|234:378,1,280,0|0,0:0|0:0,0:0:0:0:
345,349,22588,5,0,1:0:0:0:
426,297,22963,1,0,0:0:0:0:
341,253,23338,1,0,1:0:0:0:
345,349,23713,2,0,L|347:180,1,160,0|2,0:0|0:0,0:0:0:0:
351,105,24650,1,0,0:0:0:0:
346,189,24838,6,0,B|307:181|307:181|270:205,1,80,0|2,1:0|0:1,0:0:0:0:
99,233,25588,6,0,B|226:220|164:316|276:304,1,200,0|0,0:0|0:0,0:0:0:0:
360,332,27629,2,0,L|352:284,1,40,0|4,0:0|0:1,0:0:0:0:
272,216,28004,5,0,0:0:0:0:
126,321,28191,2,0,P|122:344|123:378,1,40,0|0,0:0|0:0,0:0:0:0:
48,266,28566,6,0,P|51:213|51:177,2,80,2|2|0,0:2|0:0|0:0,0:0:0:0:
42,285,29691,2,0,P|69:281|97:281,1,40,0|0,0:0|0:0,0:0:0:0:
227,283,30066,6,0,P|195:302|176:333,2,60,4|0|0,0:0|0:0|0:0,0:0:0:0:
324,305,30816,2,0,P|373:297|406:277,1,80,0|0,0:0|0:0,0:0:0:0:
435,208,31378,1,0,0:0:0:0:
450,351,31566,6,0,P|478:310|488:273,1,80,2|2,0:0|0:2,0:0:0:0:
387,126,32316,1,0,0:0:0:0:
233,241,32691,2,0,P|239:271|250:284,1,40,0|0,0:0|0:0,0:0:0:0:
306,184,33066,6,0,L|301:112,2,60,12|8|0,0:0|0:0|0:0,0:0:0:0:
390,222,33816,2,0,L|387:303,1,80,2|0,0:0|0:0,0:0:0:0:
382,381,34378,1,0,0:0:0:0:
470,269,34566,6,0,L|467:350,1,80,8|8,0:2|0:2,0:0:0:0:
282,349,35316,1,0,0:0:0:0:
95,310,35691,2,0,P|117:313|139:322,1,40,2|0,0:2|0:0,0:0:0:0:
15,356,36066,6,0,P|4:324|7:281,2,60,12|0|0,0:2|0:0|0:0,0:0:0:0:
95,310,36816,2,0,P|142:281|169:279,1,80,0|4,0:0|0:2,0:0:0:0:
250,307,37378,1,0,0:0:0:0:
325,194,37566,5,8,0:1:0:0:
325,194,37753,1,0,0:0:0:0:
345,275,37941,1,2,0:0:0:0:
307,113,38316,1,0,0:0:0:0:
245,216,38691,1,0,0:0:0:0:
407,178,39066,5,12,0:0:0:0:
107,232,39816,2,0,L|105:182,1,40,8|8,0:3|0:3,0:0:0:0:
201,165,40191,2,0,L|203:115,2,40,8|8|8,0:3|0:3|0:1,0:0:0:0:
333,215,40941,6,0,P|273:250|265:265,1,80,0|0,0:1|1:0,0:0:0:0:
247,339,41691,1,0,0:0:0:0:
441,351,42066,6,0,L|436:265,1,80,0|0,1:0|0:0,0:0:0:0:
430,185,42816,1,4,0:0:0:0:
430,185,43191,1,0,0:0:0:0:
348,88,43566,6,0,B|308:80|308:80|263:96,1,80,0|12,1:0|0:0,0:0:0:0:
206,160,44128,1,0,0:0:0:0:
129,165,44316,2,0,B|169:173|169:173|214:157,1,80,2|0,0:0|1:0,0:0:0:0:
311,166,45066,6,0,L|308:252,1,80,0|8,0:0|0:1,0:0:0:0:
308,245,45628,1,0,0:0:0:0:
305,333,45816,1,0,0:0:0:0:
305,333,46003,2,0,L|300:291,1,40,0|0,0:0|1:0,0:0:0:0:
408,332,46378,5,0,0:0:0:0:
411,244,46566,1,4,0:1:0:0:
109,152,46941,2,0,P|97:176|96:205,2,40,0|0|0,1:0|0:0|0:0,0:0:0:0:
156,55,47691,2,0,P|141:32|116:17,1,40,0|0,0:0|0:0,0:0:0:0:
217,142,48066,6,0,P|259:154|302:132,1,80,0|0,0:0|1:0,0:0:0:0:
347,86,48628,1,0,0:0:0:0:
347,86,48816,1,0,1:0:0:0:
324,252,49191,1,2,0:0:0:0:
474,160,49566,6,0,P|437:187|439:297,1,160,4|0,0:0|1:0,0:0:0:0:
501,355,50691,1,0,0:0:0:0:
267,304,51066,1,4,0:1:0:0:
355,354,51441,6,0,L|358:267,2,80,4|0|0,0:1|0:0|1:0,0:0:0:0:
128,295,52566,6,0,P|101:268|91:223,1,80,0|8,1:0|0:0,0:0:0:0:
120,144,53316,1,0,0:0:0:0:
120,144,53691,1,0,0:0:0:0:
302,142,54066,6,0,P|292:178|258:210,1,80,0|2,1:0|0:0,0:0:0:0:
175,224,54816,1,0,1:0:0:0:
175,224,55191,1,2,0:0:0:0:
218,135,55566,6,0,L|392:131,1,160,8|8,0:0|0:0,0:0:0:0:
466,127,56691,1,0,0:0:0:0:
385,208,57066,6,0,P|373:173|386:114,1,80,4|0,0:0|0:0,0:0:0:0:
377,130,57628,1,8,0:0:0:0:
258,161,57816,1,2,0:0:0:0:
258,161,58003,2,0,P|260:134|272:114,1,40,2|2,0:0|0:1,0:0:0:0:
131,141,58378,5,2,0:0:0:0:
131,141,58566,1,4,1:1:0:0:
14,260,58941,2,0,P|16:288|45:331,1,80,4|0,0:0|1:0,0:0:0:0:
129,355,59691,1,0,0:0:0:0:
234,229,60066,6,0,P|209:260|218:309,1,80,8|0,0:0|1:0,0:0:0:0:
237,330,60628,1,0,1:0:0:0:
278,325,60816,1,0,1:0:0:0:
315,344,61003,1,0,1:0:0:0:
354,341,61191,6,0,L|442:336,1,80,0|0,1:2|0:0,0:0:0:0:
175,246,61941,2,0,L|87:241,1,80,4|4,0:0|0:1,0:0:0:0:
320,147,62691,1,0,1:0:0:0:
512,170,63066,6,0,B|445:172|445:172|394:142|394:142|320:147,1,200,10|0,0:0|0:0,0:0:0:0:
182,192,64191,6,0,L|130:187,1,40,2|0,0:0|0:0,0:0:0:0:
37,129,64566,5,6,0:3:0:0:
37,129,64753,1,0,0:0:0:0:
127,165,64941,1,0,0:0:0:0:
219,131,65128,1,0,0:0:0:0:
292,59,65316,5,4,0:3:0:0:
230,116,65503,1,0,0:0:0:0:
194,218,65691,1,0,0:0:0:0:
241,338,65878,1,0,0:0:0:0:
382,374,66066,6,0,L|377:330,3,40,6|0|0|0,0:3|0:0|0:0|0:0,0:0:0:0:
452,225,66816,2,0,L|457:265,3,40,4|0|0|0,0:3|0:0|0:0|0:0,0:0:0:0:
312,141,67566,6,0,P|354:141|392:119,2,80,6|0|0,0:3|0:0|0:0,0:0:0:0:
249,75,68503,1,0,0:0:0:0:
224,163,68691,1,0,0:0:0:0:
249,75,68878,1,0,0:0:0:0:
125,150,69066,6,0,L|130:192,1,40,0|0,0:0|0:0,0:0:0:0:
58,76,69441,2,0,L|53:36,1,40,0|0,0:0|0:0,0:0:0:0:
25,175,69816,1,0,0:0:0:0:
74,251,70003,1,0,0:0:0:0:
46,325,70191,1,4,0:3:0:0:
89,245,70378,1,0,0:0:0:0:
186,277,70566,5,6,0:3:0:0:
186,277,70753,1,0,0:0:0:0:
175,121,70941,1,0,0:0:0:0:
175,121,71128,1,0,0:0:0:0:
266,216,71316,6,0,L|319:211,1,40,4|0,0:3|0:0,0:0:0:0:
53,81,71691,2,0,L|13:84,1,40,0|0,0:0|0:0,0:0:0:0:
266,216,72066,5,6,0:3:0:0:
342,278,72253,1,0,0:0:0:0:
357,181,72441,1,0,0:0:0:0:
266,216,72628,1,0,0:0:0:0:
357,181,72816,5,4,0:3:0:0:
266,216,73003,1,0,0:0:0:0:
342,278,73191,1,0,0:0:0:0:
357,181,73378,1,0,0:0:0:0:
249,311,73566,5,6,0:3:0:0:
249,311,73941,2,0,L|336:305,1,80,6|0,0:3|0:0,0:0:0:0:
354,303,74503,1,0,0:0:0:0:
168,358,74691,1,0,0:0:0:0:
237,227,74878,1,0,0:0:0:0:
452,360,75066,6,0,P|455:331|450:316,1,40,0|0,0:0|0:0,0:0:0:0:
501,252,75441,2,0,P|493:223|484:211,1,40,0|0,0:0|0:0,0:0:0:0:
510,133,75816,2,0,P|493:108|480:100,1,40,0|0,0:0|0:0,0:0:0:0:
358,40,76191,2,0,P|360:69|367:82,1,40,4|0,0:3|0:0,0:0:0:0:
412,139,76566,5,6,0:3:0:0:
412,139,76753,1,0,0:0:0:0:
304,155,76941,1,0,0:0:0:0:
258,250,77128,1,0,0:0:0:0:
330,342,77316,5,0,0:0:0:0:
293,254,77503,1,0,0:0:0:0:
189,176,77691,1,4,0:3:0:0:
36,180,77878,1,0,0:0:0:0:
45,311,78066,6,0,L|41:265,3,40,6|0|0|0,0:3|0:0|0:0|0:0,0:0:0:0:
153,338,78816,2,0,L|156:377,3,40,4|0|0|0,0:3|0:0|0:0|0:0,0:0:0:0:
221,242,79566,6,0,P|250:238|301:235,3,80,6|0|0|0,0:3|0:0|0:0|0:0,0:0:0:0:
498,274,80878,1,0,0:0:0:0:
432,334,81066,2,0,P|422:300|415:252,1,80,0|0,0:0|0:0,0:0:0:0:
354,137,81628,1,0,0:0:0:0:
429,80,81816,2,0,P|439:114|446:162,1,80,0|0,0:3|0:0,0:0:0:0:
354,137,82378,1,0,0:0:0:0:
272,234,82566,6,0,P|274:208|281:191,1,40,6|0,0:3|0:0,0:0:0:0:
284,186,82941,2,0,P|271:201|254:212,1,40,0|0,0:0|0:0,0:0:0:0:
145,216,83316,2,0,P|125:216|105:210,1,40,4|0,0:3|0:0,0:0:0:0:
98,203,83691,2,0,P|106:220|110:240,1,40,0|0,0:0|0:0,0:0:0:0:
194,368,84066,5,6,0:3:0:0:
178,293,84253,1,0,0:0:0:0:
252,277,84441,1,0,0:0:0:0:
268,352,84628,1,0,0:0:0:0:
209,264,84816,5,4,0:3:0:0:
164,335,85003,1,0,0:0:0:0:
234,380,85191,1,0,0:0:0:0:
279,310,85378,1,0,0:0:0:0:
96,240,85566,6,0,L|50:236,1,40,0|0,0:0|0:0,0:0:0:0:
416,240,85941,2,0,L|462:236,1,40,0|0,0:0|0:0,0:0:0:0:
172,75,86316,6,0,L|166:126,1,40,0|0,0:0|0:0,0:0:0:0:
344,114,86691,2,0,L|340:75,1,40,0|0,0:0|0:0,0:0:0:0:
428,247,87066,6,0,L|429:227,10,13.3333333333333,0|0|0|0|0|0|0|0|0|0|0,0:0|0:0|0:0|0:0|0:0|0:0|0:0|0:0|0:0|0:0|0:0,0:0:0:0:
433,206,87816,6,0,L|528:201,1,80,2|0,0:0|0:0,0:0:0:0:
346,304,88191,2,0,L|266:308,1,80,2|0,0:0|0:0,0:0:0:0:
20,77,88566,6,0,P|55:117|77:226,1,160,4|0,1:0|0:0,0:0:0:0:
40,296,89128,1,0,0:0:0:0:
155,195,89316,6,0,P|106:215|38:303,1,160,8|0,0:0|0:0,0:0:0:0:
23,382,89878,1,0,0:0:0:0:
166,277,90066,6,0,P|239:248|318:258,1,160,8|0,1:1|0:0,0:0:0:0:
391,298,90628,1,0,0:0:0:0:
415,77,90816,6,0,P|386:116|395:303,1,240,8|0,0:0|0:0,0:0:0:0:
346,134,91566,2,0,P|299:114|246:109,1,80,8|0,0:0|0:0,0:0:0:0:
325,357,91941,6,0,P|370:337|486:186,1,240,10|0,0:1|0:0,0:0:0:0:
290,85,92691,1,8,0:0:0:0:
290,85,92878,2,0,P|291:116|309:164,1,80,0|6,0:0|1:1,0:0:0:0:
289,47,93816,5,2,0:0:0:0:
482,100,94003,1,0,0:0:0:0:
193,129,94191,5,2,0:0:0:0:
385,73,94378,1,0,0:0:0:0:
254,221,94566,6,0,P|225:177|210:53,1,160,4|0,1:0|0:0,0:0:0:0:
356,172,95128,1,0,0:0:0:0:
308,320,95316,6,0,P|337:276|352:152,1,160,8|0,0:0|0:0,0:0:0:0:
206,210,95878,2,0,P|258:206|366:144,1,160,0|0,0:0|0:0,0:0:0:0:
300,93,96441,2,0,P|334:133|376:160,1,80,0|0,0:0|0:0,0:0:0:0:
439,201,96816,2,0,P|489:185|531:159,1,80,8|0,0:0|0:0,0:0:0:0:
216,89,97191,6,0,P|271:82|457:78,1,240,0|0,0:0|0:0,0:0:0:0:
178,199,97941,2,0,P|117:181|32:135,1,160,2|8,0:0|0:0,0:0:0:0:
379,168,98691,1,0,1:0:0:0:
107,336,99066,1,10,1:1:0:0:
176,64,99441,1,0,0:0:0:0:
301,281,99816,6,0,P|305:329|302:378,1,80,2|0,0:0|0:0,0:0:0:0:
214,231,100191,2,0,P|213:191|217:152,1,80,2|0,0:0|0:0,0:0:0:0:
437,376,100566,6,0,P|361:370|178:372,1,240,8|0,0:2|0:0,0:0:0:0:
71,138,101316,2,0,P|82:186|93:313,1,160,8|0,0:2|0:0,0:0:0:0:
70,382,101878,1,0,0:0:0:0:
8,205,102066,6,0,P|30:141|85:42,1,160,8|0,0:2|0:0,0:0:0:0:
163,54,102628,1,0,0:0:0:0:
381,120,102816,6,0,P|324:119|213:134,1,160,4|8,0:1|1:2,0:0:0:0:
200,144,103566,1,2,0:0:0:0:
324,195,103753,1,0,0:0:0:0:
127,222,103941,1,2,0:0:0:0:
245,232,104128,1,0,0:0:0:0:
87,317,104316,6,0,P|98:267|95:135,1,160,8|0,1:2|0:0,0:0:0:0:
69,79,104878,1,0,0:0:0:0:
178,375,105066,2,0,P|195:334|203:291,1,80,2|0,1:0|0:0,0:0:0:0:
0,162,105441,2,0,P|4:201|16:239,1,80,0|0,0:0|0:0,0:0:0:0:
227,105,105816,5,12,0:0:0:0:
112,146,106003,1,0,0:0:0:0:
286,199,106191,1,0,0:0:0:0:
286,199,106378,1,0,0:0:0:0:
286,199,106566,6,0,P|230:197|193:203,1,80,0|0,1:0|0:0,0:0:0:0:
378,251,106941,2,0,P|403:201|413:165,1,80,0|0,1:0|0:0,0:0:0:0:
197,191,107316,6,0,P|145:213|115:235,1,80,12|0,0:0|0:0,0:0:0:0:
432,167,107691,2,0,P|431:110|423:74,1,80,0|0,0:0|0:0,0:0:0:0:
111,228,108066,6,0,P|68:263|44:293,1,80,0|0,1:0|0:0,0:0:0:0:
440,74,108441,2,0,P|421:21|402:-11,1,80,0|0,1:0|0:0,0:0:0:0:
212,145,108816,6,0,B|336:151|383:133|387:30|300:-29|215:18|221:91|231:131|258:141|350:175|285:268,1,479.920011936487,4|0,0:1|0:0,0:0:0:0:
285,267,109566,6,0,P|275:219|286:180,1,80,8|0,0:0|0:0,0:0:0:0:
120,116,109941,2,0,P|135:69|164:41,1,80,0|0,0:0|0:0,0:0:0:0:
176,38,110316,5,2,0:0:0:0:
57,298,110691,2,0,P|105:269|228:232,1,160,0|4,0:0|1:2,0:0:0:0:
236,227,111441,2,0,P|197:220|149:221,1,80,0|0,1:0|1:0,0:0:0:0:
435,324,111816,5,2,0:0:0:0:
425,191,112003,1,0,0:0:0:0:
351,277,112191,5,2,0:0:0:0:
399,102,112378,1,0,0:0:0:0:
509,266,112566,6,0,P|454:273|343:326,1,160,4|0,1:0|0:0,0:0:0:0:
301,384,113128,1,0,0:0:0:0:
304,67,113316,6,0,P|311:121|289:242,1,160,8|0,0:0|0:0,0:0:0:0:
231,288,113878,1,0,0:0:0:0:
454,261,114066,6,0,P|478:217|504:87,1,160,8|0,1:0|0:0,0:0:0:0:
412,3,114628,1,0,0:0:0:0:
148,113,114816,6,0,P|211:127|403:111,1,240,8|0,0:0|0:0,0:0:0:0:
147,16,115566,2,0,P|104:36|67:59,1,80,8|0,0:0|0:0,0:0:0:0:
209,323,115941,6,0,P|226:266|232:87,1,240,10|0,0:1|0:0,0:0:0:0:
50,263,116691,1,8,0:0:0:0:
50,263,116878,2,0,P|41:314|37:353,1,80,0|6,0:0|1:1,0:0:0:0:
429,175,117816,5,2,0:0:0:0:
242,194,118003,1,0,0:0:0:0:
161,150,118191,5,2,0:0:0:0:
338,189,118378,1,0,0:0:0:0:
54,204,118566,6,0,P|116:189|246:176,1,160,4|0,1:0|0:0,0:0:0:0:
159,318,119128,1,0,0:0:0:0:
316,341,119316,6,0,P|252:336|124:308,1,160,8|0,0:0|0:0,0:0:0:0:
405,279,119878,2,0,P|356:237|269:140,1,160,0|0,0:0|0:0,0:0:0:0:
511,330,120441,2,0,P|494:290|485:252,1,80,0|0,0:0|0:0,0:0:0:0:
489,98,120816,1,8,0:0:0:0:
499,77,121191,6,0,P|458:123|418:374,1,320,0|8,0:0|0:0,0:0:0:0:
384,191,122128,1,0,0:0:0:0:
384,191,122316,2,0,L|296:189,1,80,2|0,0:0|0:0,0:0:0:0:
65,86,122691,1,8,0:0:0:0:
132,132,123066,5,2,1:1:0:0:
310,37,123253,1,0,0:0:0:0:
260,102,123628,5,0,0:0:0:0:
194,282,123816,2,0,P|199:236|213:196,1,80,2|0,0:0|0:0,0:0:0:0:
426,252,124191,2,0,P|456:287|475:324,1,80,2|0,0:0|0:0,0:0:0:0:
129,331,124566,6,0,P|181:324|374:317,1,240,8|0,0:2|0:0,0:0:0:0:
11,273,125316,2,0,P|64:253|172:230,1,160,8|0,0:2|0:0,0:0:0:0:
260,221,125878,1,0,0:0:0:0:
419,94,126066,2,0,P|392:144|353:248,1,160,8|0,0:2|0:0,0:0:0:0:
366,330,126628,1,0,0:0:0:0:
486,253,126816,2,0,P|484:217|478:168,2,80,4|0|8,0:1|0:0|1:2,0:0:0:0:
480,269,127566,5,2,0:0:0:0:
252,255,127753,1,0,0:0:0:0:
427,344,127941,5,2,0:0:0:0:
208,358,128128,1,0,0:0:0:0:
126,128,128316,6,0,P|143:185|161:286,1,160,8|0,1:2|0:0,0:0:0:0:
70,258,128878,1,0,0:0:0:0:
285,114,129066,2,0,P|325:104|366:96,1,80,2|0,1:0|0:0,0:0:0:0:
160,283,129441,2,0,P|120:275|81:265,1,80,0|0,0:0|0:0,0:0:0:0:
231,198,129816,5,12,0:0:0:0:
204,361,130003,1,0,0:0:0:0:
323,262,130191,1,0,0:0:0:0:
323,262,130378,1,0,0:0:0:0:
323,262,130566,6,0,P|320:310|322:349,1,80,0|0,1:0|0:0,0:0:0:0:
164,116,130941,2,0,P|120:135|86:155,1,80,0|0,1:0|0:0,0:0:0:0:
403,294,131316,6,0,P|407:341|415:380,1,80,12|0,0:0|0:0,0:0:0:0:
172,202,131691,2,0,P|131:228|101:253,1,80,0|0,0:0|0:0,0:0:0:0:
490,306,132066,6,0,P|501:352|515:389,1,80,0|0,1:0|0:0,0:0:0:0:
190,289,132441,2,0,P|154:321|128:350,1,80,0|0,1:0|0:0,0:0:0:0:
308,169,132816,6,0,B|266:175|236:88|286:48|327:26|388:48|414:89|406:133|394:158|362:176|341:180|341:180|310:195|285:257|309:311,1,478.800014977112,4|0,0:1|0:0,0:0:0:0:
316,321,133566,6,0,P|364:315|399:309,1,80,8|0,0:0|0:0,0:0:0:0:
108,356,133941,2,0,P|156:362|191:368,1,80,0|0,0:0|0:0,0:0:0:0:
0,307,134316,1,8,0:0:0:0:
0,307,134691,5,0,0:0:0:0:
68,138,134878,1,0,0:0:0:0:
130,260,135066,2,0,L|129:228,2,20,4|0|0,1:1|0:0|0:0,0:0:0:0:
12,317,135441,5,0,0:0:0:0:
80,148,135628,1,0,0:0:0:0:
142,270,135816,1,2,0:0:0:0:
237,265,136003,1,2,0:0:0:0:
333,260,136191,1,8,0:0:0:0:
428,255,136378,1,2,0:0:0:0:
184,171,136566,6,0,L|145:167,3,26.6666666666667,0|0|0|0,1:0|0:0|0:0|0:0,0:0:0:0:
439,118,139539,5,2,0:1:0:0:
407,125,140290,1,2,0:0:0:0:
375,131,141041,1,8,0:0:0:0:
343,138,141792,1,2,0:0:0:0:
312,146,142543,6,0,L|290:143,4,13.3333333333333,2|0|0|0|0,0:1|0:0|0:0|0:0|0:0,0:0:0:0:
434,358,143294,5,2,0:0:0:0:
427,326,144046,1,8,0:0:0:0:
420,294,144797,1,2,0:0:0:0:
406,198,145548,5,10,0:0:0:0:
232,224,146307,1,2,0:0:0:0:
384,218,147066,6,0,P|382:237|372:272,1,40,8|0,0:0|0:0,0:0:0:0:
312,310,147441,1,2,0:0:0:0:
312,310,147628,1,0,0:0:0:0:
254,109,147816,6,0,P|269:120|294:146,1,40,2|0,1:0|0:0,0:0:0:0:
300,222,148191,1,0,0:0:0:0:
300,222,148378,1,0,0:0:0:0:
94,167,148566,6,0,P|111:159|146:150,1,40,8|0,0:0|0:0,0:0:0:0:
211,193,148941,1,2,0:0:0:0:
211,193,149128,1,0,0:0:0:0:
64,334,149316,6,0,P|65:315|75:280,1,40,6|0,0:1|0:0,0:0:0:0:
136,241,149691,1,8,0:0:0:0:
136,241,149878,1,0,0:0:0:0:
405,189,150066,6,0,L|430:188,2,20,8|0|0,0:0|0:0|0:0,0:0:0:0:
314,194,150441,1,2,0:0:0:0:
314,194,150628,1,0,0:0:0:0:
234,27,150816,6,0,P|259:45|266:56,1,40,2|0,0:1|0:0,0:0:0:0:
361,71,151191,2,0,P|373:99|374:112,1,40,2|0,0:0|0:0,0:0:0:0:
497,226,151566,6,0,P|479:251|468:257,1,40,8|0,0:0|0:0,0:0:0:0:
453,351,151941,2,0,P|424:363|411:364,1,40,2|0,0:0|0:0,0:0:0:0:
197,341,152316,6,0,L|244:335,1,40,6|0,0:1|0:0,0:0:0:0:
317,291,152691,2,0,L|364:285,1,40,2|0,0:0|0:0,0:0:0:0:
365,278,153066,6,0,L|318:272,1,40,12|0,0:0|0:0,0:0:0:0:
245,228,153441,2,0,L|205:222,1,40,2|0,0:0|0:0,0:0:0:0:
92,149,153816,6,0,B|83:170|83:170|88:204,1,40,8|0,0:0|0:0,0:0:0:0:
169,193,154191,2,0,B|178:172|178:172|175:155,1,40,2|0,0:0|0:0,0:0:0:0:
77,276,154566,6,0,B|68:297|68:297|73:331,1,40,8|0,0:0|0:0,0:0:0:0:
154,320,154941,2,0,B|163:299|163:299|160:282,1,40,2|0,0:0|0:0,0:0:0:0:
255,246,155316,5,2,0:0:0:0:
255,246,155503,1,0,0:0:0:0:
255,246,155691,1,2,0:0:0:0:
255,246,155878,1,0,0:0:0:0:
342,205,156066,5,8,0:0:0:0:
342,205,156253,1,0,0:0:0:0:
419,273,156441,1,2,0:0:0:0:
419,273,156628,1,0,0:0:0:0:
512,234,156816,6,0,L|507:191,1,40,8|0,0:0|0:0,0:0:0:0:
251,323,157191,2,0,L|246:362,1,40,2|0,0:0|0:0,0:0:0:0:
507,194,157566,6,0,L|502:151,1,40,6|0,0:1|0:0,0:0:0:0:
255,283,157941,1,0,0:0:0:0:
384,236,158128,5,8,0:0:0:0:
306,89,158316,2,0,L|303:124,1,20,2|0,0:0|0:0,0:0:0:0:
295,190,158503,1,2,0:0:0:0:
75,316,158691,2,0,L|73:296,1,20,8|0,0:3|0:0,0:0:0:0:
92,269,158878,2,0,L|90:249,1,20,8|0,0:3|0:0,0:0:0:0:
134,165,159066,5,4,0:1:0:0:
198,99,159441,2,0,P|221:137|222:189,1,80,0|0,0:0|1:0,0:0:0:0:
134,165,160191,1,0,0:0:0:0:
300,93,160566,2,0,L|386:89,1,80,0|0,1:0|0:0,0:0:0:0:
467,80,161316,1,4,1:0:0:0:
467,80,161691,1,0,0:0:0:0:
368,177,162066,6,0,L|366:266,1,80,8|12,0:0|0:0,0:0:0:0:
256,214,162628,1,0,0:0:0:0:
254,293,162816,2,0,L|255:213,1,80,2|0,0:0|1:0,0:0:0:0:
462,247,163566,6,0,P|459:288|440:323,1,80,0|8,0:0|0:1,0:0:0:0:
440,321,164128,1,0,0:0:0:0:
360,365,164316,1,0,0:0:0:0:
360,365,164503,2,0,L|308:361,1,40,0|0,0:0|1:0,0:0:0:0:
171,292,164878,1,0,0:0:0:0:
268,282,165066,5,4,0:1:0:0:
324,169,165441,2,0,L|329:122,2,40,0|0|0,1:0|0:0|0:0,0:0:0:0:
229,181,166191,2,0,L|234:134,1,40,0|0,0:0|0:0,0:0:0:0:
427,111,166566,2,0,L|417:190,1,80,0|0,1:0|1:0,0:0:0:0:
374,285,167128,1,0,0:0:0:0:
449,290,167316,2,0,P|380:281|366:289,1,80,8|8,0:0|0:0,0:0:0:0:
146,356,168066,6,0,P|223:362|278:296,1,160,4|0,0:1|1:0,0:0:0:0:
202,202,169191,2,0,L|191:293,2,80,0|6|0,0:0|0:1|0:0,0:0:0:0:
149,106,170316,2,0,L|158:26,1,80,0|0,0:0|1:0,0:0:0:0:
429,114,171066,6,0,P|401:131|345:119,1,80,10|0,0:0|0:0,0:0:0:0:
287,59,171816,1,0,0:0:0:0:
287,59,172191,1,2,0:0:0:0:
317,317,172566,6,0,L|308:224,1,80,0|2,0:0|0:0,0:0:0:0:
298,146,173316,1,8,0:0:0:0:
298,146,173691,1,2,0:0:0:0:
152,102,174066,6,0,P|91:134|151:180,1,160,8|8,0:0|0:0,0:0:0:0:
210,245,175191,1,0,1:0:0:0:
302,194,175566,2,0,L|390:188,1,80,0|2,1:0|0:0,0:0:0:0:
381,188,176128,1,8,0:0:0:0:
355,287,176316,1,2,0:0:0:0:
355,287,176503,2,0,L|409:283,1,40,2|2,0:0|0:1,0:0:0:0:
494,275,176878,5,2,0:0:0:0:
494,275,177066,1,4,1:0:0:0:
278,233,177441,2,0,P|259:270|264:313,1,80,4|0,0:0|1:0,0:0:0:0:
320,376,178191,1,0,0:0:0:0:
58,330,178566,1,8,0:0:0:0:
159,319,178941,2,0,L|150:369,3,40,0|0|0|0,1:0|1:0|1:0|1:0,0:0:0:0:
120,244,179691,6,0,P|110:206|119:158,1,80,0|0,1:0|0:0,0:0:0:0:
270,315,180441,2,0,P|253:350|215:380,1,80,0|4,0:0|0:0,0:0:0:0:
319,176,181191,1,4,0:1:0:0:
508,162,181566,6,0,B|385:119|434:225|305:171,1,200,8|0,0:0|0:0,0:0:0:0:
198,125,182691,6,0,L|193:172,1,40,0|0,1:0|0:0,0:0:0:0:
256,316,183066,5,6,0:3:0:0:
124,301,183253,1,0,0:0:0:0:
201,245,183441,5,0,0:0:0:0:
192,378,183628,1,0,0:0:0:0:
320,378,183816,5,4,0:3:0:0:
311,245,184003,1,0,0:0:0:0:
388,301,184191,5,0,0:0:0:0:
256,316,184378,1,0,0:0:0:0:
91,185,184566,6,0,L|88:210,1,20,6|0,0:3|0:0,0:0:0:0:
204,164,184941,2,0,L|201:189,1,20,4|0,0:3|0:0,0:0:0:0:
317,143,185316,2,0,L|314:168,1,20,4|0,0:0|0:0,0:0:0:0:
430,122,185691,2,0,L|427:147,1,20,0|0,0:0|0:0,0:0:0:0:
369,241,186066,5,6,0:3:0:0:
489,227,186253,1,0,0:0:0:0:
482,284,186441,5,0,0:0:0:0:
374,271,186628,1,0,0:0:0:0:
385,318,186816,5,0,0:0:0:0:
479,311,187003,1,0,0:0:0:0:
475,351,187191,5,4,0:3:0:0:
390,344,187378,1,0,0:0:0:0:
271,239,187566,6,0,P|256:238|246:240,1,20,4|0,0:3|0:0,0:0:0:0:
175,211,187941,2,0,P|161:217|153:224,1,20,0|0,0:0|0:0,0:0:0:0:
77,234,188316,2,0,P|68:246|65:256,1,20,4|0,0:0|0:0,0:0:0:0:
3,302,188691,2,0,P|2:317|4:327,1,20,0|0,0:0|0:0,0:0:0:0:
135,371,189066,6,0,L|186:368,3,40,6|0|0|0,0:3|0:0|0:0|0:0,0:0:0:0:
285,276,189816,1,4,0:3:0:0:
277,372,190003,1,0,0:0:0:0:
373,279,190191,1,0,0:0:0:0:
365,375,190378,1,0,0:0:0:0:
465,317,190566,5,6,0:3:0:0:
456,205,190753,1,0,0:0:0:0:
381,90,190941,2,0,P|376:115|380:135,1,40,0|0,0:0|0:0,0:0:0:0:
365,375,191316,5,4,0:3:0:0:
296,285,191503,1,0,0:0:0:0:
170,230,191691,2,0,P|179:253|193:268,1,40,0|0,0:0|0:0,0:0:0:0:
294,100,192066,5,4,0:3:0:0:
294,100,192441,2,0,L|209:94,1,80,6|0,0:3|0:0,0:0:0:0:
184,92,193003,1,0,0:0:0:0:
348,33,193191,1,0,0:0:0:0:
234,175,193378,1,0,0:0:0:0:
410,210,193566,5,4,0:3:0:0:
406,184,193753,1,0,0:0:0:0:
326,274,193941,1,0,0:0:0:0:
322,248,194128,1,0,0:0:0:0:
242,338,194316,1,6,0:3:0:0:
238,312,194503,1,0,0:0:0:0:
152,234,194691,1,4,0:3:0:0:
133,370,194878,1,0,0:0:0:0:
378,312,195066,6,0,L|424:315,1,40,6|0,0:3|0:0,0:0:0:0:
495,319,195441,1,0,0:0:0:0:
297,308,195628,1,0,0:0:0:0:
384,228,195816,5,0,0:0:0:0:
500,234,196003,1,0,0:0:0:0:
302,223,196191,2,0,L|262:220,1,40,0|0,0:0|0:0,0:0:0:0:
426,143,196566,5,4,0:3:0:0:
503,147,196753,1,0,0:0:0:0:
305,136,196941,2,0,L|344:138,1,40,0|0,0:0|0:0,0:0:0:0:
511,56,197316,5,6,0:3:0:0:
313,45,197503,1,0,0:0:0:0:
433,51,197691,2,0,L|394:49,1,40,4|0,0:3|0:0,0:0:0:0:
172,184,198066,6,0,P|185:151|190:97,1,80,6|0,0:3|0:0,0:0:0:0:
18,104,198628,1,0,0:0:0:0:
83,45,198816,2,0,P|96:78|101:132,1,80,0|0,0:0|0:0,0:0:0:0:
90,205,199378,1,0,0:0:0:0:
51,303,199566,6,0,L|137:298,2,80,4|8|0,0:3|0:2|0:0,0:0:0:0:
188,220,200503,1,0,0:0:0:0:
133,378,200691,1,0,0:0:0:0:
188,220,200878,1,0,0:0:0:0:
248,365,201066,6,0,L|290:363,1,40,6|0,0:3|0:0,0:0:0:0:
367,298,201441,1,4,0:3:0:0:
367,298,201628,1,0,0:0:0:0:
459,373,201816,6,0,L|457:331,1,40,6|0,0:3|0:0,0:0:0:0:
361,207,202191,1,4,0:3:0:0:
361,207,202378,1,0,0:0:0:0:
212,40,202566,5,6,0:3:0:0:
300,40,202753,1,0,0:0:0:0:
324,128,202941,5,4,0:3:0:0:
188,128,203128,1,0,0:0:0:0:
296,220,203316,5,6,0:3:0:0:
204,332,203503,1,0,0:0:0:0:
216,220,203691,5,0,0:0:0:0:
308,332,203878,1,0,0:0:0:0:
128,265,204066,6,0,L|123:220,1,40,4|0,0:3|0:0,0:0:0:0:
388,225,204441,2,0,L|384:265,1,40,0|0,0:0|0:0,0:0:0:0:
204,143,204816,6,0,L|199:98,1,40,4|0,0:3|0:0,0:0:0:0:
312,103,205191,2,0,L|308:143,1,40,0|0,0:0|0:0,0:0:0:0:
256,312,205566,6,0,L|256:328,10,13.3333333333333,0|0|0|0|0|0|0|0|0|0|0,1:0|0:0|0:0|0:0|0:0|0:0|0:0|0:0|0:0|1:0|0:0,0:0:0:0:
242,273,206316,6,0,L|326:266,1,80,2|0,0:0|0:0,0:0:0:0:
129,248,206691,2,0,L|50:255,1,80,2|0,0:0|0:0,0:0:0:0:
462,362,207066,6,0,B|496:319|492:274|492:274|450:252|448:202,1,160,4|0,1:0|0:0,0:0:0:0:
480,130,207628,1,0,0:0:0:0:
365,122,207816,6,0,B|407:59|498:64|526:110|526:110|489:114|465:145,1,240,8|0,0:0|0:0,0:0:0:0:
349,195,208566,2,0,L|344:36,1,160,8|0,1:0|0:0,0:0:0:0:
175,129,209128,1,0,0:0:0:0:
61,185,209316,6,0,B|116:192|155:161|155:161|113:212|119:251|156:288|192:294,1,240,8|0,0:0|0:0,0:0:0:0:
270,321,210066,2,0,P|323:321|357:306,1,80,8|0,0:0|0:0,0:0:0:0:
469,193,210441,6,0,B|396:200|376:272|376:272|411:351|498:307,1,240,10|0,1:0|0:0,0:0:0:0:
297,190,211191,1,8,0:0:0:0:
297,190,211378,2,0,L|213:197,1,80,0|6,0:0|1:0,0:0:0:0:
58,99,212316,5,2,0:0:0:0:
299,80,212503,1,0,0:0:0:0:
70,115,212691,5,2,0:0:0:0:
285,98,212878,1,0,0:0:0:0:
84,133,213066,6,0,B|73:191|101:229|101:229|87:264|100:300,1,160,4|0,1:0|0:0,0:0:0:0:
40,368,213628,1,0,0:0:0:0:
175,264,213816,2,0,B|229:252|229:252|266:275|306:288|364:257,1,160,8|0,0:0|0:0,0:0:0:0:
454,246,214378,2,0,B|444:237|432:219|432:219|404:274|414:338|468:352,1,160,0|0,0:0|0:0,0:0:0:0:
508,180,214941,2,0,L|505:95,1,80,0|0,0:0|0:0,0:0:0:0:
361,56,215316,5,8,0:0:0:0:
361,56,215503,1,0,0:0:0:0:
330,140,215691,2,0,P|373:145|416:124,1,80,0|0,0:0|0:0,0:0:0:0:
240,106,216066,2,0,L|155:103,1,80,8|0,0:0|0:0,0:0:0:0:
67,98,216441,1,10,1:0:0:0:
196,324,216816,5,2,0:0:0:0:
128,256,217191,1,8,0:0:0:0:
105,352,217566,1,10,1:0:0:0:
437,355,218316,5,2,0:0:0:0:
449,187,218503,1,0,0:0:0:0:
415,266,218691,5,2,0:0:0:0:
427,104,218878,1,0,0:0:0:0:
221,218,219066,6,0,B|180:211|180:211|146:249|86:260|29:198|46:124|97:123,1,240,8|0,0:0|0:0,0:0:0:0:
214,64,219816,2,0,B|316:44|254:109|390:84,1,160,8|8,0:0|0:0,0:0:0:0:
467,42,220378,1,0,0:0:0:0:
237,142,220566,2,0,B|186:169|185:244|221:280|221:280|225:235|260:207,1,240,2|0,0:0|0:0,0:0:0:0:
385,260,221316,2,0,B|447:268|490:238|490:238|462:265|461:308,1,160,4|8,0:1|1:2,0:0:0:0:
456,290,222066,6,0,L|461:203,1,80,2|0,0:0|0:0,0:0:0:0:
341,80,222441,2,0,B|329:117|329:117|347:172,1,80,2|0,0:0|0:0,0:0:0:0:
415,115,222816,6,0,L|236:122,1,160,8|0,1:2|0:0,0:0:0:0:
180,81,223378,1,0,0:0:0:0:
77,229,223566,2,0,B|105:197|105:197|130:230|134:275|108:312,1,160,2|0,1:0|0:0,0:0:0:0:
45,361,224128,1,0,0:0:0:0:
243,317,224316,5,0,1:0:0:0:
243,317,224503,1,0,0:0:0:0:
286,228,224691,1,0,1:0:0:0:
158,365,224878,1,0,0:0:0:0:
344,340,225066,6,0,B|378:318|378:318|432:336,1,80,4|0,1:0|0:0,0:0:0:0:
447,187,225441,2,0,B|483:205|483:205|494:261,1,80,0|0,0:0|0:0,0:0:0:0:
418,74,225816,5,0,1:0:0:0:
418,74,226003,1,0,0:0:0:0:
209,153,226191,2,0,L|298:147,1,80,0|0,1:0|0:0,0:0:0:0:
456,266,226566,6,0,L|371:259,1,80,4|0,1:0|0:0,0:0:0:0:
185,307,226941,2,0,B|264:315,1,80,0|0,1:0|0:0,0:0:0:0:
134,109,227316,6,0,B|42:112|-8:220|4:307|70:351|70:351|60:295|67:244|95:198|157:195,1,480,2|0,0:0|0:0,0:0:0:0:
254,246,228066,6,0,L|340:241,1,80,8|0,0:0|0:0,0:0:0:0:
466,231,228441,1,0,0:0:0:0:
419,328,228628,1,0,0:0:0:0:
386,121,228816,1,4,0:1:0:0:
382,111,229191,5,4,0:1:0:0:
418,337,229378,1,0,0:0:0:0:
469,231,229566,2,0,B|320:197|385:314|220:263,1,240,4|0,0:0|0:0,0:0:0:0:
155,188,230316,6,0,L|150:100,1,80,2|0,0:0|0:0,0:0:0:0:
293,92,230691,1,2,0:0:0:0:
293,92,230878,1,0,0:0:0:0:
482,220,231066,6,0,B|438:212|438:212|407:244|372:253|318:232,1,160,4|0,1:0|0:0,0:0:0:0:
257,196,231628,1,0,0:0:0:0:
221,298,231816,6,0,B|238:330|230:356|230:356|262:349|272:301|253:273|253:273|235:242|241:208|274:174,1,240,8|0,0:0|0:0,0:0:0:0:
334,133,232566,2,0,B|289:168|247:160|247:160|218:130|158:122,1,160,8|0,0:1|0:0,0:0:0:0:
92,133,233128,1,0,0:0:0:0:
38,274,233316,6,0,B|74:257|74:257|100:289|154:282|154:282|185:247,1,160,8|0,0:0|0:0,0:0:0:0:
288,226,233878,2,0,B|337:214|337:214|311:257|313:297|356:325,1,160,0|0,0:0|0:0,0:0:0:0:
488,336,234441,2,0,B|506:273|476:225|476:225|445:189|434:145|460:98,1,240,10|0,1:0|0:0,0:0:0:0:
498,30,235191,1,8,0:0:0:0:
498,30,235378,2,0,L|409:26,1,80,0|6,0:0|1:0,0:0:0:0:
70,100,236316,5,2,0:0:0:0:
323,73,236503,1,0,0:0:0:0:
312,56,236691,5,2,0:0:0:0:
248,301,236878,1,0,0:0:0:0:
203,229,237066,6,0,P|164:277|160:302,1,80,4|0,1:0|0:0,0:0:0:0:
292,377,237441,2,0,P|331:329|335:304,1,80,0|0,0:0|0:0,0:0:0:0:
304,141,237816,6,0,B|330:165|330:165|367:140|420:138|462:192,1,160,8|0,0:0|0:0,0:0:0:0:
466,253,238378,2,0,L|477:89,1,160,0|0,0:0|0:0,0:0:0:0:
194,120,238941,2,0,L|201:205,1,80,0|0,0:0|0:0,0:0:0:0:
342,36,239316,5,8,0:0:0:0:
342,36,239691,2,0,B|288:41|264:68|264:68|222:22|156:24|124:57|117:95,1,240,0|0,0:0|0:0,0:0:0:0:
51,208,240441,2,0,L|44:115,1,80,10|0,1:0|0:0,0:0:0:0:
194,120,240816,5,2,0:0:0:0:
134,354,241191,1,8,0:0:0:0:
64,240,241566,1,10,0:1:0:0:
78,247,241753,1,0,0:0:0:0:
94,247,241941,1,0,0:0:0:0:
109,244,242128,1,0,0:0:0:0:
137,229,242316,5,2,0:0:0:0:
202,183,242503,1,0,0:0:0:0:
281,191,242691,1,2,0:0:0:0:
327,255,242878,1,0,0:0:0:0:
276,357,243066,6,0,B|309:322|370:305|424:326|424:326|378:348|357:377,1,240,8|0,0:0|0:0,0:0:0:0:
209,287,243816,2,0,B|169:313|169:313|127:284|77:292|53:316,1,160,8|8,0:0|0:0,0:0:0:0:
0,363,244378,1,0,0:0:0:0:
140,212,244566,2,0,P|155:171|141:128,1,80,2|0,0:0|0:0,0:0:0:0:
1,158,244941,2,0,P|5:201|36:233,1,80,0|0,0:0|0:0,0:0:0:0:
81,173,245316,5,4,0:1:0:0:
81,173,245503,1,0,0:0:0:0:
97,34,245691,1,8,1:2:0:0:
394,44,246066,6,0,L|389:129,1,80,2|0,0:0|0:0,0:0:0:0:
292,143,246441,2,0,L|297:228,1,80,2|0,0:0|0:0,0:0:0:0:
486,290,246816,6,0,B|447:260|403:260|373:286|373:286|380:317|356:338,1,160,8|0,1:2|0:0,0:0:0:0:
304,374,247378,1,0,0:0:0:0:
132,305,247566,2,0,L|309:297,1,160,4|0,1:0|0:0,0:0:0:0:
311,288,248316,6,0,P|275:268|255:220,1,80,0|0,1:0|0:0,0:0:0:0:
396,174,248691,2,0,P|386:133|409:86,1,80,0|0,1:0|0:0,0:0:0:0:
494,268,249066,6,0,B|455:257|455:257|414:280,1,80,4|0,1:0|0:0,0:0:0:0:
248,336,249441,2,0,B|209:347|209:347|174:327,1,80,0|0,0:0|0:0,0:0:0:0:
62,170,249816,5,0,1:0:0:0:
62,170,250003,1,0,0:0:0:0:
168,149,250191,2,0,L|161:231,1,80,0|0,1:0|0:0,0:0:0:0:
272,136,250566,6,0,L|266:232,1,80,12|0,1:0|0:0,0:0:0:0:
72,356,250941,2,0,L|68:262,1,80,0|0,0:0|0:0,0:0:0:0:
40,95,251316,6,0,B|67:70|96:59|129:57|170:74|209:99|221:189|184:221|140:251|86:255|47:232|20:176|20:176|54:178|94:162,1,480,2|0,0:0|0:0,0:0:0:0:
212,142,252066,6,0,L|301:137,1,80,8|0,0:0|0:0,0:0:0:0:
408,128,252441,1,0,0:0:0:0:
408,140,252816,1,0,0:0:0:0:
408,152,253191,1,4,0:1:0:0:
381,54,253378,1,0,0:0:0:0:
505,141,253566,2,0,L|501:234,1,80,12|0,0:0|0:0,0:0:0:0:
205,258,253941,5,0,0:0:0:0:
298,214,254128,1,0,0:0:0:0:
377,229,254316,1,2,1:0:0:0:
414,252,254503,1,0,0:0:0:0:
427,268,254691,1,8,1:2:0:0:
432,279,254878,1,8,0:0:0:0:
433,286,255066,6,0,L|440:123,1,160,4|0,0:0|0:0,0:0:0:0:
335,59,255628,1,0,0:0:0:0:
335,59,255816,2,0,L|342:152,1,80,4|0,0:0|0:0,0:0:0:0:
124,145,256191,6,0,B|164:134|164:134|211:166,1,80,0|0,0:0|0:0,0:0:0:0:
72,219,256566,2,0,L|67:53,1,160,8|0,0:2|0:0,0:0:0:0:
142,55,257128,1,0,0:0:0:0:
220,51,257316,5,2,0:0:0:0:
451,175,257691,2,0,L|445:256,1,80,4|0,0:0|0:0,0:0:0:0:
269,233,258066,1,0,0:0:0:0:
360,227,258253,1,0,0:0:0:0:
273,321,258441,1,0,0:0:0:0:
364,315,258628,1,0,0:0:0:0:
364,315,258816,5,2,0:3:0:0:
66,357,259191,1,0,0:0:0:0:
75,277,259378,1,0,0:0:0:0:
85,197,259566,1,8,0:2:0:0:
95,117,259753,1,0,0:0:0:0:
95,117,260316,6,0,P|149:99|184:109,1,80,2|0,0:2|0:0,0:0:0:0:
313,207,260691,2,0,P|273:209|237:192,1,80,0|0,0:0|0:0,0:0:0:0:
417,146,261066,2,0,L|408:317,1,160,4|0,0:0|0:0,0:0:0:0:
408,305,261628,1,0,0:0:0:0:
408,305,261816,5,0,0:0:0:0:
118,263,262191,2,0,L|204:258,1,80,0|0,0:0|0:0,0:0:0:0:
46,314,262566,2,0,B|-4:251|-4:251|59:192,1,160,2|0,0:3|0:0,0:0:0:0:
118,263,263128,1,0,0:0:0:0:
252,353,263316,6,0,L|251:191,1,160,4|2,0:0|0:2,0:0:0:0:
250,116,263878,1,0,0:0:0:0:
250,37,264066,1,0,0:0:0:0:
459,102,264441,2,0,P|416:114|377:101,1,80,0|0,0:0|0:0,0:0:0:0:
421,41,264816,6,0,L|420:227,1,160,2|0,0:2|0:0,0:0:0:0:
420,200,265378,1,0,0:0:0:0:
316,339,265566,5,2,0:0:0:0:
316,339,265941,1,0,0:0:0:0:
420,200,266128,1,0,0:0:0:0:
489,308,266316,5,0,0:0:0:0:
402,323,266503,1,0,0:0:0:0:
316,339,266691,1,0,0:0:0:0:
230,356,266878,1,0,0:0:0:0:
149,319,267066,5,0,0:0:0:0:
124,238,267816,1,0,0:0:0:0:
124,238,268566,1,0,0:0:0:0:
169,164,269316,1,0,0:0:0:0:
128,88,270066,1,0,0:0:0:0:
128,88,270816,1,0,0:0:0:0:
128,88,271566,1,4,0:0:0:0:
256,192,271753,12,0,273066,0:0:0:0:
128,88,273816,5,4,0:0:0:0:
413,112,274566,1,2,0:1:0:0:
336,67,275316,6,0,P|323:90|323:102,1,32,0|0,0:0|0:0,0:0:0:0:
258,154,276066,2,0,P|257:180|262:191,1,32,0|0,0:0|0:0,0:0:0:0:
368,294,276816,6,0,P|345:281|333:281,1,32,0|0,0:0|0:0,0:0:0:0:
281,216,277566,2,0,P|254:215|243:220,2,32,0|0|0,0:0|0:0|0:0,0:0:0:0:
191,295,278691,2,0,P|162:267|172:157,1,160,0|0,0:0|0:0,0:0:0:0:
234,92,280941,1,0,0:0:0:0:
234,92,281128,2,0,L|270:93,1,32,0|0,0:0|0:0,0:0:0:0:
352,74,281691,5,0,0:0:0:0:
352,74,281878,1,0,0:0:0:0:
352,74,282066,5,4,0:3:0:0:
380,198,283191,6,0,P|433:172|492:182,2,120.000004577637,6|0|8,0:3|0:0|0:0,0:0:0:0:
314,257,284128,2,0,L|323:376,2,120.000004577637,8|0|0,0:0|0:0|0:0,0:0:0:0:
237,208,285066,6,0,L|241:81,1,120.000004577637,4|8,0:3|0:0,0:0:0:0:
246,13,285628,1,0,0:0:0:0:
246,13,285816,1,2,0:0:0:0:
60,76,286191,1,6,0:3:0:0:
215,106,286566,6,0,L|401:95,1,180.000006866455,0|0,0:0|0:0,0:0:0:0:
487,69,287316,2,0,L|475:196,1,120.000004577637,2|8,0:1|0:0,0:0:0:0:
467,314,288066,2,0,B|319:262|389:386|216:317,1,240.000009155274,4|2,0:3|0:0,0:0:0:0:
48,226,289191,6,0,L|46:164,1,60.0000022888184,6|2,0:3|0:0,0:0:0:0:
134,98,289566,1,2,0:0:0:0:
134,98,289753,2,0,L|129:170,1,60.0000022888184,0|0,0:0|0:0,0:0:0:0:
226,219,290128,1,0,0:0:0:0:
315,209,290316,1,4,0:1:0:0:
321,219,290691,5,0,0:0:0:0:
225,229,290878,1,0,0:0:0:0:
146,336,291066,2,0,B|198:320|198:320|332:349,1,180.000006866455,4|0,0:3|0:0,0:0:0:0:
416,373,291816,2,0,L|409:250,1,120.000004577637,2|6,0:0|0:3,0:0:0:0:
401,155,292378,1,2,0:0:0:0:
401,155,293128,1,2,0:0:0:0:
202,169,293316,5,4,0:1:0:0:
202,169,293691,5,2,0:1:0:0:
301,162,293891,1,0,0:0:0:0:
401,155,294091,6,0,P|297:120|202:113,2,200,4|6|0,0:1|0:1|0:0,0:0:0:0:
492,284,296341,6,0,B|461:288|447:302|434:332|434:332|409:299|380:286|352:299,1,160,0|0,0:0|0:0,0:0:0:0:
218,333,298564,6,0,B|212:253,1,80,4|0,0:1|0:1,0:0:0:0:
72,88,299829,2,0,B|111:42|167:61|201:95|193:146|173:166|155:183|155:183|126:188|102:219|110:261,1,328.96,4|2,0:1|0:1,0:0:0:0:
256,192,301778,12,8,305396,0:0:0:0:
