osu file format v14

[General]
AudioFilename: audio.mp3
AudioLeadIn: 0
PreviewTime: 16043
Countdown: 0
SampleSet: Soft
StackLeniency: 0.4
Mode: 0
LetterboxInBreaks: 0
WidescreenStoryboard: 1

[Editor]
DistanceSpacing: 0.7
BeatDivisor: 12
GridSize: 4
TimelineZoom: 2.699999

[Metadata]
Title:Ben Se
TitleUnicode:本色
Artist:Ling Yuan yousa
ArtistUnicode:泠鸢yousa
Creator:09kami
Version:Lingren Insane
Source:
Tags:古风 十个HTT呀啦索 怎么说呢 冷鸟 chinese Crystal 小语 洛天依
BeatmapID:1201639
BeatmapSetID:567325

[Difficulty]
HPDrainRate:5
CircleSize:4
OverallDifficulty:8
ApproachRate:8.5
SliderMultiplier:1.6
SliderTickRate:1

[Events]
//Background and Video events
0,0,"304234418.jpg",0,0
//Break Periods
2,137141,138864
//Storyboard Layer 0 (Background)
//Storyboard Layer 1 (Fail)
//Storyboard Layer 2 (Pass)
//Storyboard Layer 3 (Foreground)
Sprite,Foreground,Centre,"SB\mp.png",320,240 M,0,28574,,434.6182,89.30909 F,0,28574,30074,0,1 F,0,30074,33074,1 F,0,33074,34574,1,0
//Storyboard Sound Samples
Sample,69074,0,"normal-hitwhistle.wav",70
Sample,75074,0,"drum-hitfinish.wav",70
Sample,75824,0,"soft-hitfinish.wav",70
Sample,81074,0,"normal-hitfinish.wav",70
Sample,85949,0,"normal-hitfinish.wav",70
Sample,187568,0,"soft-hitfinish.wav",70
Sample,192068,0,"normal-hitwhistle.wav",70
Sample,192443,0,"normal-hitclap.wav",70
Sample,271943,0,"soft-hitnormal.wav",70
Sample,272318,0,"soft-hitnormal.wav",70

[TimingPoints]
106,750,4,2,1,20,1,0
106,-200,4,2,1,20,0,0
11356,928.792569659443,4,2,1,20,1,0
11820,947.7,4,2,1,20,1,0
12293,924.499229583975,4,2,1,20,1,0
12755,851.063829787234,4,2,1,20,1,0
13606,745.619485522555,4,2,1,10,1,0
13606,-200,4,2,1,10,0,0
16588,750,4,2,1,20,1,0
27629,750,4,2,1,5,1,0
27816,-100,4,2,1,25,0,0
28566,750,4,1,1,45,1,0
34847,-100,4,1,1,5,0,0
34941,-100,4,1,1,45,0,0
35222,-100,4,1,1,5,0,0
35316,-100,4,1,1,45,0,0
35597,-100,4,1,1,5,0,0
35691,-100,4,1,1,45,0,0
39066,-66.6666666666667,4,1,1,45,0,0
40566,-66.6666666666667,4,2,1,45,0,0
63066,-100,4,2,1,35,0,0
64566,-200,4,1,1,45,0,0
87066,-200,4,1,1,45,0,0
88566,-50,4,2,1,65,0,1
108816,-66.6666666666667,4,2,1,65,0,1
109566,-50,4,2,1,65,0,1
132816,-66.6666666666667,4,2,1,65,0,1
133566,-50,4,2,1,65,0,1
136566,-100,4,2,1,25,0,0
136941,-100,4,2,1,5,0,0
139539,751.173708920188,4,2,1,25,1,0
145548,759.493670886076,4,2,1,25,1,0
145548,-100,4,2,1,25,0,0
145927,-100,4,2,1,5,0,0
146117,-100,4,2,1,25,0,0
147066,750,4,2,1,55,1,0
147066,-100,4,2,1,55,0,0
159066,-66.6666666666667,4,2,1,45,0,0
183066,-200,4,1,1,45,0,0
205566,-200,4,2,1,55,0,0
206128,-200,4,2,1,5,0,0
206316,-40,4,2,1,65,0,0
207066,-40,4,2,1,65,0,1
227316,-66.6666666666667,4,2,1,65,0,1
228066,-40,4,2,1,65,0,1
251316,-66.6666666666667,4,2,1,65,0,1
252066,-40,4,2,1,65,0,1
255066,-100,4,1,1,45,0,0
268566,-100,4,2,1,5,0,0
269316,-100,4,1,1,45,0,0
271566,-200,4,1,1,20,0,0
275316,-200,4,1,1,20,0,0
282066,-66.6666666666667,4,2,1,65,0,1
282816,-50,4,2,1,65,0,1
283191,-40,4,2,1,65,0,1
293691,800,4,2,1,20,1,0
294091,750,4,2,1,30,1,0
294091,-133.333333333333,4,2,1,30,0,0
294841,-200,4,2,1,30,0,0
296153,-200,4,2,1,5,0,0
296341,839.160839160839,4,2,1,30,1,0
298564,952.380952380952,4,2,1,15,1,0
298564,-200,4,2,1,15,0,0
299040,789.473684210526,4,2,1,15,1,0
299829,857.142857142857,4,2,1,15,1,0
299829,-200,4,2,1,15,0,0
300686,1811.43012408296,4,2,1,15,1,0
301591,750,4,2,1,15,1,0
301591,-400,4,2,1,15,0,0
304591,805.369127516779,4,2,1,15,1,0
304591,-400,4,2,1,15,0,0
305396,845.070422535211,4,2,1,5,1,0
306241,991.735537190083,4,2,1,5,1,0
306241,-400,4,2,1,5,0,0
307232,1435.40669856459,4,2,1,5,1,0
308667,1411.76470588235,4,2,1,5,1,0

[Colours]
Combo1 : 146,146,201
Combo2 : 141,243,223
Combo3 : 255,94,94

[HitObjects]
56,352,106,6,0,L|60:312,2,40,8|0|0,0:0|0:0|0:0,0:0:0:0:
148,288,1606,6,0,L|144:248,2,40,4|0|0,0:0|0:0|0:0,0:0:0:0:
64,152,3106,5,8,0:0:0:0:
64,152,3481,1,0,0:0:0:0:
64,152,3856,1,0,0:0:0:0:
232,144,4606,5,4,0:0:0:0:
202,185,4981,1,0,0:0:0:0:
154,169,5356,1,0,0:0:0:0:
154,119,5731,1,0,0:0:0:0:
202,104,6106,6,0,L|200:60,2,40,8|0|0,0:0|0:0|0:0,0:0:0:0:
328,68,7606,6,0,L|330:24,2,40,4|0|0,0:0|0:0|0:0,0:0:0:0:
452,164,9106,6,0,L|460:124,2,40,8|0|0,0:0|0:0|0:0,0:0:0:0:
296,280,10606,6,0,L|288:240,1,40,4|0,0:1|1:0,0:0:0:0:
372,204,11356,5,0,1:0:0:0:
416,280,11820,1,0,1:0:0:0:
372,356,12293,1,0,1:0:0:0:
372,356,12755,1,2,1:0:0:0:
200,312,13606,6,0,L|204:296,3,10,4|0|0|0,0:1|0:1|0:1|0:1,0:1:0:0:
423,104,16588,6,0,P|378:97|336:102,1,80,0|0,1:0|0:0,0:0:0:0:
262,160,17338,2,0,P|217:167|175:162,1,80,0|0,1:0|0:0,0:0:0:0:
180,155,18463,5,8,0:0:0:0:
159,77,18650,1,0,0:0:0:0:
37,31,18838,5,0,1:0:0:0:
33,40,19213,1,8,0:0:0:0:
32,132,19588,6,0,L|120:120,1,80
296,216,20338,2,0,P|224:204|128:208,1,160
268,88,21463,2,0,P|232:84|180:72,2,80
403,111,22588,6,0,P|438:100|482:103,1,80,0|0,1:0|0:0,0:0:0:0:
324,161,23338,2,0,P|284:164|246:152,1,80,0|0,1:0|0:0,0:0:0:0:
394,218,24463,5,2,0:0:0:0:
372,298,24650,1,0,0:0:0:0:
199,342,24838,5,0,1:0:0:0:
194,330,25213,1,2,0:1:0:0:
64,244,25588,6,0,P|92:240|144:248,1,80
356,164,26338,2,0,P|244:192|192:184,1,160
236,80,27463,1,0,0:0:0:0:
484,116,27816,6,0,P|485:139|464:204,1,80,4|0,0:1|0:0,0:0:0:0:
251,322,28566,5,2,0:2:0:0:
227,241,28753,1,0,0:0:0:0:
265,158,28941,6,0,L|337:164,1,60,2|0,0:0|0:0,0:0:0:0:
236,80,29316,2,0,L|154:96,1,80
227,241,29878,1,0,0:0:0:0:
50,353,30066,5,4,0:0:0:0:
204,312,30347,1,0,0:0:0:0:
215,319,30441,2,0,L|207:368,1,40,2|0,0:2|0:0,0:0:0:0:
388,363,30816,6,0,L|375:283,1,80
375,284,31378,1,0,0:0:0:0:
278,111,31566,5,2,0:0:0:0:
443,113,31941,2,0,L|434:49,1,60,2|0,0:2|0:0,0:0:0:0:
494,178,32316,2,0,L|483:229,1,40
419,321,32691,5,0,0:0:0:0:
326,333,32878,1,0,0:0:0:0:
99,291,33066,6,0,P|87:251|86:224,2,60,12|8|0,0:0|0:0|0:0,0:0:0:0:
30,145,33816,5,2,0:0:0:0:
172,143,34191,2,0,L|180:187,1,40
261,75,34566,2,0,L|257:142,1,60,8|0,0:2|0:0,0:0:0:0:
277,262,34941,6,0,P|294:227|292:196,1,60,8|0,0:2|0:0,0:0:0:0:
379,181,35316,2,0,P|357:148|329:135,1,60
261,75,35691,2,0,L|308:58,1,40,2|0,0:2|0:0,0:0:0:0:
469,163,36066,6,0,L|464:226,1,60,12|0,0:2|0:0,0:0:0:0:
476,152,36441,2,0,L|473:197,1,40
487,311,36816,5,0,0:0:0:0:
487,311,37191,1,4,0:2:0:0:
408,335,37378,1,0,0:0:0:0:
228,290,37566,5,8,0:1:0:0:
157,254,37753,1,0,0:0:0:0:
86,289,37941,2,0,L|95:349,1,60,2|0,0:0|0:0,0:0:0:0:
11,258,38316,2,0,L|19:218,1,40
73,133,38691,5,0,0:0:0:0:
295,41,39066,6,0,B|321:62|321:62|330:99|309:146,1,120.000004577637,12|0,0:0|0:0,0:0:0:0:
298,155,39816,5,8,0:3:0:0:
218,146,40003,1,8,0:3:0:0:
254,228,40191,5,8,0:3:0:0:
140,250,40378,1,8,0:3:0:0:
245,313,40566,5,8,0:1:0:0:
245,313,40941,2,0,P|283:331|362:318,1,120.000004577637,0|0,0:1|1:0,0:0:0:0:
381,329,41691,6,0,L|311:344,1,60.0000022888184
333,166,42066,1,0,1:0:0:0:
333,166,42441,6,0,P|403:181|463:167,1,120.000004577637,0|4,0:0|0:0,0:0:0:0:
282,77,43191,2,0,P|222:68|165:83,1,120.000004577637,0|0,0:0|1:0,0:0:0:0:
84,288,43941,5,12,0:0:0:0:
76,308,44128,1,0,0:0:0:0:
70,322,44316,2,0,P|129:330|186:315,1,120.000004577637,2|0,0:0|1:0,0:0:0:0:
66,337,45066,6,0,P|125:345|182:330,1,120.000004577637,0|8,0:0|0:1,0:0:0:0:
280,352,45628,1,0,0:0:0:0:
384,276,45816,2,0,L|325:268,3,60.0000022888184,0|0|0|0,0:0|0:0|1:0|0:0,0:0:0:0:
180,177,46566,6,0,B|160:192|160:192|51:178,1,120.000004577637,4|0,0:1|1:0,0:0:0:0:
65,180,47316,1,0,0:0:0:0:
24,85,47691,6,0,L|87:82,1,60.0000022888184
153,22,48066,2,0,P|209:39|285:39,2,120.000004577637,0|0|0,0:0|1:0|1:0,0:0:0:0:
153,22,49191,1,2,0:0:0:0:
208,234,49566,5,4,0:0:0:0:
324,212,49941,2,0,L|333:93,1,120.000004577637,0|0,0:0|1:0,0:0:0:0:
335,220,50691,6,0,L|343:161,1,60.0000022888184
406,94,51066,5,4,0:1:0:0:
512,117,51441,1,4,0:1:0:0:
512,309,51816,6,0,P|457:315|390:293,1,120.000004577637,0|0,0:0|1:0,0:0:0:0:
388,289,52378,1,0,1:0:0:0:
383,278,52566,1,0,1:0:0:0:
248,335,52941,6,0,L|125:340,1,120.000004577637,8|0,0:0|0:0,0:0:0:0:
253,327,53691,2,0,L|172:329,1,60.0000022888184
29,264,54066,2,0,P|95:269|153:232,1,120.000004577637,0|2,1:0|0:0,0:0:0:0:
116,53,54816,2,0,P|57:46|3:72,1,120.000004577637,0|2,1:0|0:0,0:0:0:0:
11,59,55566,6,0,P|64:33|123:39,1,120.000004577637,8|2,0:0|0:0,0:0:0:0:
149,231,56317,2,0,P|95:256|36:250,1,120.000004577637,8|2,0:0|0:0,0:0:0:0:
43,141,57066,5,4,0:0:0:0:
148,104,57441,5,0,0:0:0:0:
148,104,57628,1,8,0:0:0:0:
246,157,57816,1,2,0:0:0:0:
246,157,58003,1,2,0:0:0:0:
336,94,58191,6,0,L|404:91,1,60.0000022888184,2|2,0:1|0:0,0:0:0:0:
470,295,58566,6,0,P|422:311|353:309,3,120.000004577637,4|4|0|0,1:1|0:0|1:0|0:0,0:0:0:0:
284,256,59878,1,0,0:0:0:0:
219,305,60066,6,0,P|171:289|102:291,1,120.000004577637,8|0,0:0|1:0,0:0:0:0:
223,320,60628,1,0,1:0:0:0:
98,306,60816,1,0,1:0:0:0:
44,124,61003,1,0,1:0:0:0:
244,164,61191,6,0,P|196:180|127:178,1,120.000004577637,0|0,1:2|0:0,0:0:0:0:
341,75,61941,2,0,P|274:79|212:54,2,120.000004577637,4|4|0,0:0|0:1|1:0,0:0:0:0:
419,41,62878,1,0,1:0:0:0:
509,171,63066,6,0,P|415:148|276:202,1,240,10|2,0:0|0:0,0:0:0:0:
49,73,64566,6,4,P|64:86|85:141,1,80,6|4,0:3|0:3,0:3:0:0:
84,140,65691,1,0,0:0:0:0:
478,326,66066,6,4,P|458:324|404:348,1,80,6|4,0:3|0:3,0:3:0:0:
404,347,67191,1,0,0:0:0:0:
56,323,67566,6,4,P|141:324|55:245,1,280,6|4,0:3|0:3,0:3:0:0:
326,345,70566,6,4,P|365:341|411:352,1,80,6|4,0:3|0:3,0:3:0:0:
404,349,71691,1,0,0:0:0:0:
204,40,72066,6,4,P|165:36|119:47,2,80,6|4|6,0:3|0:3|0:3,0:3:0:0:
433,90,73941,6,0,P|419:84|246:182,1,240,6|4,0:3|0:3,0:0:0:0:
155,255,76566,6,4,P|193:267|227:343,1,120,6|4,0:3|0:3,0:3:0:0:
91,200,78066,6,0,P|123:176|166:175,1,80,6|4,0:3|0:3,0:3:0:0:
161,173,79191,1,0,0:0:0:0:
473,323,79566,6,0,B|416:345|354:290|293:319|293:319|315:291|302:263,1,240,6|0,0:3|0:3,0:3:0:0:
278,159,82191,1,0,0:0:0:0:
348,38,82566,6,4,P|371:38|426:48,1,80,6|4,0:3|0:3,0:3:0:0:
426,48,83691,1,0,0:0:0:0:
144,165,84066,6,4,P|121:165|66:175,1,80,6|4,0:3|0:3,0:3:0:0:
65,175,85191,1,0,0:0:0:0:
256,192,85566,12,0,86878,0:0:0:0:
207,141,87066,6,0,L|232:196,1,60
249,68,87816,5,2,0:0:0:0:
129,45,88003,1,0,0:0:0:0:
143,196,88191,5,2,0:0:0:0:
23,219,88378,1,0,0:0:0:0:
224,328,88566,6,0,P|161:344|60:298,1,160,4|0,1:0|0:0,0:0:0:0:
339,357,89316,6,0,P|411:325|488:341,1,160,8|0,0:0|0:0,0:0:0:0:
450,250,89878,1,0,0:0:0:0:
489,52,90066,6,0,P|402:58|317:38,1,160,8|0,1:1|0:0,0:0:0:0:
356,131,90628,1,0,0:0:0:0:
243,211,90816,6,0,P|156:205|71:225,1,160,8|0,0:0|0:0,0:0:0:0:
110,132,91378,1,0,0:0:0:0:
48,338,91566,6,0,P|88:316|125:311,1,80,8|0,0:0|0:0,0:0:0:0:
398,344,91941,2,0,P|347:302|234:268,1,160,10|0,0:1|0:0,0:0:0:0:
106,312,92503,1,0,0:0:0:0:
19,177,92691,2,0,P|72:160|152:160,1,120,8|0,0:0|0:0,0:0:0:0:
224,176,93066,5,6,1:1:0:0:
256,60,93253,1,0,0:0:0:0:
136,68,93441,1,0,0:0:0:0:
432,42,93816,5,2,0:0:0:0:
464,169,94003,1,0,0:0:0:0:
328,144,94191,5,2,0:0:0:0:
296,271,94378,1,0,0:0:0:0:
199,37,94566,6,0,P|214:91|212:202,1,160,4|0,1:0|0:0,0:0:0:0:
63,304,95316,6,0,P|104:236|125:159,1,160,8|0,0:0|0:0,0:0:0:0:
59,99,95878,1,0,0:0:0:0:
177,296,96066,6,0,P|242:250|293:189,1,160,8|0,1:0|0:0,0:0:0:0:
258,106,96628,1,0,0:0:0:0:
283,328,96816,6,0,P|361:314|433:281,1,160,8|0,0:0|0:0,0:0:0:0:
436,190,97378,1,0,0:0:0:0:
506,382,97566,6,0,P|477:365|428:363,1,80,8|0,0:0|0:0,0:0:0:0:
204,344,97941,6,0,P|269:302|352:288,2,160,2|8|0,0:0|0:0|1:0,0:0:0:0:
16,188,99066,6,0,P|83:229|161:246,1,160,10|0,1:1|0:0,0:0:0:0:
476,60,99816,5,2,0:0:0:0:
340,36,100003,1,0,0:0:0:0:
400,144,100191,5,2,0:0:0:0:
248,168,100378,1,0,0:0:0:0:
392,302,100566,6,8,P|256:256|160:304,1,240,8|0,0:2|0:0,0:0:0:0:
312,160,101316,6,8,P|169:175|102:259,1,240,8|0,0:2|0:0,0:0:0:0:
184,48,102066,6,8,P|61:122|36:227,1,240,8|0,0:2|0:0,0:0:0:0:
64,324,102816,5,4,0:1:0:0:
64,324,103191,1,8,1:2:0:0:
0,96,103566,5,2,0:0:0:0:
104,60,103753,1,0,0:0:0:0:
60,176,103941,5,2,0:0:0:0:
208,160,104128,1,0,0:0:0:0:
48,280,104316,6,0,P|117:285|196:343,1,160,8|0,1:2|0:0,0:0:0:0:
172,228,104878,1,0,0:0:0:0:
306,296,105066,6,0,P|375:291|454:233,1,160,2|0,1:0|0:0,0:0:0:0:
440,344,105628,1,0,0:0:0:0:
222,344,105816,6,0,P|158:297|79:288,1,160,12|0,0:0|0:0,0:0:0:0:
127,208,106378,1,0,0:0:0:0:
308,343,106566,6,0,P|290:297|266:265,1,80,0|0,1:0|0:0,0:0:0:0:
382,305,106941,2,0,P|397:258|400:218,1,80,0|0,1:0|0:0,0:0:0:0:
217,171,107316,6,0,P|280:124|359:115,1,160,12|0,0:0|0:0,0:0:0:0:
312,35,107878,1,0,0:0:0:0:
131,170,108066,6,0,P|148:124|172:92,1,80,0|0,1:0|0:0,0:0:0:0:
57,132,108441,2,0,P|41:85|38:45,1,80,0|0,1:0|0:0,0:0:0:0:
469,105,108816,6,0,P|475:157|457:236,1,120.000004577637,4|0,0:1|0:0,0:0:0:0:
425,299,109378,1,0,0:0:0:0:
210,153,109566,6,0,P|319:67|376:194,2,320,8|2|4,0:0|0:0|1:2,0:0:0:0:
40,260,111441,6,0,P|71:235|109:223,1,80,0|0,1:0|1:0,1:0:0:0:
168,324,111816,5,2,0:0:0:0:
300,308,112003,1,0,0:0:0:0:
208,168,112191,5,2,0:0:0:0:
352,216,112378,1,0,0:0:0:0:
304,48,112566,6,0,P|360:116|438:134,1,160,4|0,1:0|0:0,0:0:0:0:
32,272,113316,6,0,P|124:232|184:248,1,160,8|0,0:0|0:0,0:0:0:0:
136,148,113878,1,0,0:0:0:0:
264,340,114066,6,0,P|323:259|383:243,1,160,8|0,1:0|0:0,0:0:0:0:
292,180,114628,1,0,0:0:0:0:
512,24,114816,6,0,P|424:73|363:63,1,160,8|0,0:0|0:0,0:0:0:0:
420,158,115378,1,0,0:0:0:0:
496,16,115566,6,0,P|457:45|425:55,1,80,8|0,0:0|0:0,0:0:0:0:
115,49,115941,2,0,P|215:45|282:78,1,160,10|0,0:1|0:0,0:0:0:0:
182,227,116503,1,0,0:0:0:0:
8,192,116691,2,0,P|44:160|112:140,1,120,8|0,0:0|0:0,0:0:0:0:
200,152,117066,5,6,1:1:0:0:
220,288,117253,1,0,0:0:0:0:
108,228,117441,1,0,0:0:0:0:
484,304,117816,5,2,0:0:0:0:
328,332,118003,1,0,0:0:0:0:
452,212,118191,5,2,0:0:0:0:
272,216,118378,1,0,0:0:0:0:
428,108,118566,6,0,P|332:100|268:68,1,160,4|0,1:0|0:0,0:0:0:0:
120,36,119316,6,0,P|116:104|56:184,1,160,8|0,0:0|0:0,0:0:0:0:
16,100,119878,1,0,0:0:0:0:
304,151,120066,6,0,P|266:207|174:247,1,160,8|0,1:0|0:0,0:0:0:0:
181,154,120628,1,0,0:0:0:0:
407,340,120816,6,0,P|346:370|246:358,1,160,8|0,0:0|0:0,0:0:0:0:
298,281,121378,1,0,0:0:0:0:
362,147,121566,6,0,P|422:177|522:165,1,160,8|8,0:0|0:0,0:0:0:0:
471,88,122128,1,0,0:0:0:0:
124,270,122316,6,0,P|184:239|284:251,1,160,2|8,0:0|0:0,0:0:0:0:
233,329,122878,1,0,0:0:0:0:
0,146,123066,6,0,P|71:179|149:169,1,160,2|0,1:1|0:0,0:0:0:0:
205,27,123816,5,2,0:0:0:0:
361,46,124003,1,0,0:0:0:0:
149,168,124191,5,2,0:0:0:0:
305,149,124378,1,0,0:0:0:0:
120,302,124566,6,8,P|256:256|352:304,1,240,8|0,0:2|0:0,0:0:0:0:
200,160,125316,6,8,P|342:175|409:259,1,240,8|0,0:2|0:0,0:0:0:0:
328,48,126066,6,8,P|450:122|475:227,1,240,8|0,0:2|0:0,0:0:0:0:
448,336,126816,5,4,0:1:0:0:
448,336,127191,1,8,1:2:0:0:
45,227,127566,5,2,0:0:0:0:
200,264,127753,1,0,0:0:0:0:
120,148,127941,5,2,0:0:0:0:
280,140,128128,1,0,0:0:0:0:
180,44,128316,6,0,P|240:44|336:-2,1,160,8|0,1:2|0:0,0:0:0:0:
396,80,128878,1,0,0:0:0:0:
284,242,129066,6,0,P|341:238|440:288,1,160,2|0,1:0|0:0,0:0:0:0:
440,186,129628,1,0,0:0:0:0:
209,210,129816,6,0,P|139:248|60:248,1,160,12|0,0:0|0:0,0:0:0:0:
112,335,130378,1,0,0:0:0:0:
212,322,130566,6,0,P|262:322|293:337,1,80,0|0,1:0|0:0,0:0:0:0:
283,246,130941,2,0,P|326:221|360:218,1,80,0|0,1:0|0:0,0:0:0:0:
347,28,131316,6,0,P|416:66|495:66,1,160,12|0,0:0|0:0,0:0:0:0:
444,153,131878,1,0,0:0:0:0:
344,140,132066,6,0,P|294:140|263:155,1,80,0|0,1:0|0:0,0:0:0:0:
273,64,132441,2,0,P|229:39|195:36,1,80,0|0,1:0|0:0,0:0:0:0:
33,352,132816,6,0,P|75:363|155:345,1,120.000004577637,4|0,0:1|0:0,0:0:0:0:
244,256,133378,1,0,0:0:0:0:
487,344,133566,6,0,P|432:247|327:372,2,320,8|8|4,0:0|0:0|1:1,0:0:0:0:
478,349,135441,5,0,0:0:0:0:
432,192,135628,1,0,0:0:0:0:
476,21,135816,6,0,P|433:35|397:31,1,80,2|2,0:0|0:0,0:0:0:0:
280,160,136191,2,0,P|237:146|201:150,1,80,8|2,0:0|0:0,0:0:0:0:
64,36,136566,6,0,L|80:124,1,80,0|0,1:0|1:0,1:0:0:0:
92,48,139539,5,2,0:1:0:0:
132,119,140290,5,2,0:0:0:0:
93,189,141041,5,8,0:0:0:0:
147,302,141792,5,2,0:0:0:0:
486,356,142543,6,0,L|480:340,4,13.3333333333333,2|0|0|0|0,0:1|0:0|0:0|0:0|0:0,0:0:0:0:
392,296,143294,5,2,0:0:0:0:
321,351,144046,5,8,0:0:0:0:
147,302,144797,5,2,0:0:0:0:
198,23,145548,6,0,P|225:17|286:28,1,80,10|0,0:0|0:0,0:0:0:0:
314,94,146307,5,2,0:0:0:0:
50,313,147066,6,0,P|74:328|103:326,1,40,8|0,0:0|0:0,0:0:0:0:
152,289,147441,5,2,0:0:0:0:
222,324,147628,1,0,0:0:0:0:
458,262,147816,6,0,P|434:277|405:275,1,40,2|0,1:0|0:0,0:0:0:0:
356,238,148191,5,0,0:0:0:0:
286,273,148378,1,0,0:0:0:0:
226,221,148566,5,8,0:0:0:0:
148,218,148753,1,0,0:0:0:0:
68,112,148941,6,0,P|98:103|110:100,1,40,2|0,0:0|0:0,0:0:0:0:
415,52,149316,6,0,P|388:43|366:43,1,40,6|0,0:1|0:0,0:0:0:0:
306,80,149691,5,8,0:0:0:0:
233,52,149878,1,0,0:0:0:0:
156,320,150066,6,0,L|133:326,2,20,8|0|0,0:0|0:0|0:0,0:0:0:0:
230,355,150441,5,2,0:0:0:0:
299,315,150628,1,0,0:0:0:0:
491,367,150816,6,0,L|500:322,1,40,2|0,0:1|0:0,0:0:0:0:
459,257,151191,5,2,0:0:0:0:
474,176,151378,1,0,0:0:0:0:
250,223,151566,6,0,L|241:178,1,40,8|0,0:0|0:0,0:0:0:0:
282,113,151941,5,2,0:0:0:0:
266,32,152128,1,0,0:0:0:0:
92,32,152316,6,0,L|38:31,1,40,6|0,0:1|0:0,0:0:0:0:
15,101,152691,5,2,0:0:0:0:
30,182,152878,1,0,0:0:0:0:
210,223,153066,6,0,L|264:222,1,40,12|0,0:0|0:0,0:0:0:0:
287,292,153441,5,2,0:0:0:0:
363,283,153628,1,0,0:0:0:0:
439,312,153816,5,8,0:0:0:0:
501,271,154003,1,0,0:0:0:0:
494,192,154191,5,2,0:0:0:0:
424,154,154378,1,0,0:0:0:0:
380,91,154566,6,0,L|324:105,1,40,8|0,0:0|0:0,0:0:0:0:
275,65,154941,6,0,L|219:79,1,40,2|0,0:0|0:0,0:0:0:0:
162,49,155316,6,0,L|106:63,1,40,2|0,0:0|0:0,0:0:0:0:
63,111,155691,5,2,0:0:0:0:
81,189,155878,1,0,0:0:0:0:
58,269,156066,6,0,L|114:283,1,40,8|0,0:0|0:0,0:0:0:0:
163,243,156441,6,0,L|219:257,1,40,2|0,0:0|0:0,0:0:0:0:
276,227,156816,6,0,L|332:241,1,40,8|0,0:0|0:0,0:0:0:0:
379,282,157191,5,2,0:0:0:0:
394,358,157378,1,0,0:0:0:0:
197,162,157566,6,0,P|189:136|192:114,2,40,6|0|0,0:1|0:0|0:0,0:0:0:0:
202,168,158128,1,8,0:0:0:0:
320,149,158316,5,2,0:0:0:0:
302,284,158503,1,2,0:0:0:0:
281,67,158691,6,0,L|315:66,1,20,8|0,0:3|0:0,0:0:0:0:
323,246,158878,2,0,L|289:245,1,20,8|0,0:3|0:0,0:0:0:0:
150,364,159066,6,0,P|187:354|274:377,1,120.000004577637,4|0,0:1|0:0,0:0:0:0:
266,363,159816,6,0,P|231:349|144:359,1,120.000004577637,0|0,1:0|0:0,0:0:0:0:
71,260,160378,1,0,0:0:0:0:
132,139,160566,6,0,L|263:164,1,120.000004577637,0|0,1:0|0:0,0:0:0:0:
124,129,161316,6,0,L|374:178,1,240.000009155274,4|8,1:0|0:0,0:0:0:0:
472,339,162441,5,12,0:0:0:0:
372,353,162628,1,0,0:0:0:0:
255,333,162816,2,0,P|270:304|356:260,1,120.000004577637,2|0,0:0|1:0,0:0:0:0:
501,188,163566,6,0,P|446:164|412:115,1,120.000004577637,0|8,0:0|0:1,0:0:0:0:
435,31,164128,1,0,0:0:0:0:
345,68,164316,2,0,L|286:63,3,60.0000022888184,0|0|0|0,0:0|0:0|1:0|0:0,0:0:0:0:
80,128,165066,6,0,B|178:109|178:109|182:90,1,120.000004577637,4|0,0:1|1:0,0:0:0:0:
182,90,165816,1,0,0:0:0:0:
263,191,166191,6,0,L|190:183,1,60.0000022888184
73,276,166566,2,0,P|156:259|203:282,1,120.000004577637,0|0,1:0|1:0,0:0:0:0:
228,344,167128,1,0,0:0:0:0:
413,295,167316,6,0,P|368:304|282:286,1,120.000004577637,8|8,0:0|0:0,0:0:0:0:
502,141,168066,6,0,P|419:124|372:147,1,120.000004577637,4|0,0:1|0:0,0:0:0:0:
347,209,168628,1,0,0:0:0:0:
162,160,168816,6,0,P|207:169|293:151,1,120.000004577637,0|0,1:0|0:0,0:0:0:0:
30,276,169566,6,0,P|97:246|163:251,2,120.000004577637,6|0|0,0:1|0:0|0:0,0:0:0:0:
85,86,170691,6,0,L|92:128,2,40.000001525879,0|0|0,1:0|1:0|1:0,1:0:0:0:
148,169,171066,1,10,0:0:0:0:
324,120,171441,6,0,P|364:96|448:92,1,120.000004577637
500,312,172191,6,0,P|460:316|436:316,1,60.0000022888184,2|0,0:0|0:0,0:0:0:0:
376,252,172566,2,0,P|332:228|256:232,2,120.000004577637,0|2|8,0:0|0:0|0:0,0:0:0:0:
200,300,173691,5,2,0:0:0:0:
32,228,174066,6,0,P|76:240|164:216,1,120.000004577637,8|0,0:0|1:0,0:0:0:0:
192,152,174628,1,0,0:0:0:0:
272,112,174816,2,0,P|316:100|404:124,2,120.000004577637,8|0|0,0:0|1:0|1:0,0:0:0:0:
56,48,175941,5,2,0:0:0:0:
128,72,176128,1,8,0:0:0:0:
48,60,176316,6,0,L|56:120,1,60.0000022888184,2|2,0:0|0:0,0:0:0:0:
180,204,176691,2,8,L|172:264,1,60.0000022888184,2|2,0:1|0:0,0:0:0:0:
32,356,177066,2,0,P|60:328|44:248,3,120.000004577637,4|4|0|0,1:0|0:0|1:0|0:0,0:0:0:0:
200,356,178566,6,0,P|264:332|320:336,1,120.000004577637,8|0,0:0|1:0,0:0:0:0:
183,349,179128,1,0,1:0:0:0:
394,375,179316,1,0,1:0:0:0:
366,224,179503,1,0,1:0:0:0:
495,352,179691,6,0,L|510:283,1,60.0000022888184,0|2,1:0|0:0,1:0:0:0:
488,112,180066,2,0,P|496:160|476:228,1,120.000004577637
476,227,180628,1,0,0:0:0:0:
304,136,180816,6,0,P|275:175|213:209,1,120.000004577637,4|4,0:0|0:1,0:0:0:0:
36,288,181566,6,0,P|76:292|144:348,3,120.000004577637,8|0|2|0,0:0|1:0|1:0|1:0,0:0:0:0:
403,359,183066,6,0,P|383:311|383:275,1,80,6|4,0:3|0:3,0:0:0:0:
382,284,184191,1,0,0:0:0:0:
490,175,184566,6,0,P|494:155|490:131,1,40,6|4,0:3|0:3,0:3:0:0:
492,136,185316,1,4,0:0:0:0:
380,102,185691,1,0,0:0:0:0:
77,170,186066,6,4,P|74:210|106:283,1,120,6|4,0:3|0:3,0:3:0:0:
184,201,187566,1,4,0:3:0:0:
77,170,187941,1,0,0:0:0:0:
77,170,188316,5,4,0:0:0:0:
42,77,188691,1,0,0:0:0:0:
152,34,189066,6,4,P|170:58|179:112,1,80,6|4,0:3|0:3,0:3:0:0:
179,106,190191,1,0,0:0:0:0:
240,202,190566,6,4,P|228:220|223:284,2,80,6|4|4,0:3|0:3|0:3,0:3:0:0:
415,66,192441,6,4,P|425:90|430:188,1,120,6|4,0:3|0:3,0:3:0:0:
432,182,193941,1,0,0:0:0:0:
381,262,194316,6,4,L|386:304,1,40,6|4,0:3|0:3,0:3:0:0:
40,89,195066,6,4,P|122:101|182:54,1,160,6|4,0:3|0:3,0:3:0:0:
180,56,196941,1,0,0:0:0:0:
340,84,197316,6,4,P|305:93|301:97,1,40,6|4,0:3|0:3,0:3:0:0:
69,305,198066,6,4,P|114:266|200:306,1,160,6|4,0:3|0:3,0:3:0:0:
197,301,199941,1,8,0:2:0:0:
445,115,200316,5,0,0:0:0:0:
466,188,200503,1,0,0:0:0:0:
453,264,200691,1,0,0:0:0:0:
395,315,200878,1,0,0:0:0:0:
314,318,201066,6,4,L|325:278,1,40,6|4,0:3|0:3,0:3:0:0:
205,255,201816,6,4,L|202:215,1,40,6|4,0:3|0:3,0:3:0:0:
88,304,202566,6,4,L|74:264,1,40,6|4,0:3|0:3,0:3:0:0:
86,55,203316,6,4,P|110:79|154:80,2,80,6|4|4,0:3|0:3|0:3,0:3:0:0:
86,55,205191,1,0,0:0:0:0:
260,96,205566,6,0,L|320:88,1,60,0|0,1:0|1:0,1:0:0:0:
358,177,206316,5,2,0:0:0:0:
373,290,206503,1,0,0:0:0:0:
251,234,206691,5,2,0:0:0:0:
213,352,206878,1,0,0:0:0:0:
100,244,207066,6,0,P|132:180|89:52,1,200,4|0,1:0|0:0,0:0:0:0:
252,124,207628,1,0,0:0:0:0:
397,51,207816,6,0,P|389:115|450:260,1,200,8|0,0:0|0:0,0:0:0:0:
348,361,208378,1,0,0:0:0:0:
348,361,208566,2,0,P|353:306|345:252,1,100,8|0,1:0|0:0,0:0:0:0:
197,186,208941,5,0,0:0:0:0:
152,356,209128,1,0,0:0:0:0:
43,253,209316,6,0,P|28:177|58:60,1,200,8|0,0:0|0:0,0:0:0:0:
181,37,209878,1,0,0:0:0:0:
370,131,210066,6,0,P|307:187|177:174,2,200,8|10|0,0:0|1:0|0:0,0:0:0:0:
370,131,211003,1,0,0:0:0:0:
495,217,211191,6,0,P|426:215|386:234,1,100,8|0,0:0|0:0,0:0:0:0:
305,338,211566,6,0,P|249:359|149:352,2,150,6|0|0,1:0|0:0|0:0,0:0:0:0:
75,314,212316,5,2,0:0:0:0:
84,172,212503,1,0,0:0:0:0:
213,240,212691,5,2,0:0:0:0:
270,87,212878,1,0,0:0:0:0:
372,231,213066,6,0,P|367:162|436:36,1,200,4|0,1:0|0:0,0:0:0:0:
270,87,213628,1,0,0:0:0:0:
178,175,213816,6,0,P|213:241|208:378,1,200,8|0,0:0|0:0,0:0:0:0:
107,314,214378,1,0,0:0:0:0:
124,111,214566,6,0,P|181:145|248:257,1,200,8|0,1:0|0:0,0:0:0:0:
276,131,215128,1,0,0:0:0:0:
408,189,215316,6,0,P|350:274|346:369,1,200,8|0,0:0|0:0,0:0:0:0:
248,257,215878,1,0,0:0:0:0:
446,165,216066,6,0,P|396:179|354:209,1,100,8|0,0:0|0:0,0:0:0:0:
512,80,216441,2,0,P|466:54|415:46,1,100,10|0,1:0|0:0,0:0:0:0:
122,147,216816,6,0,P|214:172|319:123,1,200,2|8,0:0|0:0,0:0:0:0:
307,133,217378,1,0,0:0:0:0:
30,357,217566,6,0,P|127:269|211:266,1,200,10|0,1:0|0:0,0:0:0:0:
76,100,218316,5,2,0:0:0:0:
248,56,218503,1,0,0:0:0:0:
156,180,218691,5,2,0:0:0:0:
344,196,218878,1,0,0:0:0:0:
192,298,219066,6,8,P|282:338|381:332,1,200
452,196,219628,1,0,0:0:0:0:
370,59,219816,6,8,P|295:50|160:93,1,200
192,298,220378,1,0,0:0:0:0:
36,78,220566,6,0,B|74:107|166:87|232:8|344:44,1,300,2|0,0:0|0:0,0:0:0:0:
512,200,221316,6,0,P|433:225|293:210,1,200,4|8,0:1|1:2,0:0:0:0:
209,344,222066,5,2,0:0:0:0:
240,102,222253,1,0,0:0:0:0:
105,263,222441,5,2,0:0:0:0:
79,41,222628,1,0,0:0:0:0:
32,338,222816,6,0,P|93:349|232:291,1,200,8|0,1:2|0:0,0:0:0:0:
339,352,223378,1,0,0:0:0:0:
483,244,223566,6,0,P|399:268|274:245,1,200,2|0,1:0|0:0,0:0:0:0:
321,120,224128,1,0,0:0:0:0:
132,160,224316,6,0,P|196:157|231:168,1,100,0|0,1:0|0:0,0:0:0:0:
20,87,224691,2,0,P|84:90|119:78,1,100,0|0,1:0|0:0,0:0:0:0:
5,333,225066,6,0,P|75:263|171:236,1,200,4|0,1:0|0:0,0:0:0:0:
219,79,225628,1,0,0:0:0:0:
446,274,225816,6,0,P|376:204|280:176,1,200,0|0,1:0|1:0,0:0:0:0:
301,315,226378,1,0,0:0:0:0:
475,297,226566,6,0,P|461:241|428:198,1,100,4|0,1:0|0:0,0:0:0:0:
349,10,226941,2,0,P|321:51|311:100,1,100,0|0,1:0|0:0,0:0:0:0:
107,317,227316,6,0,P|160:279|92:223,1,180.000006866455,2|0,0:0|0:0,0:0:0:0:
129,336,228066,6,0,B|168:298|168:298|169:208|133:144,1,200,8|0,0:0|0:0,0:0:0:0:
40,112,228628,1,0,0:0:0:0:
235,30,228816,6,0,P|243:89|231:149,1,100,4|0,0:1|0:0,0:0:0:0:
350,257,229191,5,4,0:1:0:0:
337,110,229378,1,0,0:0:0:0:
504,21,229566,6,0,L|492:246,1,200,4|0,0:0|0:0,0:0:0:0:
493,220,230128,1,0,0:0:0:0:
403,383,230316,6,0,P|343:364|296:363,1,100,2|0,0:0|0:0,0:0:0:0:
38,245,230691,6,0,P|87:240|134:224,1,100,2|0,0:0|0:0,0:0:0:0:
433,127,231066,6,0,P|354:134|226:98,1,200,4|0,1:0|0:0,0:0:0:0:
203,300,231628,1,0,0:0:0:0:
34,128,231816,6,0,P|136:137|232:193,1,200,8|0,0:0|0:0,0:0:0:0:
220,182,232378,1,0,0:0:0:0:
52,1,232566,6,0,P|93:28|201:44,1,150,8|0,0:1|0:0,0:0:0:0:
285,20,232941,5,0,0:0:0:0:
313,188,233128,1,0,0:0:0:0:
486,24,233316,6,0,P|464:103|471:229,1,200,8|0,0:0|0:0,0:0:0:0:
364,120,233878,1,0,0:0:0:0:
170,159,234066,6,0,P|192:238|185:364,1,200,8|10,0:0|1:0,0:0:0:0:
294,314,234628,1,0,0:0:0:0:
53,246,234816,6,0,P|79:141|136:51,2,200,0|8|6,0:0|0:0|1:0,0:0:0:0:
140,264,235753,1,0,0:0:0:0:
53,246,235941,1,0,0:0:0:0:
187,355,236316,6,0,P|243:344|285:349,1,100,2|0,0:0|0:0,0:0:0:0:
483,185,236691,6,0,P|427:174|385:179,1,100,2|0,0:0|0:0,0:0:0:0:
93,22,237066,6,0,P|151:48|296:43,1,200,4|0,1:0|0:0,0:0:0:0:
234,186,237628,1,0,0:0:0:0:
501,246,237816,6,0,P|410:251|308:324,1,200,8|0,0:0|0:0,0:0:0:0:
321,309,238378,1,0,0:0:0:0:
43,283,238566,6,0,P|124:308|237:263,1,200,8|0,1:0|0:0,0:0:0:0:
229,270,239128,1,0,0:0:0:0:
409,349,239316,6,0,P|420:297|410:252,1,100,8|0,0:0|0:0,0:0:0:0:
501,117,239691,2,0,P|461:81|417:67,1,100
32,40,240066,6,0,P|102:68|236:44,1,200,8|10,0:0|1:0,0:0:0:0:
292,174,240628,1,0,0:0:0:0:
417,67,240816,6,0,P|358:67|313:84,1,100,2|0,0:0|0:0,0:0:0:0:
105,220,241191,6,0,P|152:234|202:233,1,100,8|0,0:0|0:0,0:0:0:0:
100,339,241566,5,10,0:1:0:0:
272,326,241753,1,0,0:0:0:0:
292,174,241941,5,0,0:0:0:0:
456,207,242128,1,0,0:0:0:0:
507,70,242316,6,0,P|457:48|401:50,1,100,2|0,0:0|0:0,0:0:0:0:
36,116,242691,6,0,P|85:114|130:93,1,100,2|0,0:0|0:0,0:0:0:0:
456,207,243066,6,8,P|381:179|261:187,1,200
302,356,243628,1,0,0:0:0:0:
3,304,243816,6,8,P|78:276|198:284,1,200
222,109,244378,1,0,0:0:0:0:
0,324,244566,6,0,P|75:296|296:350,1,300,2|0,0:0|0:0,0:0:0:0:
428,200,245316,2,0,P|330:181|235:209,1,200,4|8,0:1|1:2,0:0:0:0:
486,343,246066,6,0,P|431:330|384:307,1,100,2|0,0:0|0:0,0:0:0:0:
30,224,246441,6,0,P|85:211|132:188,1,100,2|0,0:0|0:0,0:0:0:0:
484,42,246816,6,0,P|343:72|272:60,1,200,8|0,1:2|0:0,0:0:0:0:
306,232,247378,1,0,0:0:0:0:
16,98,247566,6,0,P|115:92|210:120,1,200,4|0,1:0|0:0,0:0:0:0:
176,360,248316,5,0,1:0:0:0:
334,309,248503,1,0,0:0:0:0:
507,358,248691,2,0,P|520:266|509:190,1,150,0|0,1:0|0:0,0:0:0:0:
465,115,249066,6,0,B|486:140|486:140|495:230|448:302,1,200,4|0,1:0|0:0,0:0:0:0:
343,257,249628,1,0,0:0:0:0:
225,113,249816,6,0,P|153:98|118:102,1,100,0|0,1:0|0:0,0:0:0:0:
195,348,250191,2,0,P|267:333|302:337,1,100,0|0,1:0|0:0,0:0:0:0:
45,351,250566,6,0,P|29:313|70:161,1,200,12|0,1:0|0:0,0:0:0:0:
176,92,251128,1,0,0:0:0:0:
464,37,251316,6,0,P|478:76|376:116,1,180.000006866455,2|0,0:0|0:0,0:0:0:0:
468,20,252066,6,0,B|507:58|507:58|508:148|472:212,1,200,8|0,0:0|0:0,0:0:0:0:
428,312,252628,1,0,0:0:0:0:
130,338,252816,6,0,P|117:283|123:214,1,100
259,267,253191,5,4,0:1:0:0:
230,90,253378,1,0,0:0:0:0:
51,17,253566,6,0,P|72:76|40:180,1,150,12|0,0:0|0:0,0:0:0:0:
32,248,253941,2,0,P|60:196|108:176,1,100
236,260,254316,5,2,1:0:0:0:
207,83,254503,1,0,0:0:0:0:
333,197,254691,5,8,1:2:0:0:
385,1,254878,1,8,0:0:0:0:
448,176,255066,6,0,P|468:284|460:336,1,160,4|4,0:0|0:0,0:0:0:0:
296,148,256191,6,0,L|300:104,1,40
164,176,256566,6,0,L|172:240,1,60,8|0,0:2|0:0,0:0:0:0:
160,244,256941,2,0,L|156:204,1,40
24,300,257316,5,2,0:0:0:0:
152,360,257691,5,4,0:0:0:0:
152,360,257878,1,0,0:0:0:0:
196,72,258066,6,0,L|152:64,1,40
248,148,258441,2,0,L|292:140,1,40
48,24,258816,6,0,P|36:52|36:104,1,80,2|0,0:3|0:0,0:0:0:0:
72,176,259378,1,0,0:0:0:0:
352,236,259566,6,0,P|356:264|352:288,1,40,8|0,0:2|0:0,0:0:0:0:
378,313,259847,2,0,B|378:300|378:300|396:269|396:269|396:251,1,60
277,28,260316,6,0,P|270:52|271:117,1,80,2|0,0:2|0:0,0:0:0:0:
268,106,260878,1,0,0:0:0:0:
148,202,261066,6,0,P|165:225|171:289,1,80,4|0,0:0|0:0,0:0:0:0:
152,346,261628,1,0,0:0:0:0:
137,108,261816,6,0,P|169:119|214:159,1,80
168,24,262378,1,0,0:0:0:0:
323,107,262566,6,0,L|392:101,1,60,2|0,0:3|0:0,0:0:0:0:
453,120,262941,2,0,L|410:125,1,40
337,211,263316,5,4,0:0:0:0:
316,312,263503,1,0,0:0:0:0:
197,270,263691,5,2,0:2:0:0:
172,158,263878,1,0,0:0:0:0:
57,67,264066,6,0,L|49:92,3,20
73,214,264441,6,0,L|65:239,3,20
97,366,264816,6,0,P|138:338|172:335,1,80,2|0,0:2|0:0,0:0:0:0:
167,334,265378,1,0,0:0:0:0:
392,368,265566,6,0,P|368:354|337:321,1,60,2|0,0:0|0:0,0:0:0:0:
277,356,265941,2,0,P|268:335|268:318,1,40
233,220,266316,5,0,0:0:0:0:
227,110,266503,1,0,0:0:0:0:
355,168,266691,5,0,0:0:0:0:
381,35,266878,1,0,0:0:0:0:
478,130,267066,5,0,0:0:0:0:
477,136,267816,5,0,0:0:0:0:
349,112,268566,5,0,0:0:0:0:
53,219,269316,5,0,0:0:0:0:
54,225,270066,5,0,0:0:0:0:
189,215,270816,5,0,0:0:0:0:
475,357,271566,6,4,B|403:393|307:305|239:349,1,240
487,371,274566,5,2,0:1:0:0:
475,357,275316,6,0,P|477:329|467:274,1,80
242,241,276816,6,0,P|240:213|250:158,2,80
157,304,278691,6,0,L|151:261,2,40
65,258,279816,5,0,0:0:0:0:
256,192,279909,12,0,281316,0:0:0:0:
174,129,281691,5,0,0:0:0:0:
102,296,282066,6,0,P|159:282|223:294,1,120.000004577637,4|8,0:3|0:0,0:0:0:0:
218,292,282628,1,0,0:0:0:0:
358,201,282816,6,0,L|268:188,1,80,2|0,0:0|0:0,0:0:0:0:
485,269,283191,6,0,P|444:265|314:377,1,200,6|0,0:3|0:0,0:0:0:0:
321,352,283753,1,0,0:0:0:0:
204,184,283941,5,8,0:0:0:0:
412,159,284128,1,8,0:0:0:0:
229,307,284316,6,0,P|183:294|127:296,1,100,8|0,0:0|0:0,0:0:0:0:
26,150,284691,2,0,P|75:151|123:138,1,100
361,79,285066,6,0,P|266:108|201:188,1,200,4|8,0:3|0:0,0:0:0:0:
216,52,285628,1,0,0:0:0:0:
105,41,285816,6,0,P|123:107|121:153,1,100,2|0,0:0|0:0,0:0:0:0:
109,23,286191,6,0,P|128:81|107:239,1,200,6|0,0:3|0:0,0:0:0:0:
258,348,286753,2,0,P|248:284|225:240,1,100
360,306,287128,1,0,0:0:0:0:
502,141,287316,6,0,P|442:169|297:153,1,200,2|8,0:1|0:0,0:0:0:0:
233,60,287878,1,0,0:0:0:0:
27,163,288066,6,0,P|124:147|217:181,1,200,4|8,0:3|0:0,0:0:0:0:
176,328,288628,1,0,0:0:0:0:
13,151,288816,6,0,P|65:137|114:136,1,100,2|0,0:0|0:0,0:0:0:0:
258,252,289191,5,6,0:3:0:0:
317,85,289378,1,2,0:0:0:0:
485,318,289566,6,0,P|428:298|292:357,1,200,2|0,0:0|0:0,0:0:0:0:
176,328,290128,1,0,0:0:0:0:
363,174,290316,5,4,0:1:0:0:
139,206,290503,1,0,0:0:0:0:
297,59,290691,6,0,P|243:54|189:72,1,100
480,28,291066,6,0,P|392:88|362:183,1,200,4|8,0:3|0:0,0:0:0:0:
452,220,291628,1,0,0:0:0:0:
264,48,291816,6,0,P|244:152|290:241,1,200,2|6,0:0|0:3,0:0:0:0:
456,312,292378,6,0,B|372:368|272:312|144:252|48:352,1,400,2|2,0:0|0:0,0:0:0:0:
19,94,293316,6,0,P|117:84|180:113,1,150,4|0,0:1|0:0,0:0:0:0:
231,138,293691,6,0,L|285:121,1,40,2|0,0:1|0:0,0:0:0:0:
428,82,294091,6,0,P|402:96|384:120,1,60.0000022888184,4|0,0:1|0:0,0:0:0:0:
424,208,294841,6,4,P|408:240|412:344,1,140,6|4,0:1|0:1,0:1:0:0:
256,192,296341,12,0,298019,0:0:0:0:
328,76,298564,6,4,L|338:129,1,40,4|0,0:1|0:1,0:1:0:0:
68,144,299829,6,0,L|67:196,2,40,4|0|0,0:1|0:0|0:0,0:0:0:0:
104,320,301591,6,0,B|132:304|183:332|222:313,1,120,2|0,0:1|0:0,0:0:0:0:
334,295,304591,6,0,L|298:280,1,40,0|8,0:0|0:0,0:0:0:0:
225,232,306241,6,0,L|261:217,1,40
319,163,308667,6,0,L|293:146,1,20,0|4,0:0|0:1,0:0:0:0:
