osu file format v14

[General]
AudioFilename: audio.mp3
AudioLeadIn: 0
PreviewTime: 66192
Countdown: 0
SampleSet: Soft
StackLeniency: 0.7
Mode: 0
LetterboxInBreaks: 0
WidescreenStoryboard: 1

[Editor]
DistanceSpacing: 1
BeatDivisor: 4
GridSize: 4
TimelineZoom: 1.4

[Metadata]
Title:abnormalize (TV Size)
TitleUnicode:abnormalize (TV Size)
Artist:Ling tosite sigure
ArtistUnicode:凛として時雨
Creator:Addy2607
Version:Normal
Source:PSYCHO-PASS
Tags:サイコパス opening intro theme song anime animation japanese rock jrock j-rock shueisha tsunemori akane shinya kougami production i.g cyberpunk Tōru Toru Touru TK Kitajima Miyoko 345 Nakamura Masatoshi Pierre Nakano
BeatmapID:2558129
BeatmapSetID:1230498

[Difficulty]
HPDrainRate:4
CircleSize:3
OverallDifficulty:5
ApproachRate:6
SliderMultiplier:0.999999999999999
SliderTickRate:1

[Events]
//Background and Video events
Video,-575,"Psycho-Pass Opening 1 - Creditless 1080p.mp4"
0,0,"Kougami-Shinya-22313.jpg",0,0
//Break Periods
2,50106,54342
2,61077,62570
//Storyboard Layer 0 (Background)
//Storyboard Layer 1 (Fail)
//Storyboard Layer 2 (Pass)
//Storyboard Layer 3 (Foreground)
//Storyboard Layer 4 (Overlay)
//Storyboard Sound Samples

[TimingPoints]
535,342.857142857143,4,2,2,40,1,0
535,-100,4,2,2,40,0,0
11506,-100,4,2,1,50,0,0
17335,-100,4,2,1,50,0,0
17677,-100,4,2,1,50,0,0
18020,-100,4,2,1,50,0,0
18363,-100,4,2,1,50,0,0
18706,-100,4,2,1,60,0,0
19049,-100,4,2,1,60,0,0
19392,-100,4,2,1,60,0,0
19735,-100,4,2,1,70,0,0
21106,-100,4,2,2,40,0,0
22477,-100,4,2,1,60,0,0
27963,-100,4,2,1,50,0,0
37563,-100,4,2,2,50,0,0
38935,-100,4,2,1,60,0,0
44420,-100,4,2,1,70,0,0
49906,-100,4,2,3,40,0,0
52135,-100,4,2,3,40,0,0
54020,-100,4,2,3,40,0,0
55392,-100,4,2,1,60,0,0
60877,-100,4,2,1,50,0,0
63620,-100,4,2,1,60,0,0
65677,-100,4,2,1,70,0,0
66020,-100,4,2,1,60,0,0
66277,-100,4,2,1,5,0,0
66363,-100,4,2,1,80,0,1
69106,-100,4,2,1,80,0,1
70477,-100,4,2,1,90,0,1
71849,-100,4,2,1,80,0,1
74592,-100,4,2,1,80,0,1
75963,-100,4,2,1,80,0,1
77335,-100,4,2,1,80,0,1
80077,-100,4,2,1,80,0,1
81449,-100,4,2,1,90,0,1
82820,-100,4,2,1,75,0,1
84192,-100,4,2,1,50,0,0
85563,-100,4,2,2,40,0,0

[Colours]
Combo1 : 217,0,0
Combo2 : 0,140,255
Combo3 : 127,127,127
Combo4 : 191,191,191

[HitObjects]
477,185,535,6,0,P|379:229|301:191,1,200,0|0,3:0|0:0,0:0:0:0:
240,112,1563,1,2,3:2:0:0:
182,30,1906,2,0,B|176:117|176:117|151:138|151:138|146:225,1,200,0|0,3:0|0:0,0:0:0:0:
138,318,2935,1,2,3:2:0:0:
232,285,3277,2,0,B|358:269|298:362|425:338,1,200,0|2,3:0|0:0,0:0:0:0:
482,266,4306,1,2,3:2:0:0:
465,167,4649,2,0,B|370:205|370:205|276:161,1,200,0|0,3:0|0:0,0:0:0:0:
206,97,5677,1,0,3:0:0:0:
129,35,6020,6,0,P|48:85|55:190,1,200,0|0,3:0|0:0,0:0:0:0:
21,277,7049,2,0,L|22:329,1,50,2|2,3:2|3:2,0:0:0:0:
58,361,7392,2,0,B|174:380|133:293|262:311,1,200,0|0,3:0|0:0,0:0:0:0:
335,348,8420,2,0,P|361:355|393:347,1,50,2|2,3:2|3:2,0:0:0:0:
408,307,8763,2,0,L|406:149,1,150,0|2,3:0|3:2,0:0:0:0:
404,106,9449,1,0,0:0:0:0:
330,38,9792,1,2,3:2:0:0:
236,72,10135,2,0,B|112:105|154:18|30:51,1,200,0|0,3:0|0:0,0:0:0:0:
12,141,11163,1,0,3:0:0:0:
31,239,11506,6,0,L|138:229,1,99.9999999999999,0|2,3:0|3:2,0:0:0:0:
168,265,12020,1,2,0:0:0:0:
208,294,12192,2,0,L|315:284,1,99.9999999999999,0|2,3:0|3:2,0:0:0:0:
402,316,12877,2,0,L|392:209,1,99.9999999999999,0|2,3:0|3:2,0:0:0:0:
429,181,13392,1,2,0:0:0:0:
456,139,13563,2,0,L|446:32,1,99.9999999999999,0|2,3:0|3:2,0:0:0:0:
351,71,14249,6,0,P|302:91|248:70,1,99.9999999999999,0|2,3:0|3:2,0:0:0:0:
219,51,14763,1,2,0:0:0:0:
178,22,14935,2,0,P|129:2|75:23,1,99.9999999999999,0|2,3:0|3:2,0:0:0:0:
48,48,15449,1,2,0:0:0:0:
18,88,15620,2,0,L|21:199,1,99.9999999999999,0|0,3:0|3:0,0:0:0:0:
114,224,16306,2,0,L|111:335,1,99.9999999999999,0|0,3:0|3:0,0:0:0:0:
200,368,16992,5,4,0:0:0:0:
270,296,17335,2,0,L|384:281,1,99.9999999999999,2|0,3:2|3:2,0:0:0:0:
426,201,18020,1,2,3:2:0:0:
418,101,18363,2,0,L|362:92,1,50,0|0,3:0|3:0,0:0:0:0:
333,57,18706,2,0,L|277:66,1,50,2|2,3:2|3:2,0:0:0:0:
246,98,19049,2,0,L|190:89,1,50,0|0,3:0|3:0,0:0:0:0:
165,50,19392,2,0,L|109:41,1,50,0|0,3:0|3:0,0:0:0:0:
69,61,19735,6,0,B|58:175,1,99.9999999999999,8|8,0:0|0:0,0:0:0:0:
114,243,20420,2,0,P|167:230|210:250,1,99.9999999999999,8|8,0:0|0:0,0:0:0:0:
251,337,21106,2,0,L|185:331,2,50,14|2|2,0:0|0:0|0:0,0:0:0:0:
299,322,21620,1,2,0:0:0:0:
391,359,21963,1,2,0:0:0:0:
464,290,22306,1,8,0:0:0:0:
464,290,22477,6,0,L|468:176,1,99.9999999999999,6|10,3:2|0:0,0:0:0:0:
467,139,22992,1,2,0:0:0:0:
467,139,23163,2,0,P|409:153|363:132,1,99.9999999999999,2|10,0:0|0:0,0:0:0:0:
303,66,23849,2,0,P|245:52|199:73,1,99.9999999999999,2|10,3:2|0:0,0:0:0:0:
165,91,24363,1,2,0:0:0:0:
165,91,24535,2,0,L|159:206,1,99.9999999999999,2|10,0:0|0:0,0:0:0:0:
154,290,25220,6,0,B|203:273|203:273|255:290,1,99.9999999999999,2|10,3:2|0:0,0:0:0:0:
293,310,25735,1,2,0:0:0:0:
293,310,25906,2,0,B|342:327|342:327|394:310,1,99.9999999999999,2|10,0:0|0:0,0:0:0:0:
453,236,26592,2,0,P|469:171|448:129,1,99.9999999999999,2|10,3:2|0:0,0:0:0:0:
422,107,27106,1,2,0:0:0:0:
422,107,27277,1,10,0:0:0:0:
321,108,27620,1,10,0:0:0:0:
233,154,27963,6,0,P|182:173|139:158,1,99.9999999999999,4|10,3:2|0:0,0:0:0:0:
98,131,28477,1,2,0:0:0:0:
98,131,28649,2,0,L|94:238,1,99.9999999999999,2|8,0:0|0:0,0:0:0:0:
92,281,29163,1,2,0:0:0:0:
170,343,29506,1,2,3:2:0:0:
170,343,29677,2,0,L|287:345,1,99.9999999999999,10|2,0:0|0:0,0:0:0:0:
309,313,30192,1,2,3:2:0:0:
309,313,30363,1,10,0:0:0:0:
402,349,30706,6,0,L|412:243,1,99.9999999999999,0|10,3:0|0:0,0:0:0:0:
415,199,31220,1,2,0:0:0:0:
415,199,31392,2,0,P|362:216|314:195,1,99.9999999999999,2|10,0:0|0:0,0:0:0:0:
285,166,31906,1,2,0:0:0:0:
205,104,32249,1,2,3:2:0:0:
205,104,32420,2,0,L|133:105,1,50,10|2,0:0|0:0,0:0:0:0:
105,112,32763,2,0,P|117:171|95:221,1,99.9999999999999,2|10,0:0|0:0,0:0:0:0:
68,295,33449,6,0,P|117:313|165:296,1,99.9999999999999,0|8,3:0|0:0,0:0:0:0:
197,265,33963,2,0,P|246:247|294:264,1,99.9999999999999,0|0,0:0|3:0,0:0:0:0:
330,290,34477,1,8,0:0:0:0:
410,348,34820,2,0,L|417:235,1,99.9999999999999,0|10,3:0|0:0,0:0:0:0:
439,203,35335,1,2,0:0:0:0:
439,203,35506,2,0,L|507:213,2,50,2|2|10,0:0|3:2|0:0,0:0:0:0:
395,112,36192,6,0,P|348:95|288:118,1,99.9999999999999,0|8,3:0|0:0,0:0:0:0:
258,133,36706,2,0,P|211:150|151:127,1,99.9999999999999,0|0,0:0|3:0,0:0:0:0:
125,105,37220,1,8,0:0:0:0:
27,83,37563,2,0,L|36:193,1,99.9999999999999,6|10,3:2|0:0,0:0:0:0:
75,274,38249,2,0,P|122:288|176:270,1,99.9999999999999,6|10,3:2|0:0,0:0:0:0:
209,243,38763,1,0,0:0:0:0:
209,243,38935,6,0,L|314:254,1,99.9999999999999,6|8,3:2|0:0,0:0:0:0:
349,281,39449,2,0,L|350:343,2,50,2|2|2,0:0|0:0|3:2,0:0:0:0:
422,213,40135,1,2,0:0:0:0:
448,169,40306,6,0,P|463:115|449:64,1,99.9999999999999,2|10,3:2|0:0,0:0:0:0:
408,52,40820,2,0,P|353:67|303:53,1,99.9999999999999,2|2,0:0|3:2,0:0:0:0:
270,28,41335,1,8,0:0:0:0:
176,60,41677,2,0,L|169:171,1,99.9999999999999,0|8,3:0|0:0,0:0:0:0:
130,192,42192,1,2,0:0:0:0:
130,192,42363,2,0,L|137:303,1,99.9999999999999,2|10,0:0|0:0,0:0:0:0:
221,349,43049,2,0,B|270:366|270:366|321:346,1,99.9999999999999,0|8,3:0|0:0,0:0:0:0:
358,257,43735,2,0,B|407:240|407:240|458:260,1,99.9999999999999,0|8,0:0|0:0,0:0:0:0:
499,274,44249,1,10,0:0:0:0:
499,274,44420,6,0,L|494:171,1,99.9999999999999,4|8,3:2|0:0,0:0:0:0:
451,83,45106,2,0,P|398:65|345:85,1,99.9999999999999,8|10,0:0|0:0,0:0:0:0:
311,98,45620,1,2,3:2:0:0:
311,98,45792,2,0,P|259:114|206:93,1,99.9999999999999,10|10,0:0|0:0,0:0:0:0:
134,43,46477,1,10,0:0:0:0:
134,43,46649,2,0,L|120:158,1,99.9999999999999,2|2,3:2|3:2,0:0:0:0:
85,177,47163,2,0,L|99:292,1,99.9999999999999,2|8,3:2|0:0,0:0:0:0:
112,375,47849,1,0,3:0:0:0:
198,324,48192,1,10,0:0:0:0:
289,365,48535,6,0,L|356:355,1,50,14|8,0:0|0:0,0:0:0:0:
404,282,49049,2,0,L|471:272,1,50,8|10,0:0|0:0,0:0:0:0:
493,182,49563,1,8,0:0:0:0:
428,105,49906,5,6,3:2:0:0:
37,344,55392,6,0,L|32:243,1,99.9999999999999,4|10,3:2|0:0,0:0:0:0:
26,194,55906,2,0,P|82:209|123:191,1,99.9999999999999,2|2,0:0|3:2,0:0:0:0:
161,166,56420,1,10,0:0:0:0:
245,111,56763,2,0,P|301:96|342:114,1,99.9999999999999,4|10,3:2|0:0,0:0:0:0:
375,144,57277,1,2,0:0:0:0:
375,144,57449,2,0,P|431:159|472:141,1,99.9999999999999,0|10,0:0|0:0,0:0:0:0:
505,110,57963,1,2,0:0:0:0:
505,110,58135,6,0,L|501:5,1,99.9999999999999,6|8,3:2|0:0,0:0:0:0:
405,38,58820,2,0,P|347:51|299:26,1,99.9999999999999,0|8,0:0|0:0,0:0:0:0:
266,12,59335,1,2,0:0:0:0:
266,12,59506,2,0,L|261:112,1,99.9999999999999,10|10,0:0|0:0,0:0:0:0:
256,161,60020,1,10,0:0:0:0:
165,119,60363,1,2,0:0:0:0:
73,158,60706,1,2,0:0:0:0:
73,158,60877,5,6,3:2:0:0:
452,305,63620,6,0,L|353:293,2,99.9999999999999,0|2|2,0:0|0:0|0:0,0:0:0:0:
510,224,64649,1,0,0:0:0:0:
414,194,64992,2,0,L|310:181,1,99.9999999999999,2|2,3:2|3:2,0:0:0:0:
267,197,65506,2,0,P|209:218|169:199,1,99.9999999999999,2|10,0:0|0:0,0:0:0:0:
154,159,66020,1,8,0:0:0:0:
110,68,66363,6,0,P|161:54|219:74,1,99.9999999999999,6|8,3:2|0:0,0:0:0:0:
251,85,66877,1,0,0:0:0:0:
251,85,67049,2,0,P|302:99|360:79,1,99.9999999999999,2|8,0:0|0:0,0:0:0:0:
433,37,67735,2,0,L|437:146,1,99.9999999999999,2|8,3:2|0:0,0:0:0:0:
437,187,68249,1,0,0:0:0:0:
437,187,68420,2,0,P|383:174|332:197,1,99.9999999999999,2|8,0:0|0:0,0:0:0:0:
305,223,68935,1,0,0:0:0:0:
305,223,69106,6,0,L|197:223,1,99.9999999999999,2|8,3:2|0:0,0:0:0:0:
113,264,69792,2,0,L|110:146,1,99.9999999999999,0|8,0:0|0:0,0:0:0:0:
105,64,70477,2,0,P|161:51|211:71,1,99.9999999999999,6|10,3:2|0:0,0:0:0:0:
242,91,70992,1,2,3:2:0:0:
325,40,71335,2,0,L|379:35,1,50,10|0,0:2|3:0,0:0:0:0:
424,29,71677,1,10,0:0:0:0:
474,26,71849,6,0,L|485:142,1,99.9999999999999,4|8,3:2|0:0,0:0:0:0:
426,208,72535,2,0,L|487:213,2,50,2|2|10,0:0|3:2|0:0,0:0:0:0:
383,235,73049,2,0,P|333:252|288:233,1,99.9999999999999,2|2,0:0|3:2,0:0:0:0:
259,196,73563,1,8,0:0:0:0:
259,196,73735,2,0,P|209:179|161:194,1,99.9999999999999,2|2,0:0|3:2,0:0:0:0:
122,218,74249,1,8,0:0:0:0:
29,180,74592,6,0,L|39:289,1,99.9999999999999,0|8,3:0|0:0,0:0:0:0:
106,352,75277,2,0,P|153:369|210:345,1,99.9999999999999,8|8,0:0|0:0,0:0:0:0:
268,281,75963,6,0,L|335:281,1,50,4|0,3:2|3:0,0:0:0:0:
363,301,76306,2,0,L|430:301,1,50,8|0,0:0|3:0,0:0:0:0:
451,268,76649,2,0,L|450:199,1,50,8|8,0:0|0:0,0:0:0:0:
483,180,76992,1,8,0:0:0:0:
482,79,77335,6,0,P|431:65|379:87,1,99.9999999999999,6|8,3:2|0:0,0:0:0:0:
341,99,77849,1,0,0:0:0:0:
341,99,78020,2,0,P|290:113|238:91,1,99.9999999999999,2|8,0:0|0:0,0:0:0:0:
165,38,78706,2,0,L|159:159,1,99.9999999999999,2|8,3:2|0:0,0:0:0:0:
115,161,79220,1,2,0:0:0:0:
115,161,79392,2,0,L|119:225,1,50,2|2,0:0|3:2,0:0:0:0:
122,260,79735,1,8,0:0:0:0:
195,323,80077,6,0,P|246:306|302:324,1,99.9999999999999,0|8,3:0|0:0,0:0:0:0:
382,355,80763,2,0,P|433:372|489:354,1,99.9999999999999,0|8,0:0|0:0,0:0:0:0:
482,261,81449,2,0,L|473:157,1,99.9999999999999,6|10,3:2|0:0,0:0:0:0:
454,115,81963,2,0,P|398:133|348:117,1,99.9999999999999,2|10,3:2|0:0,0:0:0:0:
320,91,82477,1,0,3:0:0:0:
236,36,82820,6,0,L|134:29,1,99.9999999999999,6|8,3:2|0:0,0:0:0:0:
85,33,83335,2,0,P|101:95|84:137,1,99.9999999999999,2|2,0:0|0:0,0:0:0:0:
60,168,83849,1,10,0:0:0:0:
61,261,84192,1,4,3:2:0:0:
61,261,84363,2,0,L|162:254,1,99.9999999999999,2|2,0:0|0:0,0:0:0:0:
210,247,84877,1,2,0:0:0:0:
287,310,85220,1,2,0:0:0:0:
347,230,85563,5,2,0:0:0:0:
256,192,85649,12,6,88135,0:0:0:0:
