osu file format v14

[General]
AudioFilename: audio.mp3
AudioLeadIn: 0
PreviewTime: 45354
Countdown: 0
SampleSet: Soft
StackLeniency: 0.7
Mode: 0
LetterboxInBreaks: 0
WidescreenStoryboard: 0

[Editor]
DistanceSpacing: 1.4
BeatDivisor: 4
GridSize: 4
TimelineZoom: 1

[Metadata]
Title:Transcendence
TitleUnicode:Transcendence
Artist:Lindsey Stirling
ArtistUnicode:Lindsey Stirling
Creator:MagicNAT
Version:Insane
Source:
Tags:
BeatmapID:1074819
BeatmapSetID:505233

[Difficulty]
HPDrainRate:7.6
CircleSize:4
OverallDifficulty:5.2
ApproachRate:8.6
SliderMultiplier:1.6
SliderTickRate:2

[Events]
//Background and Video events
//Break Periods
//Storyboard Layer 0 (Background)
//Storyboard Layer 1 (Fail)
//Storyboard Layer 2 (Pass)
//Storyboard Layer 3 (Foreground)
//Storyboard Sound Samples

[TimingPoints]
0,472.44094488189,4,2,0,60,1,0
30236,-66.6666666666667,4,2,0,75,0,0
45354,-66.6666666666667,4,2,0,75,0,1

[HitObjects]
88,94,0,5,0,0:0:0:0:
106,105,236,2,0,P|186:122|198:116,1,80
80,228,708,1,0,0:0:0:0:
249,341,944,1,0,0:0:0:0:
256,328,1417,2,0,P|287:296|288:259,1,80
149,299,1889,1,0,0:0:0:0:
280,190,2125,1,0,0:0:0:0:
157,193,2362,1,0,0:0:0:0:
269,84,2598,1,0,0:0:0:0:
282,89,2834,6,0,P|324:107|355:143,1,80
150,214,3307,2,0,P|108:242|73:243,1,80
146,116,3779,5,0,0:0:0:0:
162,122,4015,2,0,P|201:142|223:181,1,80
107,262,4488,1,0,0:0:0:0:
295,307,4724,1,0,0:0:0:0:
291,293,5196,6,0,P|263:247|230:229,1,80
172,360,5669,1,0,0:0:0:0:
290,223,5905,1,0,0:0:0:0:
149,252,6141,1,0,0:0:0:0:
282,199,6377,1,0,0:0:0:0:
178,97,6614,2,0,P|214:73|258:67,1,80
210,224,7086,2,0,P|156:240|118:235,1,80
367,39,7559,5,0,0:0:0:0:
360,52,7795,2,0,P|331:92|290:113,1,80
168,62,8267,1,0,0:0:0:0:
328,233,8503,1,0,0:0:0:0:
316,242,8976,2,0,P|271:258|231:255,1,80
204,117,9448,1,0,0:0:0:0:
313,211,9685,1,0,0:0:0:0:
169,222,9921,1,0,0:0:0:0:
269,119,10157,1,0,0:0:0:0:
411,137,10393,6,0,P|424:190|355:279,1,160
105,157,11338,1,0,0:0:0:0:
114,163,11574,2,0,P|163:180|208:183,1,80
255,312,12047,1,0,0:0:0:0:
347,194,12283,1,0,0:0:0:0:
171,55,12755,1,0,0:0:0:0:
121,155,12992,1,0,0:0:0:0:
171,265,13228,5,0,0:0:0:0:
314,269,13464,2,0,P|366:250|371:247,2,40
268,131,13937,1,0,0:0:0:0:
125,110,14173,2,0,P|113:152|74:173,1,80
222,211,14645,1,0,0:0:0:0:
407,70,15118,5,0,0:0:0:0:
392,79,15354,2,0,P|351:102|324:103,1,40
308,48,15590,1,0,0:0:0:0:
201,207,15826,1,0,0:0:0:0:
195,63,16062,2,0,P|152:85|132:127,1,80
316,167,16535,2,0,P|346:132|347:94,1,80
213,148,17007,5,0,0:0:0:0:
234,169,17244,2,0,P|271:194|277:197,1,40
328,153,17480,1,0,0:0:0:0:
225,253,17716,1,0,0:0:0:0:
368,249,17952,2,0,P|422:237|459:213,1,80
298,118,18425,2,0,P|261:131|222:153,1,80
327,251,18897,5,0,0:0:0:0:
278,249,19133,2,0,P|243:227|240:223,1,40
213,300,19370,1,0,0:0:0:0:
295,182,19606,1,0,0:0:0:0:
159,228,19842,2,0,P|88:229|62:223,1,80
253,145,20314,2,0,P|283:112|295:72,1,80
157,126,20787,5,0,0:0:0:0:
171,153,21023,2,0,P|220:193|328:195,1,160
208,187,21968,1,0,0:0:0:0:
236,149,22204,1,0,0:0:0:0:
284,138,22440,1,0,0:0:0:0:
276,248,22677,2,0,P|251:288|138:309,1,160
225,191,23385,1,0,0:0:0:0:
359,244,23622,6,0,P|402:270|458:262,1,80
376,118,24094,2,0,P|331:100|291:107,1,80
411,194,24566,1,0,0:0:0:0:
386,203,25039,6,0,P|333:216|282:210,1,80
350,77,25511,1,0,0:0:0:0:
329,86,25984,2,0,P|291:105|251:103,1,80
126,37,26456,2,0,P|74:52|50:72,1,80
169,154,26929,2,0,P|230:170|263:163,1,80
291,59,27401,2,0,P|332:69|390:187,1,160
248,157,28110,1,0,0:0:0:0:
347,261,28346,2,0,P|325:295|319:302,2,40
203,264,28818,1,0,0:0:0:0:
136,135,29055,1,0,0:0:0:0:
279,139,29291,1,0,0:0:0:0:
158,217,29527,1,0,0:0:0:0:
194,77,29763,1,0,0:0:0:0:
410,99,30236,5,0,0:0:0:0:
378,139,30708,1,0,0:0:0:0:
154,53,30944,1,0,0:0:0:0:
193,198,31181,1,0,0:0:0:0:
227,217,31653,2,0,P|262:265|261:331,1,120.000004577637
355,102,32125,1,0,0:0:0:0:
326,138,32598,2,0,P|276:181|219:183,1,120.000004577637
395,16,33070,1,0,0:0:0:0:
269,94,33307,1,0,0:0:0:0:
461,158,33543,1,0,0:0:0:0:
244,260,33779,1,0,0:0:0:0:
389,69,34015,5,0,0:0:0:0:
360,96,34488,1,0,0:0:0:0:
120,78,34724,1,0,0:0:0:0:
171,312,34960,1,0,0:0:0:0:
206,288,35433,1,0,0:0:0:0:
293,64,35669,1,0,0:0:0:0:
447,247,35905,1,0,0:0:0:0:
224,156,36141,1,0,0:0:0:0:
346,156,36377,2,0,P|397:120|419:50,1,120.000004577637
224,210,36850,2,0,P|169:250|142:309,1,120.000004577637
385,288,37322,1,0,0:0:0:0:
351,252,37795,6,0,P|302:210|240:197,1,120.000004577637
461,85,38267,1,0,0:0:0:0:
446,129,38740,2,0,P|408:190|360:208,1,120.000004577637
272,46,39212,1,0,0:0:0:0:
450,205,39448,1,0,0:0:0:0:
209,208,39685,2,0,P|165:250|100:256,1,120.000004577637
324,153,40157,1,0,0:0:0:0:
189,351,40393,1,0,0:0:0:0:
413,267,40629,1,0,0:0:0:0:
180,204,40866,1,0,0:0:0:0:
402,115,41102,1,0,0:0:0:0:
297,330,41338,1,0,0:0:0:0:
247,95,41574,6,0,P|184:97|124:76,1,120.000004577637
333,208,42047,1,0,0:0:0:0:
121,320,42283,1,0,0:0:0:0:
208,96,42519,6,0,P|263:138|337:151,1,120.000004577637
91,249,42992,1,0,0:0:0:0:
272,91,43228,1,0,0:0:0:0:
357,315,43464,5,0,0:0:0:0:
174,159,43700,1,0,0:0:0:0:
125,319,43937,1,0,0:0:0:0:
328,192,44173,1,0,0:0:0:0:
129,57,44409,2,0,P|70:26|54:26,3,60.0000022888184
160,102,44881,1,0,0:0:0:0:
185,140,45000,5,0,0:0:0:0:
215,178,45118,5,0,0:0:0:0:
251,200,45236,5,0,0:0:0:0:
291,205,45354,5,0,0:0:0:0:
366,158,45472,6,0,P|407:95|407:90,2,60.0000022888184
302,102,45826,1,0,0:0:0:0:
211,153,45944,2,0,P|154:176|147:176,2,60.0000022888184
276,206,46299,1,0,0:0:0:0:
338,262,46417,2,0,P|414:282|421:281,2,60.0000022888184
259,292,46771,1,0,0:0:0:0:
179,265,46889,2,0,P|119:242|114:238,1,60.0000022888184
177,181,47125,1,0,0:0:0:0:
261,190,47244,1,0,0:0:0:0:
160,55,47480,6,0,P|214:95|276:102,1,120.000004577637
411,20,47952,1,0,0:0:0:0:
390,186,48188,1,0,0:0:0:0:
249,92,48425,1,0,0:0:0:0:
416,103,48661,1,0,0:0:0:0:
275,195,48897,1,0,0:0:0:0:
123,123,49133,5,0,0:0:0:0:
204,141,49251,2,0,P|249:93|250:92,2,60.0000022888184
177,60,49606,1,0,0:0:0:0:
93,50,49724,2,0,P|35:80|29:91,2,60.0000022888184
105,132,50078,1,0,0:0:0:0:
100,215,50196,1,0,0:0:0:0:
174,253,50314,1,0,0:0:0:0:
120,318,50433,1,0,0:0:0:0:
202,332,50551,6,0,P|266:342|330:317,1,120.000004577637
377,168,51023,1,0,0:0:0:0:
245,272,51259,1,0,0:0:0:0:
188,113,51496,1,0,0:0:0:0:
318,218,51732,1,0,0:0:0:0:
150,212,51968,2,0,P|80:210|30:186,1,120.000004577637
271,154,52440,2,0,P|341:107|362:65,1,120.000004577637
189,76,52913,6,0,P|126:57|96:56,2,60.0000022888184
131,136,53267,1,0,0:0:0:0:
211,160,53385,2,0,P|275:149|284:144,2,60.0000022888184
146,215,53740,1,0,0:0:0:0:
99,144,53858,2,0,P|64:89|12:47,1,120.000004577637
54,218,54330,2,0,P|65:285|98:342,1,120.000004577637
185,192,54803,5,0,0:0:0:0:
319,292,55039,1,0,0:0:0:0:
393,110,55275,1,0,0:0:0:0:
