osu file format v14

[General]
AudioFilename: audio.mp3
AudioLeadIn: 0
PreviewTime: 175518
Countdown: 1
SampleSet: Normal
StackLeniency: 0.7
Mode: 1
LetterboxInBreaks: 0
WidescreenStoryboard: 0

[Editor]
DistanceSpacing: 1
BeatDivisor: 4
GridSize: 32
TimelineZoom: 2.2

[Metadata]
Title:Take Flight
TitleUnicode:Take Flight
Artist:Lindsey Stirling
ArtistUnicode:Lindsey Stirling
Creator:nitori0
Version:nitOni
Source:Shatter Me
Tags:Lindsey Stirling Take Flight
BeatmapID:1748585
BeatmapSetID:834776

[Difficulty]
HPDrainRate:6
CircleSize:5
OverallDifficulty:6
ApproachRate:5
SliderMultiplier:1.6
SliderTickRate:1

[Events]
//Background and Video events
0,0,"3d_anime_girl-wallpaper-1920x1080.jpg",0,0
//Break Periods
//Storyboard Layer 0 (Background)
//Storyboard Layer 1 (Fail)
//Storyboard Layer 2 (Pass)
//Storyboard Layer 3 (Foreground)
//Storyboard Sound Samples

[TimingPoints]
10947,428.571428571429,4,1,0,100,1,0
52089,-111.111111111111,4,1,0,100,0,0
65804,-100,4,1,0,100,0,0
79732,-25,4,1,0,100,0,0
80589,-90.9090909090909,4,1,0,100,0,0
83161,-25,4,1,0,100,0,0
84018,-90.9090909090909,4,1,0,100,0,0
93447,-25,4,1,0,100,0,0
94304,-90.9090909090909,4,1,0,100,0,0
96875,-25,4,1,0,100,0,0
97304,-90.9090909090909,4,1,0,100,0,0
109089,-100,4,1,0,100,0,0
148089,-111.111111111111,4,1,0,100,0,0
174232,-28.5714285714286,4,1,0,100,0,0
174661,-100,4,1,0,100,0,0
175518,-90.9090909090909,4,1,0,100,0,1
175732,-25,4,1,0,100,0,1
176589,-90.9090909090909,4,1,0,100,0,1
179161,-25,4,1,0,100,0,1
179161,-25,4,1,0,100,0,1
180018,-90.9090909090909,4,1,0,100,0,1
189447,-25,4,1,0,100,0,1
190304,-90.9090909090909,4,1,0,100,0,1
192875,-25,4,1,0,100,0,1
193304,-90.9090909090909,4,1,0,100,0,1
202947,-90.9090909090909,4,1,0,100,0,0
205089,-100,4,1,0,100,0,0
230375,-50,4,1,0,100,0,1
230589,-25,4,1,0,100,0,1
231447,-90.9090909090909,4,1,0,100,0,1
234018,-25,4,1,0,100,0,1
234875,-90.9090909090909,4,1,0,100,0,1
242375,-90.9090909090909,4,1,0,100,0,0
243232,-83.3333333333333,4,1,0,100,0,0
243339,-100,4,1,0,100,0,0
243447,-83.3333333333333,4,1,0,100,0,0
243554,-100,4,1,0,100,0,0
243661,-83.3333333333333,4,1,0,100,0,0
243768,-100,4,1,0,100,0,0
243875,-83.3333333333333,4,1,0,100,0,0
243982,-100,4,1,0,100,0,0
244089,-50,4,1,0,100,0,1
244304,-25,4,1,0,100,0,1
245161,-90.9090909090909,4,1,0,100,0,1
247732,-25,4,1,0,100,0,1
248161,-90.9090909090909,4,1,0,100,0,1
257804,-90.9090909090909,4,1,0,100,0,0

[HitObjects]
256,192,10946,5,0,0:0:0:0:
256,192,13089,1,2,0:0:0:0:
256,192,13518,1,2,0:0:0:0:
256,192,13946,1,0,0:0:0:0:
256,192,14375,1,0,0:0:0:0:
256,192,16518,1,0,0:0:0:0:
256,192,16732,1,0,0:0:0:0:
256,192,16947,1,2,0:0:0:0:
256,192,17161,1,0,0:0:0:0:
256,192,17375,1,2,0:0:0:0:
256,192,17589,1,2,0:0:0:0:
256,192,17804,1,0,0:0:0:0:
256,192,19947,1,0,0:0:0:0:
256,192,20161,1,0,0:0:0:0:
256,192,20375,1,2,0:0:0:0:
256,192,20804,1,0,0:0:0:0:
256,192,21232,1,2,0:0:0:0:
256,192,23375,1,2,0:0:0:0:
256,192,23804,1,2,0:0:0:0:
256,192,24232,1,0,0:0:0:0:
256,192,24661,1,0,0:0:0:0:
256,192,26804,1,2,0:0:0:0:
256,192,27232,1,2,0:0:0:0:
256,192,27661,1,0,0:0:0:0:
256,192,28089,1,2,0:0:0:0:
256,192,29375,1,0,0:0:0:0:
256,192,29589,1,0,0:0:0:0:
256,192,29804,1,2,0:0:0:0:
256,192,30232,1,0,0:0:0:0:
256,192,30447,1,2,0:0:0:0:
256,192,30661,1,2,0:0:0:0:
256,192,31089,1,2,0:0:0:0:
256,192,31518,1,0,0:0:0:0:
256,192,33232,1,0,0:0:0:0:
256,192,33661,1,0,0:0:0:0:
256,192,34089,1,0,0:0:0:0:
256,192,34518,1,2,0:0:0:0:
256,192,34947,1,2,0:0:0:0:
256,192,36232,1,2,0:0:0:0:
256,192,36661,1,0,0:0:0:0:
256,192,37518,1,0,0:0:0:0:
256,192,38375,1,0,0:0:0:0:
256,192,38589,1,2,0:0:0:0:
256,192,38804,1,2,0:0:0:0:
256,192,39018,1,0,0:0:0:0:
256,192,39232,1,2,0:0:0:0:
256,192,40518,1,2,0:0:0:0:
256,192,40947,1,0,0:0:0:0:
256,192,41375,1,2,0:0:0:0:
256,192,41804,1,0,0:0:0:0:
256,192,42018,1,2,0:0:0:0:
256,192,42232,1,2,0:0:0:0:
256,192,42447,1,0,0:0:0:0:
256,192,42661,1,2,0:0:0:0:
256,192,43947,1,2,0:0:0:0:
256,192,44375,1,0,0:0:0:0:
256,192,44804,1,2,0:0:0:0:
256,192,45232,2,0,L|160:192,8,80
256,192,47375,1,0,0:0:0:0:
256,192,47589,1,2,0:0:0:0:
256,192,47804,1,0,0:0:0:0:
256,192,48232,1,0,0:0:0:0:
256,192,48661,1,0,0:0:0:0:
256,192,49304,1,2,0:0:0:0:
256,192,49518,1,0,0:0:0:0:
256,192,50161,1,2,0:0:0:0:
256,192,50375,1,0,0:0:0:0:
256,192,50589,1,0,0:0:0:0:
256,192,50804,1,2,0:0:0:0:
256,192,51018,1,2,0:0:0:0:
256,192,51232,1,0,0:0:0:0:
256,192,51447,1,2,0:0:0:0:
256,192,51661,1,0,0:0:0:0:
256,192,51875,1,0,0:0:0:0:
256,192,52089,1,2,0:0:0:0:
256,192,52411,1,0,0:0:0:0:
256,192,52732,1,0,0:0:0:0:
256,192,52947,1,2,0:0:0:0:
256,192,53268,1,0,0:0:0:0:
256,192,53589,1,0,0:0:0:0:
256,192,53804,1,2,0:0:0:0:
256,192,54125,1,0,0:0:0:0:
256,192,54447,1,0,0:0:0:0:
256,192,54661,1,0,0:0:0:0:
256,192,54982,1,0,0:0:0:0:
256,192,55304,1,2,0:0:0:0:
256,192,55518,1,2,0:0:0:0:
256,192,55839,1,2,0:0:0:0:
256,192,56161,1,0,0:0:0:0:
256,192,56375,1,2,0:0:0:0:
256,192,56697,1,2,0:0:0:0:
256,192,57018,1,0,0:0:0:0:
256,192,57232,1,2,0:0:0:0:
256,192,57554,1,2,0:0:0:0:
256,192,57875,1,0,0:0:0:0:
256,192,58089,1,0,0:0:0:0:
256,192,58411,1,0,0:0:0:0:
256,192,58732,1,2,0:0:0:0:
256,192,58947,1,2,0:0:0:0:
256,192,59268,1,0,0:0:0:0:
256,192,59589,1,0,0:0:0:0:
256,192,59804,1,2,0:0:0:0:
256,192,60125,1,0,0:0:0:0:
256,192,60447,1,0,0:0:0:0:
256,192,60661,1,2,0:0:0:0:
256,192,60982,1,0,0:0:0:0:
256,192,61304,1,0,0:0:0:0:
256,192,61518,1,0,0:0:0:0:
256,192,61839,1,2,0:0:0:0:
256,192,62161,1,2,0:0:0:0:
256,192,62375,1,0,0:0:0:0:
256,192,62697,1,2,0:0:0:0:
256,192,63018,1,0,0:0:0:0:
256,192,63232,1,0,0:0:0:0:
256,192,63554,1,2,0:0:0:0:
256,192,63875,1,0,0:0:0:0:
256,192,64089,1,0,0:0:0:0:
256,192,64411,1,2,0:0:0:0:
256,192,64732,1,0,0:0:0:0:
256,192,64947,1,0,0:0:0:0:
256,192,65268,1,0,0:0:0:0:
256,192,65589,1,2,0:0:0:0:
256,192,65804,1,6,0:0:0:0:
256,192,66018,1,2,0:0:0:0:
256,192,66125,1,2,0:0:0:0:
256,192,66232,1,0,0:0:0:0:
256,192,66339,1,0,0:0:0:0:
256,192,66447,1,2,0:0:0:0:
256,192,66554,1,2,0:0:0:0:
256,192,66661,1,0,0:0:0:0:
256,192,66768,1,0,0:0:0:0:
256,192,66875,1,0,0:0:0:0:
256,192,66982,1,0,0:0:0:0:
256,192,67089,1,2,0:0:0:0:
256,192,67197,1,2,0:0:0:0:
256,192,67304,1,0,0:0:0:0:
256,192,67411,1,0,0:0:0:0:
256,192,67518,1,2,0:0:0:0:
256,192,67625,1,0,0:0:0:0:
256,192,67732,1,0,0:0:0:0:
256,192,67839,1,0,0:0:0:0:
256,192,67947,1,0,0:0:0:0:
256,192,68054,1,0,0:0:0:0:
256,192,68161,1,0,0:0:0:0:
256,192,68268,1,0,0:0:0:0:
256,192,68375,1,0,0:0:0:0:
256,192,68482,1,0,0:0:0:0:
256,192,68589,1,0,0:0:0:0:
256,192,68697,1,0,0:0:0:0:
256,192,68804,1,2,0:0:0:0:
256,192,68911,1,0,0:0:0:0:
256,192,69018,1,2,0:0:0:0:
256,192,69125,1,2,0:0:0:0:
256,192,69232,1,2,0:0:0:0:
256,192,69339,1,2,0:0:0:0:
256,192,69447,1,0,0:0:0:0:
256,192,69554,1,0,0:0:0:0:
256,192,69661,1,0,0:0:0:0:
256,192,69768,1,0,0:0:0:0:
256,192,69875,1,2,0:0:0:0:
256,192,69982,1,2,0:0:0:0:
256,192,70089,1,0,0:0:0:0:
256,192,70197,1,0,0:0:0:0:
256,192,70304,1,0,0:0:0:0:
256,192,70411,1,0,0:0:0:0:
256,192,70518,1,2,0:0:0:0:
256,192,70625,1,2,0:0:0:0:
256,192,70732,1,0,0:0:0:0:
256,192,70839,1,0,0:0:0:0:
256,192,70947,1,2,0:0:0:0:
256,192,71054,1,0,0:0:0:0:
256,192,71161,1,0,0:0:0:0:
256,192,71268,1,0,0:0:0:0:
256,192,71375,1,2,0:0:0:0:
256,192,71482,1,0,0:0:0:0:
256,192,71589,1,0,0:0:0:0:
256,192,71697,1,0,0:0:0:0:
256,192,71804,1,2,0:0:0:0:
256,192,71911,1,0,0:0:0:0:
256,192,72018,1,0,0:0:0:0:
256,192,72125,1,0,0:0:0:0:
256,192,72232,1,2,0:0:0:0:
256,192,72339,1,0,0:0:0:0:
256,192,72447,1,2,0:0:0:0:
256,192,72518,1,2,0:0:0:0:
256,192,72589,1,2,0:0:0:0:
256,192,72661,1,2,0:0:0:0:
256,192,72875,1,2,0:0:0:0:
256,192,73089,1,2,0:0:0:0:
256,192,73304,1,2,0:0:0:0:
256,192,73518,1,2,0:0:0:0:
256,192,73732,1,2,0:0:0:0:
256,192,73947,1,2,0:0:0:0:
256,192,74161,1,2,0:0:0:0:
256,192,74375,1,2,0:0:0:0:
256,192,74589,1,2,0:0:0:0:
256,192,74804,1,2,0:0:0:0:
256,192,75018,1,2,0:0:0:0:
256,192,75232,1,2,0:0:0:0:
256,192,75447,1,2,0:0:0:0:
256,192,75661,1,2,0:0:0:0:
256,192,75875,1,2,0:0:0:0:
256,192,76089,1,0,0:0:0:0:
256,192,76197,1,0,0:0:0:0:
256,192,76304,1,0,0:0:0:0:
256,192,76411,1,0,0:0:0:0:
256,192,76518,1,2,0:0:0:0:
256,192,76625,1,0,0:0:0:0:
256,192,76732,1,0,0:0:0:0:
256,192,76839,1,0,0:0:0:0:
256,192,76947,1,2,0:0:0:0:
256,192,77054,1,0,0:0:0:0:
256,192,77161,1,2,0:0:0:0:
256,192,77268,1,0,0:0:0:0:
256,192,77375,1,2,0:0:0:0:
256,192,77482,1,0,0:0:0:0:
256,192,77589,1,0,0:0:0:0:
256,192,77697,1,0,0:0:0:0:
256,192,77804,1,2,0:0:0:0:
256,192,77911,1,2,0:0:0:0:
256,192,78018,1,0,0:0:0:0:
256,192,78125,1,0,0:0:0:0:
256,192,78232,1,2,0:0:0:0:
256,192,78339,1,2,0:0:0:0:
256,192,78447,1,0,0:0:0:0:
256,192,78554,1,0,0:0:0:0:
256,192,78661,1,2,0:0:0:0:
256,192,78768,1,0,0:0:0:0:
256,192,78875,1,2,0:0:0:0:
256,192,78982,1,0,0:0:0:0:
256,192,79089,1,2,0:0:0:0:
256,192,79197,1,0,0:0:0:0:
256,192,79304,1,2,0:0:0:0:
256,192,79411,1,0,0:0:0:0:
256,192,79518,1,4,0:0:0:0:
256,192,79732,2,0,L|96:192,6,160
256,192,80589,1,2,0:0:0:0:
256,192,80697,1,2,0:0:0:0:
256,192,80804,1,0,0:0:0:0:
256,192,81018,1,0,0:0:0:0:
256,192,81232,1,2,0:0:0:0:
256,192,81304,1,0,0:0:0:0:
256,192,81375,1,0,0:0:0:0:
256,192,81447,1,0,0:0:0:0:
256,192,81554,1,0,0:0:0:0:
256,192,81661,1,2,0:0:0:0:
256,192,81732,1,0,0:0:0:0:
256,192,81804,1,0,0:0:0:0:
256,192,81875,1,0,0:0:0:0:
256,192,81982,1,0,0:0:0:0:
256,192,82089,1,2,0:0:0:0:
256,192,82197,1,0,0:0:0:0:
256,192,82304,1,0,0:0:0:0:
256,192,82411,1,2,0:0:0:0:
256,192,82518,1,0,0:0:0:0:
256,192,82625,1,0,0:0:0:0:
256,192,82732,1,0,0:0:0:0:
256,192,82839,1,2,0:0:0:0:
256,192,82947,1,6,0:0:0:0:
256,192,83161,2,0,L|256:32,6,160
256,192,84018,1,2,0:0:0:0:
256,192,84089,1,2,0:0:0:0:
256,192,84161,1,2,0:0:0:0:
256,192,84232,1,2,0:0:0:0:
256,192,84339,1,2,0:0:0:0:
256,192,84447,1,2,0:0:0:0:
256,192,84554,1,2,0:0:0:0:
256,192,84661,1,0,0:0:0:0:
256,192,84875,1,0,0:0:0:0:
256,192,85089,1,2,0:0:0:0:
256,192,85304,1,0,0:0:0:0:
256,192,85518,1,2,0:0:0:0:
256,192,85589,1,0,0:0:0:0:
256,192,85661,1,0,0:0:0:0:
256,192,85732,1,0,0:0:0:0:
256,192,85839,1,0,0:0:0:0:
256,192,85947,1,2,0:0:0:0:
256,192,86018,1,0,0:0:0:0:
256,192,86089,1,0,0:0:0:0:
256,192,86161,1,0,0:0:0:0:
256,192,86268,1,0,0:0:0:0:
256,192,86375,1,2,0:0:0:0:
256,192,86482,1,0,0:0:0:0:
256,192,86589,1,2,0:0:0:0:
256,192,86697,1,0,0:0:0:0:
256,192,86804,1,2,0:0:0:0:
256,192,86911,1,2,0:0:0:0:
256,192,87018,1,0,0:0:0:0:
256,192,87089,1,0,0:0:0:0:
256,192,87161,1,0,0:0:0:0:
256,192,87232,1,2,0:0:0:0:
256,192,87447,1,0,0:0:0:0:
256,192,87554,1,0,0:0:0:0:
256,192,87661,1,2,0:0:0:0:
256,192,87875,1,0,0:0:0:0:
256,192,88089,1,2,0:0:0:0:
256,192,88518,1,0,0:0:0:0:
256,192,88947,1,2,0:0:0:0:
256,192,89375,1,2,0:0:0:0:
256,192,89482,1,2,0:0:0:0:
256,192,89589,1,2,0:0:0:0:
256,192,89697,1,2,0:0:0:0:
256,192,89804,1,0,0:0:0:0:
256,192,90447,1,2,0:0:0:0:
256,192,90661,1,0,0:0:0:0:
256,192,91304,1,2,0:0:0:0:
256,192,91518,1,0,0:0:0:0:
256,192,91625,1,2,0:0:0:0:
256,192,91839,1,0,0:0:0:0:
256,192,91947,1,2,0:0:0:0:
256,192,92161,1,0,0:0:0:0:
256,192,92375,1,2,0:0:0:0:
256,192,92482,1,2,0:0:0:0:
256,192,92589,1,2,0:0:0:0:
256,192,92697,1,2,0:0:0:0:
256,192,92804,1,0,0:0:0:0:
256,192,92911,1,0,0:0:0:0:
256,192,93018,1,0,0:0:0:0:
256,192,93125,1,0,0:0:0:0:
256,192,93232,1,4,0:0:0:0:
256,192,93447,2,0,L|64:192,6,160
256,192,94304,1,2,0:0:0:0:
256,192,94411,1,2,0:0:0:0:
256,192,94518,1,0,0:0:0:0:
256,192,94732,1,0,0:0:0:0:
256,192,94946,1,2,0:0:0:0:
256,192,95018,1,0,0:0:0:0:
256,192,95089,1,0,0:0:0:0:
256,192,95161,1,0,0:0:0:0:
256,192,95268,1,0,0:0:0:0:
256,192,95375,1,2,0:0:0:0:
256,192,95447,1,0,0:0:0:0:
256,192,95518,1,0,0:0:0:0:
256,192,95589,1,0,0:0:0:0:
256,192,95697,1,0,0:0:0:0:
256,192,95803,1,2,0:0:0:0:
256,192,95911,1,0,0:0:0:0:
256,192,96018,1,0,0:0:0:0:
256,192,96125,1,2,0:0:0:0:
256,192,96232,1,0,0:0:0:0:
256,192,96339,1,0,0:0:0:0:
256,192,96446,1,0,0:0:0:0:
256,192,96518,1,0,0:0:0:0:
256,192,96589,1,0,0:0:0:0:
256,192,96661,1,6,0:0:0:0:
256,192,96875,2,0,L|64:192,2,160
256,192,97304,1,2,0:0:0:0:
256,192,97518,1,0,0:0:0:0:
256,192,98161,1,2,0:0:0:0:
256,192,98375,1,2,0:0:0:0:
256,192,98589,1,0,0:0:0:0:
256,192,98804,1,0,0:0:0:0:
256,192,99018,1,0,0:0:0:0:
256,192,99232,1,2,0:0:0:0:
256,192,99304,1,2,0:0:0:0:
256,192,99375,1,2,0:0:0:0:
256,192,99447,1,0,0:0:0:0:
256,192,99554,1,0,0:0:0:0:
256,192,99661,1,2,0:0:0:0:
256,192,99732,1,2,0:0:0:0:
256,192,99804,1,2,0:0:0:0:
256,192,99875,1,0,0:0:0:0:
256,192,99982,1,0,0:0:0:0:
256,192,100089,1,2,0:0:0:0:
256,192,100197,1,0,0:0:0:0:
256,192,100304,1,2,0:0:0:0:
256,192,100411,1,0,0:0:0:0:
256,192,100518,1,2,0:0:0:0:
256,192,100625,1,2,0:0:0:0:
256,192,100732,1,0,0:0:0:0:
256,192,100804,1,0,0:0:0:0:
256,192,100875,1,0,0:0:0:0:
256,192,100947,1,2,0:0:0:0:
256,192,101161,1,2,0:0:0:0:
256,192,101268,1,2,0:0:0:0:
256,192,101375,1,2,0:0:0:0:
256,192,101447,1,2,0:0:0:0:
256,192,101518,1,0,0:0:0:0:
256,192,101589,1,0,0:0:0:0:
256,192,101661,1,0,0:0:0:0:
256,192,101732,1,0,0:0:0:0:
256,192,101804,1,2,0:0:0:0:
256,192,102232,1,0,0:0:0:0:
256,192,102661,1,2,0:0:0:0:
256,192,103089,1,2,0:0:0:0:
256,192,103197,1,2,0:0:0:0:
256,192,103304,1,2,0:0:0:0:
256,192,103411,1,2,0:0:0:0:
256,192,103518,1,0,0:0:0:0:
256,192,104161,1,2,0:0:0:0:
256,192,104375,1,0,0:0:0:0:
256,192,105018,1,2,0:0:0:0:
256,192,105232,1,0,0:0:0:0:
256,192,105339,1,0,0:0:0:0:
256,192,105554,1,0,0:0:0:0:
256,192,105661,1,2,0:0:0:0:
256,192,105875,1,0,0:0:0:0:
256,192,106089,1,2,0:0:0:0:
256,192,106197,1,2,0:0:0:0:
256,192,106304,1,0,0:0:0:0:
256,192,106411,1,0,0:0:0:0:
256,192,106518,1,2,0:0:0:0:
256,192,106625,1,0,0:0:0:0:
256,192,106732,1,0,0:0:0:0:
256,192,106839,1,0,0:0:0:0:
256,192,106947,1,0,0:0:0:0:
256,192,109089,1,2,0:0:0:0:
256,192,109518,1,2,0:0:0:0:
256,192,109947,1,0,0:0:0:0:
256,192,110375,1,0,0:0:0:0:
256,192,110589,1,2,0:0:0:0:
256,192,110804,1,0,0:0:0:0:
256,192,111018,1,0,0:0:0:0:
256,192,111125,1,0,0:0:0:0:
256,192,111232,1,2,0:0:0:0:
256,192,111447,1,0,0:0:0:0:
256,192,111661,1,2,0:0:0:0:
256,192,111768,1,0,0:0:0:0:
256,192,111875,1,0,0:0:0:0:
256,192,111982,1,2,0:0:0:0:
256,192,112089,1,2,0:0:0:0:
256,192,112304,1,0,0:0:0:0:
256,192,112518,1,2,0:0:0:0:
256,192,112732,1,0,0:0:0:0:
256,192,112839,1,0,0:0:0:0:
256,192,112947,1,2,0:0:0:0:
256,192,113161,1,0,0:0:0:0:
256,192,113375,1,0,0:0:0:0:
256,192,113482,1,0,0:0:0:0:
256,192,113589,1,0,0:0:0:0:
256,192,113697,1,2,0:0:0:0:
256,192,113804,1,0,0:0:0:0:
256,192,114018,1,2,0:0:0:0:
256,192,114125,1,0,0:0:0:0:
256,192,114232,1,0,0:0:0:0:
256,192,114447,1,2,0:0:0:0:
256,192,114661,1,0,0:0:0:0:
256,192,114875,1,0,0:0:0:0:
256,192,114982,1,2,0:0:0:0:
256,192,115089,1,0,0:0:0:0:
256,192,115304,1,2,0:0:0:0:
256,192,115518,1,0,0:0:0:0:
256,192,115732,1,2,0:0:0:0:
256,192,115947,1,2,0:0:0:0:
256,192,116161,1,0,0:0:0:0:
256,192,116375,1,2,0:0:0:0:
256,192,116482,1,0,0:0:0:0:
256,192,116589,1,0,0:0:0:0:
256,192,116804,1,0,0:0:0:0:
256,192,116911,1,2,0:0:0:0:
256,192,117018,1,0,0:0:0:0:
256,192,117232,1,2,0:0:0:0:
256,192,117447,1,0,0:0:0:0:
256,192,117554,1,0,0:0:0:0:
256,192,117661,1,2,0:0:0:0:
256,192,117768,1,2,0:0:0:0:
256,192,117875,1,0,0:0:0:0:
256,192,118089,1,2,0:0:0:0:
256,192,118304,1,0,0:0:0:0:
256,192,118411,1,0,0:0:0:0:
256,192,118518,1,2,0:0:0:0:
256,192,118625,1,0,0:0:0:0:
256,192,118732,1,0,0:0:0:0:
256,192,118947,1,0,0:0:0:0:
256,192,119161,1,0,0:0:0:0:
256,192,119268,1,2,0:0:0:0:
256,192,119375,1,0,0:0:0:0:
256,192,119589,1,2,0:0:0:0:
256,192,119697,1,0,0:0:0:0:
256,192,119804,1,2,0:0:0:0:
256,192,120018,1,0,0:0:0:0:
256,192,120232,1,2,0:0:0:0:
256,192,120286,1,2,0:0:0:0:
256,192,120447,1,0,0:0:0:0:
256,192,120661,1,2,0:0:0:0:
256,192,120875,1,0,0:0:0:0:
256,192,120982,1,2,0:0:0:0:
256,192,121089,1,2,0:0:0:0:
256,192,121197,1,2,0:0:0:0:
256,192,121304,1,0,0:0:0:0:
256,192,121518,1,0,0:0:0:0:
256,192,121625,1,0,0:0:0:0:
256,192,121732,1,0,0:0:0:0:
256,192,121947,1,2,0:0:0:0:
256,192,122054,1,0,0:0:0:0:
256,192,122161,1,0,0:0:0:0:
256,192,122375,1,0,0:0:0:0:
256,192,122589,1,0,0:0:0:0:
256,192,122804,1,2,0:0:0:0:
256,192,123018,1,0,0:0:0:0:
256,192,123232,1,2,0:0:0:0:
256,192,123339,1,0,0:0:0:0:
256,192,123447,1,2,0:0:0:0:
256,192,123661,1,0,0:0:0:0:
256,192,123768,1,2,0:0:0:0:
256,192,123875,1,0,0:0:0:0:
256,192,124089,1,2,0:0:0:0:
256,192,124197,1,0,0:0:0:0:
256,192,124304,1,0,0:0:0:0:
256,192,124411,1,2,0:0:0:0:
256,192,124518,1,0,0:0:0:0:
256,192,124625,1,0,0:0:0:0:
256,192,124732,1,2,0:0:0:0:
256,192,124839,1,0,0:0:0:0:
256,192,124947,1,2,0:0:0:0:
256,192,125054,1,0,0:0:0:0:
256,192,125161,1,2,0:0:0:0:
256,192,125268,1,2,0:0:0:0:
256,192,125375,1,0,0:0:0:0:
256,192,125482,1,0,0:0:0:0:
256,192,125589,1,0,0:0:0:0:
256,192,125697,1,0,0:0:0:0:
256,192,125804,1,2,0:0:0:0:
256,192,125911,1,0,0:0:0:0:
256,192,126018,1,0,0:0:0:0:
256,192,126125,1,2,0:0:0:0:
256,192,126232,1,0,0:0:0:0:
256,192,126339,1,0,0:0:0:0:
256,192,126447,1,2,0:0:0:0:
256,192,126554,1,0,0:0:0:0:
256,192,126661,1,2,0:0:0:0:
256,192,126768,1,0,0:0:0:0:
256,192,126875,1,0,0:0:0:0:
256,192,126982,1,2,0:0:0:0:
256,192,127089,1,2,0:0:0:0:
256,192,127197,1,2,0:0:0:0:
256,192,127304,1,0,0:0:0:0:
256,192,127411,1,2,0:0:0:0:
256,192,127518,1,0,0:0:0:0:
256,192,127732,1,2,0:0:0:0:
256,192,127839,1,0,0:0:0:0:
256,192,127947,1,0,0:0:0:0:
256,192,128161,1,2,0:0:0:0:
256,192,128375,1,0,0:0:0:0:
256,192,128482,1,0,0:0:0:0:
256,192,128589,1,0,0:0:0:0:
256,192,128697,1,0,0:0:0:0:
256,192,128804,1,2,0:0:0:0:
256,192,128911,1,0,0:0:0:0:
256,192,129018,1,0,0:0:0:0:
256,192,129125,1,0,0:0:0:0:
256,192,129232,1,2,0:0:0:0:
256,192,129447,1,0,0:0:0:0:
256,192,129661,1,2,0:0:0:0:
256,192,129768,1,0,0:0:0:0:
256,192,129875,1,0,0:0:0:0:
256,192,130089,1,2,0:0:0:0:
256,192,130197,1,0,0:0:0:0:
256,192,130304,1,0,0:0:0:0:
256,192,130411,1,0,0:0:0:0:
256,192,130518,1,2,0:0:0:0:
256,192,130625,1,2,0:0:0:0:
256,192,130732,1,0,0:0:0:0:
256,192,130839,1,2,0:0:0:0:
256,192,130947,1,0,0:0:0:0:
256,192,131375,1,0,0:0:0:0:
256,192,131804,1,0,0:0:0:0:
256,192,132232,1,0,0:0:0:0:
256,192,132661,1,2,0:0:0:0:
256,192,132875,1,2,0:0:0:0:
256,192,132982,1,0,0:0:0:0:
256,192,133089,1,0,0:0:0:0:
256,192,133304,1,2,0:0:0:0:
256,192,133411,1,0,0:0:0:0:
256,192,133518,1,0,0:0:0:0:
256,192,133625,1,2,0:0:0:0:
256,192,133839,1,2,0:0:0:0:
256,192,133947,1,0,0:0:0:0:
256,192,134161,1,2,0:0:0:0:
256,192,134375,1,4,0:0:0:0:
256,192,134589,1,2,0:0:0:0:
256,192,134697,1,2,0:0:0:0:
256,192,134804,1,0,0:0:0:0:
256,192,135018,1,2,0:0:0:0:
256,192,135232,1,0,0:0:0:0:
256,192,135447,1,0,0:0:0:0:
256,192,135518,1,0,0:0:0:0:
256,192,135589,1,0,0:0:0:0:
256,192,135661,1,2,0:0:0:0:
256,192,135875,1,0,0:0:0:0:
256,192,136089,1,2,0:0:0:0:
256,192,136304,1,0,0:0:0:0:
256,192,136411,1,0,0:0:0:0:
256,192,136518,1,2,0:0:0:0:
256,192,136732,1,0,0:0:0:0:
256,192,136947,1,2,0:0:0:0:
256,192,137054,1,2,0:0:0:0:
256,192,137268,1,0,0:0:0:0:
256,192,137375,1,2,0:0:0:0:
256,192,137589,1,2,0:0:0:0:
256,192,137661,1,2,0:0:0:0:
256,192,137732,1,2,0:0:0:0:
256,192,137804,1,0,0:0:0:0:
256,192,138018,1,2,0:0:0:0:
256,192,138125,1,2,0:0:0:0:
256,192,138232,1,0,0:0:0:0:
256,192,138447,1,2,0:0:0:0:
256,192,138661,1,0,0:0:0:0:
256,192,138875,1,0,0:0:0:0:
256,192,138982,1,0,0:0:0:0:
256,192,139089,1,2,0:0:0:0:
256,192,139304,1,0,0:0:0:0:
256,192,139518,1,2,0:0:0:0:
256,192,139732,1,0,0:0:0:0:
256,192,139839,1,0,0:0:0:0:
256,192,139947,1,2,0:0:0:0:
256,192,140054,1,0,0:0:0:0:
256,192,140161,1,0,0:0:0:0:
256,192,140375,1,2,0:0:0:0:
256,192,140589,1,0,0:0:0:0:
256,192,140804,1,2,0:0:0:0:
256,192,140911,1,0,0:0:0:0:
256,192,141018,1,2,0:0:0:0:
256,192,141089,1,2,0:0:0:0:
256,192,141161,1,2,0:0:0:0:
256,192,141232,1,0,0:0:0:0:
256,192,141447,1,0,0:0:0:0:
256,192,141554,1,0,0:0:0:0:
256,192,141661,1,2,0:0:0:0:
256,192,141875,1,0,0:0:0:0:
256,192,142089,1,2,0:0:0:0:
256,192,142304,1,2,0:0:0:0:
256,192,142411,1,0,0:0:0:0:
256,192,142518,1,2,0:0:0:0:
256,192,142625,1,0,0:0:0:0:
256,192,142839,1,0,0:0:0:0:
256,192,142947,1,2,0:0:0:0:
256,192,143161,1,0,0:0:0:0:
256,192,143375,1,2,0:0:0:0:
256,192,143482,1,2,0:0:0:0:
256,192,143589,1,0,0:0:0:0:
256,192,143697,1,0,0:0:0:0:
256,192,143804,1,2,0:0:0:0:
256,192,144018,1,0,0:0:0:0:
256,192,144232,1,0,0:0:0:0:
256,192,144447,1,2,0:0:0:0:
256,192,144661,1,0,0:0:0:0:
256,192,144768,1,0,0:0:0:0:
256,192,144982,1,0,0:0:0:0:
256,192,145089,1,2,0:0:0:0:
256,192,145304,1,2,0:0:0:0:
256,192,145518,1,0,0:0:0:0:
256,192,145625,1,0,0:0:0:0:
256,192,145839,1,0,0:0:0:0:
256,192,145947,1,2,0:0:0:0:
256,192,146161,1,2,0:0:0:0:
256,192,146375,1,2,0:0:0:0:
256,192,146429,1,2,0:0:0:0:
256,192,146589,1,2,0:0:0:0:
256,192,146643,1,0,0:0:0:0:
256,192,146804,1,0,0:0:0:0:
256,192,146857,1,0,0:0:0:0:
256,192,147018,1,2,0:0:0:0:
256,192,147072,1,2,0:0:0:0:
256,192,147232,1,0,0:0:0:0:
256,192,147286,1,2,0:0:0:0:
256,192,147447,1,0,0:0:0:0:
256,192,147500,1,2,0:0:0:0:
256,192,147661,1,2,0:0:0:0:
256,192,147714,1,2,0:0:0:0:
256,192,147875,1,0,0:0:0:0:
256,192,147929,1,0,0:0:0:0:
256,192,148089,1,2,0:0:0:0:
256,192,148197,1,2,0:0:0:0:
256,192,148411,1,0,0:0:0:0:
256,192,148518,1,2,0:0:0:0:
256,192,148732,1,0,0:0:0:0:
256,192,148947,1,2,0:0:0:0:
256,192,149054,1,2,0:0:0:0:
256,192,149268,1,0,0:0:0:0:
256,192,149375,1,2,0:0:0:0:
256,192,149589,1,0,0:0:0:0:
256,192,149804,1,2,0:0:0:0:
256,192,149911,1,2,0:0:0:0:
256,192,150125,1,0,0:0:0:0:
256,192,150232,1,2,0:0:0:0:
256,192,150447,1,0,0:0:0:0:
256,192,150661,1,0,0:0:0:0:
256,192,150768,1,0,0:0:0:0:
256,192,150982,1,0,0:0:0:0:
256,192,151089,1,2,0:0:0:0:
256,192,151304,1,2,0:0:0:0:
256,192,151518,1,2,0:0:0:0:
256,192,151625,1,2,0:0:0:0:
256,192,151839,1,2,0:0:0:0:
256,192,151947,1,0,0:0:0:0:
256,192,152161,1,0,0:0:0:0:
256,192,152375,1,2,0:0:0:0:
256,192,152482,1,2,0:0:0:0:
256,192,152697,1,2,0:0:0:0:
256,192,152804,1,0,0:0:0:0:
256,192,153018,1,0,0:0:0:0:
256,192,153232,1,2,0:0:0:0:
256,192,153339,1,2,0:0:0:0:
256,192,153554,1,2,0:0:0:0:
256,192,153661,1,0,0:0:0:0:
256,192,153875,1,0,0:0:0:0:
256,192,154089,1,2,0:0:0:0:
256,192,154197,1,0,0:0:0:0:
256,192,154411,1,0,0:0:0:0:
256,192,154518,1,2,0:0:0:0:
256,192,154732,1,2,0:0:0:0:
256,192,154947,1,2,0:0:0:0:
256,192,155054,1,2,0:0:0:0:
256,192,155161,1,0,0:0:0:0:
256,192,155268,1,2,0:0:0:0:
256,192,155482,1,0,0:0:0:0:
256,192,155589,1,2,0:0:0:0:
256,192,155804,1,2,0:0:0:0:
256,192,155911,1,2,0:0:0:0:
256,192,156018,1,0,0:0:0:0:
256,192,156125,1,2,0:0:0:0:
256,192,156339,1,0,0:0:0:0:
256,192,156447,1,2,0:0:0:0:
256,192,156661,1,2,0:0:0:0:
256,192,156768,1,2,0:0:0:0:
256,192,156875,1,0,0:0:0:0:
256,192,156982,1,2,0:0:0:0:
256,192,157197,1,0,0:0:0:0:
256,192,157304,1,2,0:0:0:0:
256,192,157518,1,0,0:0:0:0:
256,192,157625,1,0,0:0:0:0:
256,192,157732,1,2,0:0:0:0:
256,192,157839,1,0,0:0:0:0:
256,192,158054,1,2,0:0:0:0:
256,192,158161,1,2,0:0:0:0:
256,192,158375,1,2,0:0:0:0:
256,192,158482,1,0,0:0:0:0:
256,192,158589,1,0,0:0:0:0:
256,192,158697,1,0,0:0:0:0:
256,192,158911,1,2,0:0:0:0:
256,192,159018,1,0,0:0:0:0:
256,192,159232,1,2,0:0:0:0:
256,192,159339,1,0,0:0:0:0:
256,192,159447,1,0,0:0:0:0:
256,192,159554,1,0,0:0:0:0:
256,192,159768,1,2,0:0:0:0:
256,192,159875,1,0,0:0:0:0:
256,192,160089,1,2,0:0:0:0:
256,192,160197,1,0,0:0:0:0:
256,192,160304,1,0,0:0:0:0:
256,192,160411,1,0,0:0:0:0:
256,192,160625,1,2,0:0:0:0:
256,192,160732,1,0,0:0:0:0:
256,192,160947,1,0,0:0:0:0:
256,192,161054,1,0,0:0:0:0:
256,192,161161,1,0,0:0:0:0:
256,192,161268,1,2,0:0:0:0:
256,192,161482,1,0,0:0:0:0:
256,192,161589,1,2,0:0:0:0:
256,192,161804,1,6,0:0:0:0:
256,192,162018,1,2,0:0:0:0:
256,192,162125,1,2,0:0:0:0:
256,192,162232,1,0,0:0:0:0:
256,192,162339,1,0,0:0:0:0:
256,192,162447,1,2,0:0:0:0:
256,192,162554,1,2,0:0:0:0:
256,192,162661,1,0,0:0:0:0:
256,192,162768,1,0,0:0:0:0:
256,192,162875,1,0,0:0:0:0:
256,192,162982,1,0,0:0:0:0:
256,192,163089,1,2,0:0:0:0:
256,192,163197,1,2,0:0:0:0:
256,192,163304,1,0,0:0:0:0:
256,192,163411,1,0,0:0:0:0:
256,192,163518,1,2,0:0:0:0:
256,192,163625,1,0,0:0:0:0:
256,192,163732,1,0,0:0:0:0:
256,192,163839,1,0,0:0:0:0:
256,192,163947,1,0,0:0:0:0:
256,192,164054,1,0,0:0:0:0:
256,192,164161,1,0,0:0:0:0:
256,192,164268,1,0,0:0:0:0:
256,192,164375,1,0,0:0:0:0:
256,192,164482,1,0,0:0:0:0:
256,192,164589,1,0,0:0:0:0:
256,192,164697,1,0,0:0:0:0:
256,192,164804,1,2,0:0:0:0:
256,192,164911,1,0,0:0:0:0:
256,192,165018,1,2,0:0:0:0:
256,192,165125,1,2,0:0:0:0:
256,192,165232,1,2,0:0:0:0:
256,192,165339,1,2,0:0:0:0:
256,192,165447,1,0,0:0:0:0:
256,192,165554,1,0,0:0:0:0:
256,192,165661,1,0,0:0:0:0:
256,192,165768,1,0,0:0:0:0:
256,192,165875,1,2,0:0:0:0:
256,192,165982,1,2,0:0:0:0:
256,192,166089,1,0,0:0:0:0:
256,192,166197,1,0,0:0:0:0:
256,192,166304,1,0,0:0:0:0:
256,192,166411,1,0,0:0:0:0:
256,192,166518,1,2,0:0:0:0:
256,192,166625,1,2,0:0:0:0:
256,192,166732,1,0,0:0:0:0:
256,192,166839,1,0,0:0:0:0:
256,192,166947,1,2,0:0:0:0:
256,192,167054,1,0,0:0:0:0:
256,192,167161,1,0,0:0:0:0:
256,192,167268,1,0,0:0:0:0:
256,192,167375,1,2,0:0:0:0:
256,192,167482,1,0,0:0:0:0:
256,192,167589,1,0,0:0:0:0:
256,192,167697,1,0,0:0:0:0:
256,192,167804,1,2,0:0:0:0:
256,192,167911,1,0,0:0:0:0:
256,192,168018,1,0,0:0:0:0:
256,192,168125,1,0,0:0:0:0:
256,192,168232,1,2,0:0:0:0:
256,192,168339,1,0,0:0:0:0:
256,192,168447,1,2,0:0:0:0:
256,192,168518,1,2,0:0:0:0:
256,192,168589,1,2,0:0:0:0:
256,192,168661,1,2,0:0:0:0:
256,192,168875,1,2,0:0:0:0:
256,192,169089,1,2,0:0:0:0:
256,192,169304,1,2,0:0:0:0:
256,192,169518,1,2,0:0:0:0:
256,192,169732,1,2,0:0:0:0:
256,192,169947,1,2,0:0:0:0:
256,192,170161,1,2,0:0:0:0:
256,192,170375,1,2,0:0:0:0:
256,192,170589,1,2,0:0:0:0:
256,192,170804,1,2,0:0:0:0:
256,192,171018,1,2,0:0:0:0:
256,192,171232,1,2,0:0:0:0:
256,192,171447,1,2,0:0:0:0:
256,192,171661,1,2,0:0:0:0:
256,192,171875,1,2,0:0:0:0:
256,192,172089,1,0,0:0:0:0:
256,192,172161,1,0,0:0:0:0:
256,192,172232,1,0,0:0:0:0:
256,192,172304,1,2,0:0:0:0:
256,192,172411,1,2,0:0:0:0:
256,192,172518,1,2,0:0:0:0:
256,192,172625,1,2,0:0:0:0:
256,192,172732,1,0,0:0:0:0:
256,192,172804,1,0,0:0:0:0:
256,192,172875,1,0,0:0:0:0:
256,192,172947,1,2,0:0:0:0:
256,192,173054,1,2,0:0:0:0:
256,192,173161,1,2,0:0:0:0:
256,192,173268,1,2,0:0:0:0:
256,192,173375,1,0,0:0:0:0:
256,192,173447,1,0,0:0:0:0:
256,192,173518,1,0,0:0:0:0:
256,192,173589,1,2,0:0:0:0:
256,192,173697,1,2,0:0:0:0:
256,192,173804,1,0,0:0:0:0:
256,192,173911,1,0,0:0:0:0:
256,192,174018,1,2,0:0:0:0:
256,192,174125,1,2,0:0:0:0:
256,192,174232,12,2,174447,0:0:0:0:
256,192,174661,5,2,0:0:0:0:
256,192,174804,1,2,0:0:0:0:
256,192,174947,1,2,0:0:0:0:
256,192,175089,1,0,0:0:0:0:
256,192,175197,1,2,0:0:0:0:
256,192,175304,1,2,0:0:0:0:
256,192,175411,1,2,0:0:0:0:
256,192,175518,1,4,0:0:0:0:
256,192,175732,2,0,L|64:192,6,160
256,192,176589,1,2,0:0:0:0:
256,192,176697,1,2,0:0:0:0:
256,192,176804,1,0,0:0:0:0:
256,192,177018,1,0,0:0:0:0:
256,192,177232,1,2,0:0:0:0:
256,192,177304,1,0,0:0:0:0:
256,192,177375,1,0,0:0:0:0:
256,192,177447,1,0,0:0:0:0:
256,192,177554,1,0,0:0:0:0:
256,192,177661,1,2,0:0:0:0:
256,192,177732,1,0,0:0:0:0:
256,192,177804,1,0,0:0:0:0:
256,192,177875,1,0,0:0:0:0:
256,192,177982,1,0,0:0:0:0:
256,192,178089,1,2,0:0:0:0:
256,192,178197,1,0,0:0:0:0:
256,192,178304,1,0,0:0:0:0:
256,192,178411,1,2,0:0:0:0:
256,192,178518,1,0,0:0:0:0:
256,192,178589,1,0,0:0:0:0:
256,192,178661,1,0,0:0:0:0:
256,192,178732,1,2,0:0:0:0:
256,192,178839,1,2,0:0:0:0:
256,192,178947,1,6,0:0:0:0:
256,192,179161,2,0,L|96:192,6,160
256,192,180018,1,2,0:0:0:0:
256,192,180054,1,2,0:0:0:0:
256,192,180232,1,2,0:0:0:0:
256,192,180268,1,2,0:0:0:0:
256,192,180447,1,2,0:0:0:0:
256,192,180482,1,2,0:0:0:0:
256,192,180661,1,0,0:0:0:0:
256,192,180875,1,0,0:0:0:0:
256,192,181089,1,2,0:0:0:0:
256,192,181304,1,0,0:0:0:0:
256,192,181518,1,2,0:0:0:0:
256,192,181589,1,2,0:0:0:0:
256,192,181661,1,2,0:0:0:0:
256,192,181732,1,0,0:0:0:0:
256,192,181839,1,0,0:0:0:0:
256,192,181947,1,2,0:0:0:0:
256,192,182018,1,2,0:0:0:0:
256,192,182089,1,2,0:0:0:0:
256,192,182161,1,0,0:0:0:0:
256,192,182268,1,0,0:0:0:0:
256,192,182375,1,2,0:0:0:0:
256,192,182482,1,0,0:0:0:0:
256,192,182589,1,0,0:0:0:0:
256,192,182697,1,0,0:0:0:0:
256,192,182804,1,2,0:0:0:0:
256,192,182911,1,2,0:0:0:0:
256,192,183018,1,0,0:0:0:0:
256,192,183089,1,0,0:0:0:0:
256,192,183161,1,0,0:0:0:0:
256,192,183232,1,2,0:0:0:0:
256,192,183447,1,2,0:0:0:0:
256,192,183554,1,2,0:0:0:0:
256,192,183661,1,2,0:0:0:0:
256,192,183732,1,2,0:0:0:0:
256,192,183804,1,2,0:0:0:0:
256,192,183875,1,2,0:0:0:0:
256,192,183947,1,0,0:0:0:0:
256,192,184018,1,0,0:0:0:0:
256,192,184089,1,2,0:0:0:0:
256,192,184518,1,0,0:0:0:0:
256,192,184947,1,2,0:0:0:0:
256,192,185375,1,2,0:0:0:0:
256,192,185482,1,0,0:0:0:0:
256,192,185589,1,0,0:0:0:0:
256,192,185697,1,2,0:0:0:0:
256,192,185804,1,0,0:0:0:0:
256,192,186447,1,2,0:0:0:0:
256,192,186661,1,0,0:0:0:0:
256,192,187304,1,2,0:0:0:0:
256,192,187518,1,0,0:0:0:0:
256,192,187625,1,2,0:0:0:0:
256,192,187839,1,0,0:0:0:0:
256,192,187947,1,2,0:0:0:0:
256,192,188161,1,0,0:0:0:0:
256,192,188375,1,2,0:0:0:0:
256,192,188482,1,2,0:0:0:0:
256,192,188589,1,2,0:0:0:0:
256,192,188697,1,2,0:0:0:0:
256,192,188804,1,0,0:0:0:0:
256,192,188911,1,0,0:0:0:0:
256,192,189018,1,0,0:0:0:0:
256,192,189125,1,0,0:0:0:0:
256,192,189232,1,4,0:0:0:0:
256,192,189447,2,0,L|96:192,6,160
256,192,190304,1,2,0:0:0:0:
256,192,190411,1,2,0:0:0:0:
256,192,190518,1,0,0:0:0:0:
256,192,190732,1,0,0:0:0:0:
256,192,190946,1,2,0:0:0:0:
256,192,191018,1,0,0:0:0:0:
256,192,191089,1,0,0:0:0:0:
256,192,191161,1,0,0:0:0:0:
256,192,191268,1,0,0:0:0:0:
256,192,191375,1,2,0:0:0:0:
256,192,191447,1,0,0:0:0:0:
256,192,191518,1,0,0:0:0:0:
256,192,191589,1,0,0:0:0:0:
256,192,191697,1,0,0:0:0:0:
256,192,191803,1,2,0:0:0:0:
256,192,191911,1,0,0:0:0:0:
256,192,192018,1,0,0:0:0:0:
256,192,192125,1,2,0:0:0:0:
256,192,192232,1,0,0:0:0:0:
256,192,192304,1,0,0:0:0:0:
256,192,192375,1,0,0:0:0:0:
256,192,192447,1,2,0:0:0:0:
256,192,192553,1,2,0:0:0:0:
256,192,192661,1,6,0:0:0:0:
256,192,192875,2,0,L|96:192,2,160
256,192,193304,1,2,0:0:0:0:
256,192,193518,1,0,0:0:0:0:
256,192,194161,1,2,0:0:0:0:
256,192,194375,1,2,0:0:0:0:
256,192,194589,1,0,0:0:0:0:
256,192,194804,1,0,0:0:0:0:
256,192,195018,1,0,0:0:0:0:
256,192,195232,1,2,0:0:0:0:
256,192,195304,1,2,0:0:0:0:
256,192,195375,1,2,0:0:0:0:
256,192,195447,1,0,0:0:0:0:
256,192,195554,1,0,0:0:0:0:
256,192,195661,1,2,0:0:0:0:
256,192,195732,1,2,0:0:0:0:
256,192,195804,1,2,0:0:0:0:
256,192,195875,1,0,0:0:0:0:
256,192,195982,1,0,0:0:0:0:
256,192,196089,1,2,0:0:0:0:
256,192,196197,1,0,0:0:0:0:
256,192,196304,1,2,0:0:0:0:
256,192,196411,1,0,0:0:0:0:
256,192,196518,1,2,0:0:0:0:
256,192,196625,1,2,0:0:0:0:
256,192,196732,1,0,0:0:0:0:
256,192,196804,1,0,0:0:0:0:
256,192,196875,1,0,0:0:0:0:
256,192,196947,1,2,0:0:0:0:
256,192,197161,1,2,0:0:0:0:
256,192,197268,1,2,0:0:0:0:
256,192,197375,1,2,0:0:0:0:
256,192,197447,1,0,0:0:0:0:
256,192,197518,1,0,0:0:0:0:
256,192,197589,1,2,0:0:0:0:
256,192,197661,1,0,0:0:0:0:
256,192,197732,1,0,0:0:0:0:
256,192,197804,1,2,0:0:0:0:
256,192,198232,1,0,0:0:0:0:
256,192,198661,1,2,0:0:0:0:
256,192,199089,1,2,0:0:0:0:
256,192,199197,1,2,0:0:0:0:
256,192,199304,1,2,0:0:0:0:
256,192,199411,1,2,0:0:0:0:
256,192,199518,1,0,0:0:0:0:
256,192,199625,1,0,0:0:0:0:
256,192,199839,1,0,0:0:0:0:
256,192,199947,1,2,0:0:0:0:
256,192,200161,1,2,0:0:0:0:
256,192,200375,1,0,0:0:0:0:
256,192,200482,1,2,0:0:0:0:
256,192,200697,1,0,0:0:0:0:
256,192,200804,1,2,0:0:0:0:
256,192,201018,1,2,0:0:0:0:
256,192,201232,1,0,0:0:0:0:
256,192,201268,1,0,0:0:0:0:
256,192,201554,1,0,0:0:0:0:
256,192,201589,1,2,0:0:0:0:
256,192,201875,1,0,0:0:0:0:
256,192,201911,1,0,0:0:0:0:
256,192,202089,1,2,0:0:0:0:
256,192,202197,1,2,0:0:0:0:
256,192,202304,1,0,0:0:0:0:
256,192,202411,1,0,0:0:0:0:
256,192,202518,1,2,0:0:0:0:
256,192,202625,1,0,0:0:0:0:
256,192,202732,1,0,0:0:0:0:
256,192,202839,1,0,0:0:0:0:
256,192,202947,1,0,0:0:0:0:
256,192,205089,1,2,0:0:0:0:
256,192,205518,1,2,0:0:0:0:
256,192,205947,1,0,0:0:0:0:
256,192,206375,1,2,0:0:0:0:
256,192,208518,1,2,0:0:0:0:
256,192,208947,1,0,0:0:0:0:
256,192,209375,1,2,0:0:0:0:
256,192,209804,1,0,0:0:0:0:
256,192,211089,1,2,0:0:0:0:
256,192,211518,1,2,0:0:0:0:
256,192,212804,1,2,0:0:0:0:
256,192,213232,1,0,0:0:0:0:
256,192,214089,1,0,0:0:0:0:
256,192,214947,1,2,0:0:0:0:
256,192,215804,1,0,0:0:0:0:
256,192,216661,1,2,0:0:0:0:
256,192,216768,1,2,0:0:0:0:
256,192,216982,1,0,0:0:0:0:
256,192,217089,1,2,0:0:0:0:
256,192,217304,1,0,0:0:0:0:
256,192,217518,1,0,0:0:0:0:
256,192,217625,1,2,0:0:0:0:
256,192,217839,1,0,0:0:0:0:
256,192,217947,1,2,0:0:0:0:
256,192,218161,1,0,0:0:0:0:
256,192,218375,1,2,0:0:0:0:
256,192,218482,1,0,0:0:0:0:
256,192,218589,1,0,0:0:0:0:
256,192,218697,1,2,0:0:0:0:
256,192,218804,1,0,0:0:0:0:
256,192,218911,1,0,0:0:0:0:
256,192,219018,1,2,0:0:0:0:
256,192,219125,1,0,0:0:0:0:
256,192,219232,1,2,0:0:0:0:
256,192,219339,1,2,0:0:0:0:
256,192,219447,1,2,0:0:0:0:
256,192,219554,1,2,0:0:0:0:
256,192,219661,1,0,0:0:0:0:
256,192,219768,1,0,0:0:0:0:
256,192,219875,1,2,0:0:0:0:
256,192,219982,1,2,0:0:0:0:
256,192,220089,1,0,0:0:0:0:
256,192,220197,1,2,0:0:0:0:
256,192,220411,1,0,0:0:0:0:
256,192,220518,1,2,0:0:0:0:
256,192,220732,1,0,0:0:0:0:
256,192,220839,1,2,0:0:0:0:
256,192,220947,1,0,0:0:0:0:
256,192,221054,1,0,0:0:0:0:
256,192,221268,1,0,0:0:0:0:
256,192,221375,1,0,0:0:0:0:
256,192,221589,1,2,0:0:0:0:
256,192,221804,1,2,0:0:0:0:
256,192,221911,1,2,0:0:0:0:
256,192,222018,1,2,0:0:0:0:
256,192,222125,1,0,0:0:0:0:
256,192,222232,1,0,0:0:0:0:
256,192,222339,1,0,0:0:0:0:
256,192,222447,1,2,0:0:0:0:
256,192,222554,1,2,0:0:0:0:
256,192,222661,1,0,0:0:0:0:
256,192,222768,1,0,0:0:0:0:
256,192,222875,1,0,0:0:0:0:
256,192,222982,1,0,0:0:0:0:
256,192,223089,1,2,0:0:0:0:
256,192,223197,1,2,0:0:0:0:
256,192,223304,1,2,0:0:0:0:
256,192,223411,1,2,0:0:0:0:
256,192,223518,1,2,0:0:0:0:
256,192,223625,1,2,0:0:0:0:
256,192,223839,1,0,0:0:0:0:
256,192,223947,1,0,0:0:0:0:
256,192,224161,1,0,0:0:0:0:
256,192,224375,1,2,0:0:0:0:
256,192,224482,1,0,0:0:0:0:
256,192,224697,1,0,0:0:0:0:
256,192,224804,1,0,0:0:0:0:
256,192,225018,1,2,0:0:0:0:
256,192,225232,1,0,0:0:0:0:
256,192,225339,1,0,0:0:0:0:
256,192,225554,1,2,0:0:0:0:
256,192,225661,1,0,0:0:0:0:
256,192,225875,1,2,0:0:0:0:
256,192,226089,1,0,0:0:0:0:
256,192,226304,1,0,0:0:0:0:
256,192,226518,1,2,0:0:0:0:
256,192,226732,1,0,0:0:0:0:
256,192,226947,1,2,0:0:0:0:
256,192,227054,1,2,0:0:0:0:
256,192,227161,1,0,0:0:0:0:
256,192,227268,1,0,0:0:0:0:
256,192,227375,1,0,0:0:0:0:
256,192,227482,1,0,0:0:0:0:
256,192,227589,1,2,0:0:0:0:
256,192,227697,1,2,0:0:0:0:
256,192,227804,1,0,0:0:0:0:
256,192,227911,1,0,0:0:0:0:
256,192,228018,1,0,0:0:0:0:
256,192,228125,1,0,0:0:0:0:
256,192,228232,1,2,0:0:0:0:
256,192,228339,1,2,0:0:0:0:
256,192,228447,1,0,0:0:0:0:
256,192,228554,1,0,0:0:0:0:
256,192,228661,1,0,0:0:0:0:
256,192,228768,1,0,0:0:0:0:
256,192,228875,1,0,0:0:0:0:
256,192,228982,1,0,0:0:0:0:
256,192,229089,1,2,0:0:0:0:
256,192,229197,1,2,0:0:0:0:
256,192,229304,1,0,0:0:0:0:
256,192,229411,1,0,0:0:0:0:
256,192,229518,1,2,0:0:0:0:
256,192,229625,1,2,0:0:0:0:
256,192,229732,1,0,0:0:0:0:
256,192,229839,1,0,0:0:0:0:
256,192,229947,1,2,0:0:0:0:
256,192,230018,1,2,0:0:0:0:
256,192,230089,1,0,0:0:0:0:
256,192,230161,1,0,0:0:0:0:
256,192,230232,1,0,0:0:0:0:
256,192,230304,1,0,0:0:0:0:
256,192,230375,1,6,0:0:0:0:
256,192,230589,2,0,L|0:192,6,160
256,192,231447,1,2,0:0:0:0:
256,192,231554,1,2,0:0:0:0:
256,192,231661,1,2,0:0:0:0:
256,192,231875,1,0,0:0:0:0:
256,192,232089,1,2,0:0:0:0:
256,192,232161,1,0,0:0:0:0:
256,192,232232,1,0,0:0:0:0:
256,192,232304,1,0,0:0:0:0:
256,192,232411,1,0,0:0:0:0:
256,192,232518,1,2,0:0:0:0:
256,192,232589,1,0,0:0:0:0:
256,192,232661,1,0,0:0:0:0:
256,192,232732,1,0,0:0:0:0:
256,192,232839,1,0,0:0:0:0:
256,192,232947,1,2,0:0:0:0:
256,192,233018,1,0,0:0:0:0:
256,192,233089,1,0,0:0:0:0:
256,192,233161,1,0,0:0:0:0:
256,192,233268,1,2,0:0:0:0:
256,192,233375,1,0,0:0:0:0:
256,192,233447,1,0,0:0:0:0:
256,192,233518,1,0,0:0:0:0:
256,192,233589,1,2,0:0:0:0:
256,192,233697,1,2,0:0:0:0:
256,192,233804,1,6,0:0:0:0:
256,192,234018,2,0,L|96:192,6,160
256,192,234875,1,2,0:0:0:0:
256,192,234982,1,0,0:0:0:0:
256,192,235089,1,0,0:0:0:0:
256,192,235304,1,0,0:0:0:0:
256,192,235518,1,2,0:0:0:0:
256,192,235732,1,2,0:0:0:0:
256,192,235947,1,0,0:0:0:0:
256,192,236161,1,0,0:0:0:0:
256,192,236375,1,2,0:0:0:0:
256,192,236447,1,2,0:0:0:0:
256,192,236518,1,2,0:0:0:0:
256,192,236589,1,0,0:0:0:0:
256,192,236697,1,0,0:0:0:0:
256,192,236804,1,2,0:0:0:0:
256,192,236875,1,2,0:0:0:0:
256,192,236947,1,2,0:0:0:0:
256,192,237018,1,0,0:0:0:0:
256,192,237125,1,0,0:0:0:0:
256,192,237232,1,2,0:0:0:0:
256,192,237339,1,0,0:0:0:0:
256,192,237447,1,0,0:0:0:0:
256,192,237554,1,0,0:0:0:0:
256,192,237661,1,2,0:0:0:0:
256,192,237768,1,2,0:0:0:0:
256,192,237875,1,0,0:0:0:0:
256,192,237947,1,0,0:0:0:0:
256,192,238018,1,0,0:0:0:0:
256,192,238089,1,2,0:0:0:0:
256,192,238304,1,2,0:0:0:0:
256,192,238411,1,2,0:0:0:0:
256,192,238518,1,2,0:0:0:0:
256,192,238589,1,0,0:0:0:0:
256,192,238661,1,2,0:0:0:0:
256,192,238732,1,2,0:0:0:0:
256,192,238804,1,0,0:0:0:0:
256,192,238875,1,0,0:0:0:0:
256,192,238947,1,2,0:0:0:0:
256,192,239375,1,0,0:0:0:0:
256,192,239804,1,2,0:0:0:0:
256,192,240232,1,0,0:0:0:0:
256,192,240339,1,2,0:0:0:0:
256,192,240447,1,2,0:0:0:0:
256,192,240554,1,0,0:0:0:0:
256,192,240661,1,0,0:0:0:0:
256,192,240768,1,2,0:0:0:0:
256,192,240982,1,0,0:0:0:0:
256,192,241089,1,2,0:0:0:0:
256,192,241304,1,2,0:0:0:0:
256,192,241518,1,0,0:0:0:0:
256,192,241625,1,2,0:0:0:0:
256,192,241732,1,2,0:0:0:0:
256,192,241839,1,2,0:0:0:0:
256,192,242054,1,0,0:0:0:0:
256,192,242161,1,2,0:0:0:0:
256,192,242375,1,2,0:0:0:0:
256,192,242697,1,2,0:0:0:0:
256,192,243018,1,0,0:0:0:0:
256,192,243232,1,2,0:0:0:0:
256,192,243339,1,2,0:0:0:0:
256,192,243447,1,2,0:0:0:0:
256,192,243554,1,2,0:0:0:0:
256,192,243661,1,0,0:0:0:0:
256,192,243768,1,0,0:0:0:0:
256,192,243875,1,0,0:0:0:0:
256,192,243982,1,0,0:0:0:0:
256,192,244089,1,6,0:0:0:0:
256,192,244304,2,0,L|64:192,6,160
256,192,245161,1,2,0:0:0:0:
256,192,245268,1,2,0:0:0:0:
256,192,245375,1,0,0:0:0:0:
256,192,245482,1,0,0:0:0:0:
256,192,245589,1,2,0:0:0:0:
256,192,245697,1,0,0:0:0:0:
256,192,245804,1,2,0:0:0:0:
256,192,245875,1,2,0:0:0:0:
256,192,245947,1,2,0:0:0:0:
256,192,246018,1,0,0:0:0:0:
256,192,246125,1,0,0:0:0:0:
256,192,246232,1,2,0:0:0:0:
256,192,246304,1,2,0:0:0:0:
256,192,246375,1,2,0:0:0:0:
256,192,246447,1,0,0:0:0:0:
256,192,246554,1,0,0:0:0:0:
256,192,246661,1,2,0:0:0:0:
256,192,246732,1,2,0:0:0:0:
256,192,246804,1,2,0:0:0:0:
256,192,246875,1,0,0:0:0:0:
256,192,246982,1,2,0:0:0:0:
256,192,247089,1,0,0:0:0:0:
256,192,247161,1,0,0:0:0:0:
256,192,247232,1,0,0:0:0:0:
256,192,247304,1,0,0:0:0:0:
256,192,247375,1,2,0:0:0:0:
256,192,247447,1,2,0:0:0:0:
256,192,247518,1,0,0:0:0:0:
256,192,247732,2,0,L|64:192,2,160
256,192,248161,1,2,0:0:0:0:
256,192,248375,1,0,0:0:0:0:
256,192,248589,1,2,0:0:0:0:
256,192,248697,1,2,0:0:0:0:
256,192,248804,1,2,0:0:0:0:
256,192,248875,1,2,0:0:0:0:
256,192,248947,1,2,0:0:0:0:
256,192,249018,1,2,0:0:0:0:
256,192,249125,1,2,0:0:0:0:
256,192,249232,1,0,0:0:0:0:
256,192,249447,1,2,0:0:0:0:
256,192,249554,1,2,0:0:0:0:
256,192,249661,1,0,0:0:0:0:
256,192,249768,1,0,0:0:0:0:
256,192,249875,1,2,0:0:0:0:
256,192,250089,1,0,0:0:0:0:
256,192,250161,1,0,0:0:0:0:
256,192,250232,1,0,0:0:0:0:
256,192,250304,1,0,0:0:0:0:
256,192,250411,1,2,0:0:0:0:
256,192,250518,1,0,0:0:0:0:
256,192,250589,1,0,0:0:0:0:
256,192,250661,1,0,0:0:0:0:
256,192,250732,1,0,0:0:0:0:
256,192,250839,1,2,0:0:0:0:
256,192,250947,1,0,0:0:0:0:
256,192,251054,1,0,0:0:0:0:
256,192,251161,1,2,0:0:0:0:
256,192,251268,1,0,0:0:0:0:
256,192,251375,1,2,0:0:0:0:
256,192,251482,1,2,0:0:0:0:
256,192,251589,1,0,0:0:0:0:
256,192,251661,1,0,0:0:0:0:
256,192,251732,1,0,0:0:0:0:
256,192,251804,1,2,0:0:0:0:
256,192,252018,1,0,0:0:0:0:
256,192,252125,1,0,0:0:0:0:
256,192,252232,1,2,0:0:0:0:
256,192,252304,1,2,0:0:0:0:
256,192,252375,1,2,0:0:0:0:
256,192,252447,1,0,0:0:0:0:
256,192,252518,1,0,0:0:0:0:
256,192,252589,1,0,0:0:0:0:
256,192,252661,1,2,0:0:0:0:
256,192,253089,1,0,0:0:0:0:
256,192,253518,1,2,0:0:0:0:
256,192,253947,1,2,0:0:0:0:
256,192,254054,1,0,0:0:0:0:
256,192,254161,1,2,0:0:0:0:
256,192,254268,1,2,0:0:0:0:
256,192,254375,1,0,0:0:0:0:
256,192,254482,1,0,0:0:0:0:
256,192,254697,1,0,0:0:0:0:
256,192,254804,1,2,0:0:0:0:
256,192,255018,1,0,0:0:0:0:
256,192,255232,1,0,0:0:0:0:
256,192,255339,1,0,0:0:0:0:
256,192,255554,1,2,0:0:0:0:
256,192,255661,1,2,0:0:0:0:
256,192,255768,1,0,0:0:0:0:
256,192,255875,1,2,0:0:0:0:
256,192,256089,1,2,0:0:0:0:
256,192,256197,1,2,0:0:0:0:
256,192,256411,1,0,0:0:0:0:
256,192,256518,1,2,0:0:0:0:
256,192,256732,1,0,0:0:0:0:
256,192,256947,1,2,0:0:0:0:
256,192,257054,1,0,0:0:0:0:
256,192,257161,1,0,0:0:0:0:
256,192,257268,1,0,0:0:0:0:
256,192,257375,1,2,0:0:0:0:
256,192,257447,1,2,0:0:0:0:
256,192,257518,1,0,0:0:0:0:
256,192,257589,1,0,0:0:0:0:
256,192,257661,1,2,0:0:0:0:
256,192,257732,1,2,0:0:0:0:
256,192,257804,1,0,0:0:0:0:
256,192,258661,1,0,0:0:0:0:
256,192,259518,1,2,0:0:0:0:
256,192,259947,1,2,0:0:0:0:
256,192,260375,1,0,0:0:0:0:
256,192,260589,1,0,0:0:0:0:
256,192,260804,1,2,0:0:0:0:
256,192,261018,1,0,0:0:0:0:
256,192,261232,1,0,0:0:0:0:
256,192,263375,1,2,0:0:0:0:
256,192,263804,1,0,0:0:0:0:
256,192,264232,1,0,0:0:0:0:
256,192,264661,1,0,0:0:0:0:
256,192,264804,1,0,0:0:0:0:
256,192,264875,1,2,0:0:0:0:
256,192,264947,1,2,0:0:0:0:
