osu file format v14

[General]
AudioFilename: audio.mp3
AudioLeadIn: 0
PreviewTime: -1
Countdown: 1
SampleSet: None
StackLeniency: 0.7
Mode: 0
LetterboxInBreaks: 0
WidescreenStoryboard: 0

[Editor]
DistanceSpacing: 2
BeatDivisor: 4
GridSize: 32
TimelineZoom: 1

[Metadata]
Title:Shatter Me (Speed Up Ver.)
TitleUnicode:Shatter Me (Speed Up Ver.)
Artist:Lindsey Stirling
ArtistUnicode:Lindsey Stirling
Creator:DominicsHase
Version:HAHAHAHA
Source:
Tags:
BeatmapID:2203496
BeatmapSetID:1054582

[Difficulty]
HPDrainRate:5
CircleSize:4
OverallDifficulty:5
ApproachRate:9.6
SliderMultiplier:2.6
SliderTickRate:1

[Events]
//Background and Video events
0,0,"shatter me.jpg",0,0
//Break Periods
//Storyboard Layer 0 (Background)
//Storyboard Layer 1 (Fail)
//Storyboard Layer 2 (Pass)
//Storyboard Layer 3 (Foreground)
//Storyboard Layer 4 (Overlay)
//Storyboard Sound Samples

[TimingPoints]
45249.4505055304,344.827586206897,4,2,0,100,1,0
67318,-666.666666666658,4,2,0,100,0,0
68611,-100,4,2,0,100,0,0

[HitObjects]
47,81,45249,6,0,P|137:73|215:51,1,130
367,140,45594,2,0,P|288:146|197:138,1,130
25,242,45939,2,0,P|110:248|192:243,1,130
409,287,46283,2,0,P|322:293|230:284,1,130
64,179,46628,6,0,P|105:113|137:44,1,130
147,220,46973,2,0,P|199:153|240:74,1,130
208,288,47318,2,0,P|280:240|343:173,1,130
229,369,47663,2,0,P|323:345|365:297,1,130
352,44,48008,6,0,P|246:47|208:35,1,130
388,94,48352,2,0,P|307:139|215:155,1,130
429,107,48697,2,0,P|396:177|313:254,1,130
487,108,49042,2,0,P|484:222|460:263,1,130
286,51,49387,6,0,L|141:41,1,130
39,32,49732,1,0,0:0:0:0:
286,51,49904,2,0,L|141:41,1,130
39,32,50249,1,0,0:0:0:0:
276,115,50421,2,0,P|372:132|436:127,1,130
433,273,50766,2,0,P|378:223|370:94,1,195
403,44,51111,2,0,P|318:23|205:52,1,195
246,106,51456,2,0,P|254:202|139:303,1,260
69,66,52146,6,0,P|173:58|212:47,1,130
198,263,52490,2,0,P|241:175|251:116,1,130
396,257,52835,2,0,P|370:176|340:123,1,130
473,50,53180,2,0,P|394:28|327:34,1,130
170,90,53525,6,0,P|93:141|7:147,1,130
293,71,53870,2,0,P|369:47|439:43,1,130
158,162,54214,2,0,P|84:197|28:198,1,130
367,92,54559,2,0,P|446:60|506:58,1,130
85,123,54904,5,0,0:0:0:0:
376,139,55077,1,0,0:0:0:0:
151,283,55249,1,0,0:0:0:0:
183,47,55421,1,0,0:0:0:0:
333,240,55594,1,0,0:0:0:0:
62,219,55766,1,0,0:0:0:0:
307,43,55939,1,0,0:0:0:0:
295,356,56111,1,0,0:0:0:0:
106,123,56283,5,0,0:0:0:0:
93,104,56456,1,0,0:0:0:0:
80,83,56628,1,0,0:0:0:0:
71,66,56801,1,0,0:0:0:0:
115,55,56973,1,0,0:0:0:0:
166,56,57146,1,0,0:0:0:0:
218,56,57318,1,0,0:0:0:0:
270,57,57490,1,0,0:0:0:0:
166,331,57663,5,0,0:0:0:0:
124,301,57835,1,0,0:0:0:0:
97,253,58008,1,0,0:0:0:0:
100,196,58180,1,0,0:0:0:0:
126,147,58352,1,0,0:0:0:0:
178,125,58525,1,0,0:0:0:0:
235,117,58697,1,0,0:0:0:0:
293,131,58870,1,0,0:0:0:0:
391,354,59042,5,0,0:0:0:0:
416,299,59214,1,0,0:0:0:0:
423,243,59387,1,0,0:0:0:0:
407,190,59559,1,0,0:0:0:0:
379,142,59732,1,0,0:0:0:0:
351,92,59904,1,0,0:0:0:0:
365,41,60077,1,0,0:0:0:0:
416,22,60249,1,0,0:0:0:0:
290,274,60421,6,0,P|217:304|146:337,1,130
381,259,60766,1,0,0:0:0:0:
236,211,60939,2,0,P|163:241|92:274,1,130
327,196,61284,1,0,0:0:0:0:
213,138,61456,2,0,L|91:182,1,130
335,44,61801,6,0,P|406:71|421:214,1,195
175,118,62146,2,0,L|376:122,1,195
228,303,62490,2,0,L|181:153,1,130
146,42,62835,1,0,0:0:0:0:
390,157,63008,1,0,0:0:0:0:
168,246,63180,6,0,P|82:250|5:242,1,130
325,109,63525,2,0,P|431:96|476:101,1,130
147,296,63870,2,0,P|61:300|-16:292,1,130
335,65,64215,2,0,P|441:52|486:57,1,130
164,313,64559,5,0,0:0:0:0:
119,291,64646,1,0,0:0:0:0:
89,246,64732,1,0,0:0:0:0:
87,193,64818,1,0,0:0:0:0:
123,154,64904,1,0,0:0:0:0:
176,143,64990,1,0,0:0:0:0:
216,182,65077,1,0,0:0:0:0:
219,237,65163,1,0,0:0:0:0:
251,286,65249,1,0,0:0:0:0:
308,289,65335,1,0,0:0:0:0:
349,250,65421,1,0,0:0:0:0:
340,195,65508,1,0,0:0:0:0:
296,162,65594,1,0,0:0:0:0:
296,109,65680,1,0,0:0:0:0:
343,79,65766,1,0,0:0:0:0:
398,78,65852,1,0,0:0:0:0:
450,101,65939,5,0,0:0:0:0:
497,71,66025,1,0,0:0:0:0:
481,17,66111,1,0,0:0:0:0:
424,19,66197,1,0,0:0:0:0:
388,62,66283,1,0,0:0:0:0:
351,110,66370,1,0,0:0:0:0:
312,155,66456,1,0,0:0:0:0:
269,192,66542,1,0,0:0:0:0:
225,228,66628,1,0,0:0:0:0:
173,243,66714,1,0,0:0:0:0:
119,229,66801,1,0,0:0:0:0:
95,178,66887,1,0,0:0:0:0:
106,122,66973,1,0,0:0:0:0:
147,86,67059,1,0,0:0:0:0:
205,88,67146,1,0,0:0:0:0:
241,132,67232,1,0,0:0:0:0:
279,183,67318,2,0,P|312:204|386:228,1,116.999996429443
41,242,68697,6,0,B|116:299|116:299|176:24|471:138,1,520
177,264,69559,6,0,L|105:163,1,65
212,147,69732,2,0,L|151:197,1,65
81,121,69904,2,0,L|131:194,1,65
49,268,70077,2,0,L|111:211,1,65
211,328,70249,2,0,L|215:251,1,65
372,310,70421,2,0,L|336:227,1,65
479,166,70594,2,0,L|408:136,1,65
301,324,70766,2,0,L|283:252,1,65
69,285,70939,2,0,L|121:207,1,65
22,77,71111,2,0,L|110:68,1,65
254,160,71283,2,0,L|171:163,1,65
17,202,71456,2,0,P|134:262|435:64,1,520
61,39,72318,6,0,L|41:102,1,65
103,185,72490,2,0,L|129:111,1,65
230,42,72663,2,0,L|210:111,1,65
257,276,72835,2,0,L|287:199,1,65
405,37,73008,2,0,L|390:107,1,65
423,346,73180,2,0,L|439:268,1,65
284,49,73352,2,0,L|355:42,1,65
510,113,73525,2,0,L|433:100,1,65
168,187,73697,2,0,L|256:162,1,65
493,208,73870,2,0,L|406:171,1,65
106,286,74042,2,0,L|185:258,1,65
445,293,74214,2,0,P|477:204|428:113,1,195
394,87,74559,1,0,0:0:0:0:
353,122,74646,1,0,0:0:0:0:
305,145,74732,1,0,0:0:0:0:
251,149,74818,1,0,0:0:0:0:
201,123,74904,2,0,P|99:113|89:229,1,195
87,237,75249,1,0,0:0:0:0:
129,278,75335,1,0,0:0:0:0:
184,296,75421,1,0,0:0:0:0:
238,285,75508,1,0,0:0:0:0:
285,254,75594,2,0,P|322:175|241:120,1,195
196,145,75939,1,0,0:0:0:0:
141,166,76025,1,0,0:0:0:0:
90,142,76111,1,0,0:0:0:0:
78,87,76197,1,0,0:0:0:0:
115,49,76283,1,0,0:0:0:0:
378,160,76456,1,0,0:0:0:0:
106,254,76628,1,0,0:0:0:0:
264,55,76801,1,0,0:0:0:0:
290,266,76973,6,0,P|222:305|128:316,1,130
362,90,77318,1,0,0:0:0:0:
290,266,77490,2,0,P|222:305|128:316,1,130
362,90,77835,1,0,0:0:0:0:
290,266,78008,2,0,P|222:305|128:316,1,130
427,42,78353,5,0,0:0:0:0:
296,310,78525,1,0,0:0:0:0:
151,50,78697,1,0,0:0:0:0:
481,166,78870,1,0,0:0:0:0:
107,182,79042,1,0,0:0:0:0:
346,42,79214,1,0,0:0:0:0:
321,330,79387,2,0,P|237:329|75:213,1,260
391,63,80594,6,0,L|293:63,1,65
159,69,80766,2,0,L|255:64,1,65
413,158,80939,2,0,L|329:143,1,65
128,173,81111,2,0,L|248:139,1,65
415,257,81283,2,0,L|335:242,1,65
111,294,81456,2,0,L|192:277,1,65
384,121,81628,2,0,L|326:68,1,65
266,302,81801,2,0,L|346:272,1,65
112,228,81973,2,0,L|174:281,1,65
221,60,82146,2,0,L|161:92,1,65
374,250,82318,2,0,L|396:172,1,65
100,253,82490,2,0,B|182:322|182:322|273:23|478:186,1,520
249,36,83352,6,0,L|341:77,1,65
371,212,83525,2,0,L|363:112,1,65
470,24,83697,2,0,L|408:56,1,65
148,97,83870,2,0,L|206:130,1,65
280,313,84042,2,0,L|281:225,1,65
411,74,84214,2,0,L|348:113,1,65
48,152,84387,2,0,L|122:176,1,65
233,361,84559,2,0,L|231:285,1,65
403,146,84732,2,0,L|338:165,1,65
88,167,84904,2,0,L|10:122,1,65
366,108,85077,2,0,L|278:86,1,65
75,50,85249,2,0,P|47:124|157:230,1,195
145,240,85594,1,0,0:0:0:0:
200,260,85680,1,0,0:0:0:0:
256,259,85766,1,0,0:0:0:0:
301,227,85852,1,0,0:0:0:0:
313,172,85939,2,0,P|382:132|443:237,1,195
447,259,86283,1,0,0:0:0:0:
413,306,86370,1,0,0:0:0:0:
358,328,86456,1,0,0:0:0:0:
298,323,86542,1,0,0:0:0:0:
254,285,86628,2,0,P|228:207|244:115,1,130
396,75,86973,1,0,0:0:0:0:
255,282,87146,1,0,0:0:0:0:
396,75,87318,2,0,P|424:160|413:234,1,130
174,119,87663,2,0,P|234:68|289:45,1,130
361,292,88008,6,0,P|288:314|111:266,1,260
235,116,88525,1,0,0:0:0:0:
320,306,88697,1,0,0:0:0:0:
85,176,88870,1,0,0:0:0:0:
369,132,89042,2,0,L|419:259,1,130
119,85,89387,5,0,0:0:0:0:
401,113,89559,1,0,0:0:0:0:
136,329,89732,1,0,0:0:0:0:
251,30,89904,1,0,0:0:0:0:
320,337,90077,1,0,0:0:0:0:
96,120,90249,1,0,0:0:0:0:
363,157,90421,2,0,P|457:148|371:71,1,260
92,49,93525,5,0,0:0:0:0:
176,76,93697,1,0,0:0:0:0:
182,160,93870,1,0,0:0:0:0:
259,211,94042,1,0,0:0:0:0:
328,149,94214,1,0,0:0:0:0:
297,67,94387,1,0,0:0:0:0:
216,56,94559,1,0,0:0:0:0:
155,115,94732,1,0,0:0:0:0:
370,56,94904,5,0,0:0:0:0:
432,120,95077,1,0,0:0:0:0:
449,208,95249,1,0,0:0:0:0:
425,292,95421,1,0,0:0:0:0:
342,330,95594,1,0,0:0:0:0:
254,317,95766,1,0,0:0:0:0:
211,238,95939,1,0,0:0:0:0:
226,150,96111,1,0,0:0:0:0:
317,284,96283,5,0,0:0:0:0:
411,251,96456,1,0,0:0:0:0:
451,167,96628,2,0,P|379:113|363:62,1,130
192,89,96973,2,0,P|167:180|134:211,1,130
263,335,97318,2,0,P|329:286|408:313,1,130
410,70,97663,2,0,P|320:60|280:25,1,130
148,136,98008,2,0,P|173:227|161:271,1,130
335,310,98353,2,0,P|366:234|448:217,1,130
297,38,98697,2,0,P|213:71|161:59,1,130
236,290,99042,6,0,P|316:295|374:304,1,130
172,176,99387,2,0,P|92:183|15:200,1,130
308,103,99732,2,0,P|389:109|453:132,1,130
146,54,100077,2,0,P|66:62|-1:88,1,130
295,209,100421,6,0,P|387:172|421:44,1,195
241,69,100766,2,0,P|199:169|226:258,1,195
417,121,101111,2,0,P|309:41|244:32,1,195
259,298,101456,2,0,P|351:283|401:90,1,260
