osu file format v14

[General]
AudioFilename: Senbonzakura - Lindsey Stirling.mp3
AudioLeadIn: 0
PreviewTime: 69508
Countdown: 0
SampleSet: Soft
StackLeniency: 0.5
Mode: 0
LetterboxInBreaks: 0
WidescreenStoryboard: 0

[Editor]
Bookmarks: 19638,23047,44573,48372,69508,81975,89086,94443,100677,119378,131846,144313,156781,163014,175482,187560
DistanceSpacing: 1.2
BeatDivisor: 8
GridSize: 32
TimelineZoom: 2.3

[Metadata]
Title:Senbonzakura
TitleUnicode:Senbonzakura
Artist:Lindsey Stirling
ArtistUnicode:Lindsey Stirling
Creator:MrSergio
Version:Hard
Source:
Tags:初音ミク AsakuraNe 黒うさP violin 千本桜 reprint Kurousa-P Harbyter vocaloid Miku Hatsune Shatter Me A Thousand Cherry Blossoms
BeatmapID:630747
BeatmapSetID:277421

[Difficulty]
HPDrainRate:4.5
CircleSize:4
OverallDifficulty:6
ApproachRate:7
SliderMultiplier:1.5
SliderTickRate:1

[Events]
//Background and Video events
0,0,"1645085.jpg",0,0
Video,0,"vid.avi"
//Break Periods
2,94643,99777
//Storyboard Layer 0 (Background)
//Storyboard Layer 1 (Fail)
//Storyboard Layer 2 (Pass)
//Storyboard Layer 3 (Foreground)
//Storyboard Sound Samples

[TimingPoints]
937,389.61038961039,4,2,2,50,1,0
44573,-100,4,2,0,60,0,0
44768,-100,4,2,2,60,0,0
57040,-100,4,2,0,75,0,1
57235,-100,4,2,2,75,0,1
69118,-100,4,2,2,75,0,0
69508,-100,4,2,2,55,0,1
81196,-100,4,2,2,55,0,0
81975,-100,4,2,2,60,0,0
93664,-133.333333333333,4,2,2,60,0,0
106521,-100,4,2,2,65,0,0
106911,-100,4,2,0,65,0,0
107105,-100,4,2,2,65,0,0
119378,-100,4,2,0,70,0,1
119573,-100,4,2,2,70,0,1
131456,-66.6666666666667,4,2,2,70,0,0
131846,-100,4,2,2,80,0,1
142755,-133.333333333333,4,2,2,80,0,1
143534,-133.333333333333,4,2,2,80,0,0
144313,-100,4,2,2,70,0,0
145482,-100,4,2,10,70,0,0
145872,-100,4,2,2,70,0,0
147040,-100,4,2,10,70,0,0
147430,-100,4,2,2,70,0,0
156781,-100,4,2,2,70,0,1
158339,-100,4,2,0,70,0,1
158534,-100,4,2,2,70,0,1
159898,-100,4,2,0,70,0,1
160092,-100,4,2,2,70,0,1
161456,-100,4,2,0,80,0,1
161553,-100,4,2,2,80,0,1
162235,-100,4,2,0,80,0,1
162333,-100,4,2,2,80,0,1
163014,-100,4,2,2,55,0,0
175482,-100,4,2,0,85,0,1
175677,-100,4,2,2,85,0,1
187170,-133.333333333333,4,2,2,70,0,0
187560,-133.333333333333,4,2,2,30,0,0

[Colours]
Combo1 : 157,118,26
Combo2 : 255,94,174
Combo3 : 128,64,64
Combo4 : 153,23,63

[HitObjects]
112,196,19638,6,0,P|152:204|204:192,1,75,4|0,0:0|0:0,0:0:0:0:
268,174,20027,2,0,P|268:230|302:276,1,100,2|0,0:3|0:0,0:0:0:0:
320,288,20417,2,0,L|408:272,1,75,0|0,0:0|0:0,0:0:0:0:
360,192,20807,2,0,L|448:176,1,75,2|0,0:3|0:0,0:0:0:0:
440,80,21196,5,0,0:0:0:0:
440,80,21586,2,0,P|388:84|336:112,1,100,2|0,0:3|0:0,0:0:0:0:
308,100,21975,2,0,P|272:89|234:88,1,75,0|0,0:0|0:0,0:0:0:0:
156,133,22365,1,2,0:3:0:0:
161,43,22560,1,0,0:0:0:0:
216,200,22755,5,0,0:0:0:0:
216,200,23144,2,0,P|260:216|315:194,1,100,2|0,0:3|0:0,0:0:0:0:
344,178,23534,2,0,L|356:266,1,75,0|0,0:0|0:0,0:0:0:0:
373,87,23924,1,2,0:3:0:0:
439,158,24118,1,0,0:0:0:0:
284,52,24313,5,0,0:0:0:0:
284,52,24703,2,0,P|284:100|296:128,1,75,2|0,0:0|0:0,0:0:0:0:
335,204,25092,2,0,P|271:228|187:200,1,150,0|2,0:0|0:0,0:0:0:0:
32,40,25872,6,0,L|4:151,1,100,0|0,0:0|0:0,0:0:0:0:
18,172,26261,2,0,P|66:168|118:140,1,75,2|0,0:0|0:0,0:0:0:0:
119,250,26651,2,0,L|164:334,1,75,0|0,0:0|0:0,0:0:0:0:
255,290,27040,2,0,L|219:224,1,75,2|0,0:0|0:0,0:0:0:0:
263,116,27430,6,0,L|372:73,1,100
384,96,27820,2,0,P|384:136|356:184,1,75,2|0,0:0|0:0,0:0:0:0:
388,256,28209,2,0,P|424:240|448:208,1,75,0|0,0:0|0:0,0:0:0:0:
468,124,28599,1,2,0:0:0:0:
448,36,28794,1,0,0:0:0:0:
348,108,28988,6,0,P|304:123|239:107,1,100,0|0,0:0|0:0,0:0:0:0:
218,98,29378,2,0,L|144:110,1,75,2|0,0:0|0:0,0:0:0:0:
84,40,29768,2,0,L|157:27,1,75,0|0,0:0|0:0,0:0:0:0:
261,18,30157,2,0,P|289:41|305:76,1,75,2|0,0:0|0:0,0:0:0:0:
218,98,30547,5,0,0:0:0:0:
204,268,30937,2,0,P|260:256|308:272,1,75,2|0,0:0|0:0,0:0:0:0:
366,270,31326,2,0,P|405:258|442:214,1,75
480,151,31716,1,2,0:0:0:0:
312,52,32105,5,0,0:0:0:0:
136,80,32495,1,2,0:0:0:0:
296,160,32885,1,0,0:0:0:0:
120,188,33274,1,2,0:0:0:0:
268,240,33664,6,0,P|311:246|348:227,1,75,2|0,0:0|0:0,0:0:0:0:
408,176,34053,2,0,L|424:268,1,75,0|0,0:0|0:0,0:0:0:0:
472,124,34443,2,0,P|400:92|332:136,1,150,2|0,0:0|0:0,0:0:0:0:
176,188,35222,6,0,L|192:108,1,75,2|0,0:0|0:0,0:0:0:0:
128,48,35612,1,0,0:0:0:0:
96,224,36001,2,0,P|120:256|160:272,1,75,2|0,0:0|0:0,0:0:0:0:
232,262,36391,2,0,B|268:246|277:186,1,75
296,116,36781,6,0,B|332:140|332:140|336:152|336:152|368:176|368:176|372:188|372:188|412:216,1,150,2|2,0:0|0:0,0:0:0:0:
456,136,37365,1,0,0:0:0:0:
492,220,37560,2,0,P|464:276|360:284,1,150,2|2,0:0|0:0,0:0:0:0:
360,284,38047,1,2,0:0:0:0:
336,272,38144,1,2,0:0:0:0:
235,234,38339,6,0,L|260:164,1,75,10|0,0:0|0:0,0:0:0:0:
152,272,38729,2,0,L|52:268,1,75,8|8,0:0|0:0,0:0:0:0:
100,92,39118,2,0,P|137:87|174:96,1,75,8|8,0:0|0:0,0:0:0:0:
129,176,39508,2,0,P|92:180|56:172,1,75,8|8,0:0|0:0,0:0:0:0:
238,143,39898,6,0,L|266:231,1,75,10|8,0:0|0:0,0:0:0:0:
184,264,40287,2,0,L|214:353,1,75,8|8,0:0|0:0,0:0:0:0:
335,332,40677,2,0,B|363:260|333:172,1,150,8|8,0:0|0:0,0:0:0:0:
337,184,41261,1,8,0:0:0:0:
308,94,41456,5,10,0:0:0:0:
308,94,41651,2,0,P|326:60|356:37,1,75,10|8,0:0|0:0,0:0:0:0:
401,117,42040,1,8,0:0:0:0:
435,33,42235,2,0,P|466:55|486:87,1,75,10|8,0:0|0:0,0:0:0:0:
474,175,42625,2,0,L|490:263,1,75,10|8,0:0|0:0,0:0:0:0:
344,280,43014,6,0,L|328:336,3,37.5,10|0|8|0,0:0|0:0|0:0|0:0,0:0:0:0:
376,336,43404,2,0,L|368:372,3,37.5,10|0|8|0,0:0|0:0|0:0|0:0,0:0:0:0:
416,312,43794,1,2,0:0:0:0:
272,216,44183,2,0,P|252:260|256:300,1,75
344,192,44573,6,0,P|296:140|236:144,1,112.5,4|0,0:0|0:0,0:0:0:0:
224,152,44962,2,0,L|148:116,1,75,8|0,0:3|0:0,0:0:0:0:
80,72,45352,2,0,B|72:104|72:104|80:144|80:144|72:184|72:184|80:228,1,150,8|8,0:0|0:3,0:0:0:0:
168,208,45937,1,0,0:0:0:0:
220,280,46131,6,0,P|268:300|308:296,1,75,8|0,0:0|0:0,0:0:0:0:
348,228,46521,2,0,P|300:208|260:211,1,75,8|0,0:3|0:0,0:0:0:0:
236,128,46911,1,8,0:0:0:0:
388,36,47300,5,8,0:3:0:0:
388,36,47495,1,0,0:0:0:0:
304,68,47690,2,0,P|252:54|192:72,1,112.5,8|0,0:0|0:0,0:0:0:0:
204,96,48079,2,0,L|236:180,1,75,8|0,0:3|0:0,0:0:0:0:
296,211,48469,2,0,P|233:248|168:216,1,150,8|8,0:0|0:3,0:0:0:0:
230,166,49053,1,0,0:0:0:0:
336,284,49248,6,0,P|368:248|376:208,1,75,8|0,0:0|0:0,0:0:0:0:
368,140,49638,2,0,P|332:116|284:112,1,75,8|0,0:3|0:0,0:0:0:0:
212,96,50027,2,0,B|173:101|156:144|156:144|136:184|84:188,1,150,8|8,0:0|0:3,0:0:0:0:
80,100,50612,1,0,0:0:0:0:
23,170,50807,6,0,P|19:218|51:277,1,112.5,8|0,0:0|0:0,0:0:0:0:
78,301,51196,2,0,L|158:300,1,75,8|0,0:3|0:0,0:0:0:0:
244,292,51586,2,0,B|272:264|253:221|253:221|236:176|272:152,1,150,8|8,0:0|0:3,0:0:0:0:
324,56,52170,1,0,0:0:0:0:
240,80,52365,6,0,L|152:52,1,75,8|0,0:0|0:0,0:0:0:0:
324,56,52755,2,0,L|395:33,1,75,8|0,0:3|0:0,0:0:0:0:
476,68,53144,2,0,B|468:108|468:108|460:120|460:120|451:158|451:158|444:172|444:172|436:212,1,150,8|8,0:0|0:3,0:0:0:0:
364,156,53729,1,0,0:0:0:0:
362,238,53924,6,0,P|348:292|318:320,1,75,8|0,0:0|0:0,0:0:0:0:
270,246,54313,2,0,P|274:190|254:154,1,75,8|0,0:3|0:0,0:0:0:0:
197,116,54703,2,0,L|153:40,1,75,8|0,0:0|0:0,0:0:0:0:
99,128,55092,2,0,B|117:161|117:161|107:199,1,75,8|0,0:3|0:0,0:0:0:0:
60,274,55482,5,8,0:0:0:0:
123,338,55677,2,0,L|83:370,2,37.5,0|0|8,0:0|0:0|0:3,0:0:0:0:
198,289,56066,1,8,0:0:0:0:
228,204,56261,1,0,0:0:0:0:
228,204,56651,2,0,P|216:168|224:128,1,75,8|8,0:3|0:3,0:0:0:0:
308,124,57040,5,6,0:0:0:0:
352,204,57235,1,0,0:0:0:0:
440,212,57430,1,8,0:3:0:0:
440,212,57625,1,0,0:0:0:0:
376,284,57820,2,0,P|332:288|288:260,1,75,10|0,0:0|0:0,0:0:0:0:
252,204,58209,1,8,0:3:0:0:
252,204,58404,1,0,0:0:0:0:
184,148,58599,6,0,P|164:188|172:240,1,75,10|0,0:0|0:0,0:0:0:0:
252,204,58988,2,0,P|296:201|337:168,1,75,10|0,0:3|0:0,0:0:0:0:
264,120,59378,2,0,P|239:82|190:63,2,75,10|0|8,0:0|0:0|0:3,0:0:0:0:
168,232,59962,1,0,0:0:0:0:
106,355,60157,6,0,L|192:359,1,75,10|0,0:0|0:0,0:0:0:0:
168,232,60547,2,0,L|86:228,1,75,8|0,0:3|0:0,0:0:0:0:
60,87,60937,2,0,P|89:111|126:120,1,75,10|0,0:0|0:0,0:0:0:0:
148,34,61326,2,0,P|183:45|211:70,1,75,10|0,0:3|0:0,0:0:0:0:
200,176,61716,6,0,P|245:177|282:160,1,75,10|0,0:0|0:0,0:0:0:0:
301,80,62105,2,0,P|336:68|374:72,1,75,10|0,0:3|0:0,0:0:0:0:
354,160,62495,1,10,0:0:0:0:
408,232,62690,1,0,0:0:0:0:
400,320,62885,1,8,0:3:0:0:
324,368,63079,1,0,0:0:0:0:
284,288,63274,6,0,L|256:208,1,75,10|0,0:0|0:0,0:0:0:0:
192,156,63664,1,8,0:3:0:0:
192,156,63859,1,0,0:0:0:0:
122,221,64053,2,0,L|94:141,1,75,10|0,0:0|0:0,0:0:0:0:
26,93,64443,1,8,0:3:0:0:
26,93,64638,1,0,0:0:0:0:
107,54,64833,6,0,L|187:62,1,75,10|0,0:0|0:0,0:0:0:0:
263,102,65222,2,0,L|343:110,1,75,10|0,0:3|0:0,0:0:0:0:
404,192,65612,2,0,P|404:236|384:272,1,75,10|0,0:0|0:0,0:0:0:0:
316,212,66001,2,0,L|241:204,1,75,8|0,0:3|0:0,0:0:0:0:
264,124,66391,6,0,B|338:131,1,75,10|0,0:0|0:0,0:0:0:0:
185,146,66781,2,0,B|168:179|168:179|168:217,1,75,10|0,0:3|0:0,0:0:0:0:
78,212,67170,2,0,B|96:245|96:245|96:283,1,75,10|0,0:0|0:0,0:0:0:0:
181,293,67560,2,0,B|164:326|164:326|164:364,1,75,10|0,0:3|0:0,0:0:0:0:
256,342,67949,5,8,0:0:0:0:
316,274,68144,1,0,0:0:0:0:
316,182,68339,1,8,0:3:0:0:
260,110,68534,1,0,0:0:0:0:
226,237,68729,6,0,P|189:244|103:154,1,150,10|12,0:0|0:3,0:0:0:0:
372,68,69508,6,0,P|404:116|400:160,1,75,10|0,0:0|0:0,0:0:0:0:
316,132,69898,2,0,L|264:116,2,37.5,8|0|0,0:3|0:0|0:0,0:0:0:0:
363,208,70287,2,0,P|331:256|335:300,1,75,10|0,0:0|0:0,0:0:0:0:
419,272,70677,2,0,L|471:256,2,37.5,8|0|0,0:3|0:0|0:0,0:0:0:0:
252,196,71066,6,0,L|160:208,1,75,10|0,0:0|0:0,0:0:0:0:
92,180,71456,2,0,L|52:148,2,37.5,8|0|0,0:3|0:0|0:0,0:0:0:0:
60,264,71846,2,0,L|88:344,1,75,10|0,0:0|0:0,0:0:0:0:
180,314,72235,2,0,L|264:326,1,75,8|0,0:3|0:0,0:0:0:0:
293,233,72625,6,0,L|261:153,1,75,10|0,0:0|0:0,0:0:0:0:
381,251,73014,2,0,L|389:295,2,37.5,8|0|0,0:3|0:0|0:0,0:0:0:0:
445,176,73404,2,0,L|477:96,1,75,10|0,0:0|0:0,0:0:0:0:
363,135,73793,2,0,L|355:179,2,37.5,8|0|0,0:3|0:0|0:0,0:0:0:0:
312,56,74183,5,10,0:0:0:0:
224,60,74378,1,2,0:0:0:0:
176,136,74573,1,10,0:3:0:0:
92,100,74768,1,0,0:0:0:0:
36,178,74962,2,0,P|69:216|120:227,1,93.75,8|0,0:0|0:0,0:0:0:0:
138,217,75352,2,0,P|175:215|209:229,1,75,8|0,0:3|0:0,0:0:0:0:
320,164,75742,5,10,0:0:0:0:
368,88,75937,1,0,0:0:0:0:
408,168,76131,2,0,L|436:224,2,37.5,8|0|0,0:3|0:0|0:0,0:0:0:0:
320,164,76521,1,10,0:0:0:0:
276,88,76716,1,0,0:0:0:0:
232,168,76911,2,0,L|204:224,2,37.5,8|0|0,0:3|0:0|0:0,0:0:0:0:
320,176,77300,5,10,0:0:0:0:
373,89,77495,1,0,0:0:0:0:
320,176,77690,2,0,L|320:232,2,37.5,8|0|0,0:3|0:0|0:0,0:0:0:0:
195,103,78079,2,0,P|191:155|207:191,1,75,10|0,0:0|0:0,0:0:0:0:
222,270,78469,2,0,P|226:322|210:358,1,75,8|0,0:3|0:0,0:0:0:0:
116,292,78859,5,10,0:0:0:0:
60,224,79053,2,0,L|44:176,2,37.5,0|0|10,0:0|0:0|0:3,0:0:0:0:
136,140,79443,2,0,L|136:84,2,37.5,0|0|10,0:0|0:0|0:0,0:0:0:0:
244,136,79833,6,0,L|296:108,5,37.5,0|0|10|0|0|0,0:0|0:0|0:3|0:0|0:0|0:0,0:0:0:0:
228,168,80417,2,0,L|256:292,2,112.5,2|2|8,1:3|1:3|0:0,0:0:0:0:
155,224,81196,6,0,L|189:377,1,150,6|0,1:3|0:0,0:0:0:0:
60,80,81975,6,0,L|68:204,1,112.5,8|0,0:0|0:0,0:0:0:0:
88,216,82365,2,0,P|144:184|172:184,1,75,2|0,0:0|0:0,0:0:0:0:
224,128,82755,2,0,P|248:92|252:48,1,75,0|8,0:0|0:0,0:0:0:0:
116,11,83144,2,0,P|94:41|86:78,1,75,2|2,0:0|0:0,0:0:0:0:
168,72,83534,6,0,L|258:167,1,112.5,8|0,0:3|0:0,0:0:0:0:
280,181,83924,2,0,P|321:178|364:141,1,75,2|0,0:0|0:0,0:0:0:0:
292,84,84313,2,0,P|284:44|296:8,1,75,0|8,0:0|0:0,0:0:0:0:
376,52,84703,2,0,P|416:64|444:104,1,75,2|2,0:0|0:0,0:0:0:0:
436,176,85092,6,0,L|480:200,3,37.5,8|0|0|0,3:0|0:0|0:0|0:0,0:0:0:0:
408,196,85482,2,0,P|372:220|316:216,1,75,2|0,0:0|0:0,0:0:0:0:
252,212,85872,2,0,L|172:164,1,75,0|8,0:0|0:0,0:0:0:0:
172,84,86261,2,0,L|260:37,1,75,2|2,0:0|0:0,0:0:0:0:
344,36,86651,5,8,3:0:0:0:
300,116,86846,2,0,L|280:152,2,37.5,0|0|2,0:0|0:0|0:0,0:0:0:0:
376,164,87235,2,0,L|396:200,2,37.5,0|0|0,0:0|0:0|0:0,0:0:0:0:
312,228,87625,1,0,0:0:0:0:
356,304,87820,2,0,P|320:316|260:300,1,75,0|2,0:0|0:0,0:0:0:0:
164,260,88209,6,0,B|132:216|130:194|172:168|172:168|132:144|132:144|109:89|156:60|156:60|176:84|220:76,1,300,8|0,3:0|0:0,0:0:0:0:
288,63,89183,2,0,L|324:52,5,37.5,8|0|2|0|2|0,0:0|0:0|0:0|0:0|0:0|0:0,0:0:0:0:
286,102,89768,1,8,0:3:0:0:
102,121,90157,6,0,P|102:173|133:231,1,112.5,2|0,0:0|0:0,0:0:0:0:
160,259,90547,2,0,L|164:304,2,37.5,0|0|0,0:0|0:0|0:0,0:0:0:0:
204,179,90937,2,0,P|216:123|208:91,1,75,2|2,0:0|0:0,0:0:0:0:
156,35,91326,1,8,0:3:0:0:
332,72,91716,5,2,0:0:0:0:
332,72,91911,1,8,0:0:0:0:
312,160,92105,2,0,P|276:172|252:208,1,75,0|8,0:0|0:0,0:0:0:0:
336,240,92495,2,0,P|371:251|393:280,1,75,2|2,0:0|0:0,0:0:0:0:
300,336,92885,5,8,0:3:0:0:
300,336,93274,1,2,0:0:0:0:
300,336,93664,6,0,L|248:292,1,56.2500021457673,0|0,0:0|0:0,0:0:0:0:
170,300,94053,2,0,L|128:264,1,56.2500021457673,2|2,0:0|0:0,0:0:0:0:
39,260,94443,1,4,0:0:0:0:
112,80,100677,6,0,B|144:108|184:108|220:88|252:68|288:68|328:100,2,225.000008583069,10|10|10,0:0|0:0|0:0,0:0:0:0:
56,152,102430,5,8,0:0:0:0:
38,240,102625,2,0,L|118:228,1,56.2500021457673,10|8,0:0|0:0,0:0:0:0:
155,170,103014,2,0,P|183:220|158:286,1,112.500004291535,10|8,0:0|0:0,0:0:0:0:
181,38,103794,5,10,0:0:0:0:
181,38,103988,1,10,0:0:0:0:
301,109,104378,1,8,0:0:0:0:
380,64,104573,2,0,B|396:88|382:120|382:120|365:152|400:188,1,112.500004291535,0|8,0:0|0:0,0:0:0:0:
240,276,105352,6,0,L|212:304,3,28.1250010728836,10|0|8|0,0:0|0:0|0:0|0:0,0:0:0:0:
184,284,105742,2,0,L|144:308,3,28.1250010728836,10|0|8|0,0:0|0:0|0:0|0:0,0:0:0:0:
120,288,106131,2,0,P|80:276|48:216,1,112.500004291535,8|8,0:0|0:3,0:0:0:0:
44,128,106716,1,8,0:0:0:0:
44,128,106911,6,0,P|88:100|152:104,1,112.5,4|0,0:0|0:0,0:0:0:0:
176,120,107300,2,0,L|248:56,1,75,8|0,0:3|0:0,0:0:0:0:
284,144,107690,2,0,P|335:94|413:98,1,150,8|8,0:0|0:3,0:0:0:0:
372,180,108274,1,0,0:0:0:0:
297,227,108469,6,0,P|292:264|300:300,1,75,8|0,0:0|0:0,0:0:0:0:
396,334,108859,2,0,P|399:297|384:264,1,75,8|0,0:3|0:0,0:0:0:0:
300,300,109248,2,0,P|269:365|198:380,1,150,8|8,0:0|0:3,0:0:0:0:
216,292,109833,1,0,0:0:0:0:
292,180,110027,6,0,B|288:148|288:148|296:120|296:120|288:92|288:92|292:56,1,112.5,8|0,0:0|0:0,0:0:0:0:
320,52,110417,2,0,L|400:20,1,75,8|0,0:3|0:0,0:0:0:0:
396,116,110807,2,0,B|392:200|392:200|348:272,1,150,8|8,0:0|0:3,0:0:0:0:
284,308,111391,1,0,0:0:0:0:
284,308,111586,6,0,L|199:264,1,75,8|0,0:0|0:0,0:0:0:0:
163,344,111975,2,0,L|75:364,1,75,8|0,0:3|0:0,0:0:0:0:
56,268,112365,2,0,L|40:212,3,37.5,8|0|0|0,0:0|0:0|0:0|0:0,0:0:0:0:
72,200,112755,2,0,L|56:144,3,37.5,8|0|0|0,0:3|0:0|0:0|0:0,0:0:0:0:
80,128,113144,6,0,P|128:136|168:224,1,150,8|8,0:0|0:3,0:0:0:0:
248,176,113729,1,0,0:0:0:0:
264,260,113924,2,0,P|308:296|408:252,1,150,8|8,0:0|0:3,0:0:0:0:
392,275,114508,1,0,0:0:0:0:
436,196,114703,6,0,P|448:152|440:100,1,75,8|0,0:0|0:0,0:0:0:0:
356,140,115092,2,0,P|342:96|303:63,1,75,8|0,0:3|0:0,0:0:0:0:
264,140,115482,2,0,B|236:136|224:124|224:124|176:140|176:140|140:128|132:100,1,150,8|8,0:0|0:3,0:0:0:0:
200,44,116066,1,0,0:0:0:0:
68,44,116261,6,0,P|48:72|48:128,1,75,8|0,0:0|0:0,0:0:0:0:
122,180,116651,2,0,L|134:106,1,75,8|0,0:3|0:0,0:0:0:0:
174,25,117040,2,0,P|214:17|258:33,1,75,8|0,0:0|0:0,0:0:0:0:
316,84,117430,2,0,L|340:188,1,75,8|0,0:3|0:0,0:0:0:0:
340,288,117820,6,0,P|304:280|260:296,1,75,8|0,0:0|0:0,0:0:0:0:
252,300,118112,1,0,0:0:0:0:
236,308,118209,2,0,L|184:240,1,75,8|8,0:3|0:0,0:0:0:0:
256,176,118599,1,8,0:0:0:0:
220,40,118988,1,8,0:3:0:0:
220,40,119183,1,8,0:3:0:0:
296,100,119378,6,0,P|344:112|376:100,1,75,6|0,0:0|0:0,0:0:0:0:
440,40,119768,1,8,0:3:0:0:
440,40,119962,1,0,0:0:0:0:
460,136,120157,2,0,P|464:184|452:232,1,75,10|0,0:0|0:0,0:0:0:0:
368,176,120547,1,8,0:3:0:0:
368,176,120742,1,0,0:0:0:0:
292,240,120937,6,0,P|300:288|336:320,1,75,10|0,0:0|0:0,0:0:0:0:
208,191,121326,2,0,P|200:239|208:287,1,75,10|0,0:3|0:0,0:0:0:0:
144,136,121716,2,0,P|120:168|108:220,1,75,10|0,0:0|0:0,0:0:0:0:
56,284,122105,1,8,0:3:0:0:
56,284,122300,1,0,0:0:0:0:
148,320,122495,6,0,P|192:324|232:312,1,75,10|0,0:0|0:0,0:0:0:0:
264,236,122885,1,8,0:3:0:0:
344,196,123079,1,0,0:0:0:0:
428,163,123274,2,0,P|436:203|420:255,1,75,10|0,0:0|0:0,0:0:0:0:
388,96,123664,2,0,L|416:16,1,75,10|0,0:3|0:0,0:0:0:0:
340,156,124053,6,0,L|368:76,1,75,10|0,0:0|0:0,0:0:0:0:
288,216,124443,2,0,L|316:136,1,75,10|0,0:3|0:0,0:0:0:0:
216,144,124833,1,10,0:0:0:0:
132,100,125027,1,0,0:0:0:0:
132,196,125222,1,8,0:3:0:0:
48,148,125417,1,0,0:0:0:0:
48,52,125612,6,0,L|120:8,2,75,10|0|8,0:0|0:0|0:3,0:0:0:0:
108,128,126196,1,0,0:0:0:0:
168,204,126391,2,0,L|96:248,2,75,10|0|8,0:0|0:0|0:3,0:0:0:0:
264,188,126975,1,0,0:0:0:0:
316,260,127170,6,0,P|267:277|222:259,2,75,10|0|10,0:0|0:0|0:3,0:0:0:0:
352,176,127755,1,0,0:0:0:0:
280,104,127949,2,0,P|232:108|192:140,2,75,10|0|8,0:0|0:0|0:3,0:0:0:0:
352,176,128534,1,0,0:0:0:0:
260,204,128729,6,0,L|240:288,1,75,10|0,0:0|0:0,0:0:0:0:
156,260,129118,2,0,L|136:344,1,75,10|0,0:3|0:0,0:0:0:0:
60,253,129508,2,0,L|80:169,1,75,10|0,0:0|0:0,0:0:0:0:
160,168,129897,2,0,L|180:84,1,75,10|0,0:3|0:0,0:0:0:0:
260,84,130287,5,8,0:0:0:0:
356,64,130482,1,0,0:0:0:0:
336,144,130677,1,8,0:3:0:0:
240,164,130872,1,0,0:0:0:0:
309,232,131066,6,0,B|353:292|353:292|387:216,1,150,8|12,0:0|0:3,0:0:0:0:
272,340,131846,6,0,P|216:340|188:328,1,75,10|0,0:0|0:0,0:0:0:0:
128,268,132235,2,0,L|76:280,2,37.5,8|0|0,0:3|0:0|0:0,0:0:0:0:
168,180,132625,2,0,P|184:132|172:92,1,75,10|0,0:0|0:0,0:0:0:0:
100,52,133014,2,0,L|92:12,2,37.5,8|0|0,0:3|0:0|0:0,0:0:0:0:
180,108,133404,6,0,P|224:116|260:104,1,75,10|0,0:0|0:0,0:0:0:0:
340,64,133794,2,0,L|352:16,2,37.5,8|0|0,0:3|0:0|0:0,0:0:0:0:
252,108,134183,2,0,P|245:147|207:185,1,75,10|0,0:0|0:0,0:0:0:0:
297,240,134573,2,0,P|310:277|354:309,1,75,8|0,0:3|0:0,0:0:0:0:
404,224,134962,5,10,0:0:0:0:
428,128,135157,1,0,0:0:0:0:
458,35,135352,2,0,L|471:-5,2,37.5,8|0|0,0:3|0:0|0:0,0:0:0:0:
407,119,135742,1,10,0:0:0:0:
378,217,135937,1,0,0:0:0:0:
380,336,136131,2,0,L|420:364,2,37.5,8|0|0,0:3|0:0|0:0,0:0:0:0:
304,276,136521,5,10,0:0:0:0:
216,320,136716,1,2,0:0:0:0:
116,282,136911,1,10,0:3:0:0:
210,226,137105,1,0,0:0:0:0:
217,312,137300,2,0,P|269:330|318:310,1,93.75,8|0,0:0|0:0,0:0:0:0:
325,286,137690,2,0,L|398:243,1,75,8|0,0:3|0:0,0:0:0:0:
364,156,138079,6,0,P|344:104|320:84,1,75,10|0,0:0|0:0,0:0:0:0:
252,32,138469,2,0,L|216:0,2,37.5,8|0|0,0:3|0:0|0:0,0:0:0:0:
208,120,138859,2,0,P|180:152|136:164,1,75,10|0,0:0|0:0,0:0:0:0:
52,168,139248,2,0,L|8:160,2,37.5,8|0|0,0:3|0:0|0:0,0:0:0:0:
122,95,139638,6,0,P|143:126|150:163,1,75,10|0,0:0|0:0,0:0:0:0:
128,260,140027,2,0,L|104:304,2,37.5,8|0|0,0:3|0:0|0:0,0:0:0:0:
224,184,140417,1,10,0:0:0:0:
249,289,140612,1,0,0:0:0:0:
249,289,140807,2,0,P|289:289|325:277,1,75,8|0,0:3|0:0,0:0:0:0:
416,232,141196,5,10,0:0:0:0:
368,148,141391,2,0,L|360:88,2,37.5,0|0|10,0:0|0:0|0:3,0:0:0:0:
268,148,141781,2,0,L|220:116,2,37.5,0|0|10,0:0|0:0|0:0,0:0:0:0:
200,220,142170,6,0,L|160:244,5,37.5,0|0|10|0|0|0,0:0|0:0|0:3|0:0|0:0|0:0,0:0:0:0:
228,248,142755,2,0,L|326:223,2,84.3750032186509,2|2|8,1:3|1:3|0:0,0:0:0:0:
343,308,143534,2,0,P|394:286|416:236,1,112.500004291535,2|0,1:3|0:0,0:0:0:0:
264,60,144313,5,10,0:0:0:0:
260,64,144508,1,2,0:0:0:0:
256,68,144703,1,2,0:0:0:0:
252,72,144898,1,2,0:0:0:0:
248,76,145092,1,2,0:0:0:0:
244,80,145287,1,2,0:0:0:0:
240,84,145482,2,0,L|180:100,2,37.5,2|0|0,0:0|0:0|0:0,0:0:0:0:
308,152,145872,5,10,0:0:0:0:
324,168,146066,1,2,0:0:0:0:
336,188,146261,1,2,0:0:0:0:
344,208,146456,1,2,0:0:0:0:
348,232,146651,1,2,0:0:0:0:
344,256,146846,1,2,0:0:0:0:
336,276,147040,2,0,L|296:320,2,37.5,2|0|0,0:0|0:0|0:0,0:0:0:0:
248,252,147430,6,0,P|208:244|164:256,1,75,10|2,0:0|0:0,0:0:0:0:
112,316,147820,1,2,0:0:0:0:
112,316,148014,1,2,0:0:0:0:
80,232,148209,2,0,P|80:176|100:140,1,75,10|2,0:0|0:0,0:0:0:0:
156,100,148599,2,0,L|160:52,2,37.5,2|0|2,0:0|0:0|0:0,0:0:0:0:
244,92,148988,1,10,0:0:0:0:
244,184,149183,5,0,0:0:0:0:
244,184,149281,1,0,0:0:0:0:
244,184,149378,2,0,L|280:212,3,37.5,2|0|0|0,0:0|0:0|0:0|0:0,0:0:0:0:
320,204,149768,2,0,L|360:172,3,37.5,10|0|0|0,0:0|0:0|0:0|0:0,0:0:0:0:
372,144,150157,2,0,L|448:156,1,75,2|0,0:0|0:0,0:0:0:0:
400,260,150547,6,0,L|372:292,3,37.5,8|2|2|2,0:3|0:0|0:0|0:0,0:0:0:0:
280,296,151034,6,0,L|260:336,2,37.5,2|0|0,0:0|0:0|0:0,0:0:0:0:
256,272,151326,2,0,L|212:264,3,37.5,2|2|0|2,0:0|0:0|0:0|0:0,0:0:0:0:
116,224,151813,6,0,L|136:264,2,37.5,2|2|0,0:0|0:0|0:0,0:0:0:0:
140,200,152105,2,0,L|184:192,3,37.5,8|2|0|2,0:3|0:0|0:0|0:0,0:0:0:0:
216,104,152592,6,0,L|188:72,2,37.5,2|0|0,0:0|0:0|0:0,0:0:0:0:
252,112,152885,2,0,L|292:168,3,37.5,2|2|0|2,0:0|0:0|0:0|0:0,0:0:0:0:
386,117,153372,6,0,L|364:88,2,37.5,2|0|0,0:0|0:0|0:0,0:0:0:0:
388,160,153664,2,0,L|340:200,3,37.5,8|0|0|2,0:3|0:0|0:0|0:0,0:0:0:0:
256,200,154151,6,0,L|216:172,2,37.5,2|0|0,0:0|0:0|0:0,0:0:0:0:
272,232,154443,2,0,L|248:284,3,37.5,2|2|0|2,0:0|0:0|0:0|0:0,0:0:0:0:
372,256,154930,5,0,0:0:0:0:
380,280,155027,1,2,0:0:0:0:
380,308,155125,1,2,0:0:0:0:
368,332,155222,2,0,L|328:356,3,37.5,8|0|0|2,0:3|0:0|0:0|0:0,0:0:0:0:
248,372,155709,5,0,0:0:0:0:
240,348,155806,1,2,0:0:0:0:
240,320,155904,1,2,0:0:0:0:
252,296,156001,2,0,L|292:272,3,37.5,8|0|0|2,0:3|0:0|0:0|0:0,0:0:0:0:
220,192,156488,6,0,L|232:152,2,37.5,2|0|0,0:0|0:0|0:0,0:0:0:0:
204,212,156781,2,0,P|144:228|112:220,1,75,8|8,0:0|0:0,0:0:0:0:
152,140,157170,2,0,P|152:92|168:56,1,75,8|8,0:0|0:0,0:0:0:0:
244,108,157560,2,0,P|284:104|336:124,1,75,8|8,0:0|0:0,0:0:0:0:
272,192,157949,2,0,P|272:240|256:272,1,75,8|8,0:0|0:0,0:0:0:0:
190,216,158339,6,0,P|168:186|136:168,1,75,4|8,0:1|0:0,0:0:0:0:
44,176,158729,2,0,P|16:201|2:235,1,75,8|0,0:0|0:0,0:0:0:0:
8,324,159118,2,0,P|33:351|65:370,1,75,8|8,0:0|0:0,0:0:0:0:
156,360,159508,2,0,P|186:337|205:305,1,75,8|0,0:0|0:0,0:0:0:0:
124,264,159898,5,4,0:1:0:0:
202,207,160092,1,8,0:0:0:0:
119,175,160287,1,8,0:0:0:0:
201,118,160482,1,8,0:0:0:0:
272,172,160677,2,0,L|308:252,1,75,8|8,0:0|0:0,0:0:0:0:
340,124,161066,2,0,L|376:52,1,75,8|8,0:0|0:0,0:0:0:0:
432,128,161456,6,0,L|468:152,7,37.5,4|8|8|8|8|8|8|8,0:1|0:0|0:0|0:0|0:0|0:0|0:0|0:0,0:0:0:0:
460,192,162235,2,0,L|424:216,7,37.5,4|8|0|8|8|8|8|8,0:1|0:0|0:0|0:0|0:0|0:0|0:0|0:0,0:0:0:0:
388,196,163014,6,0,P|340:180|236:208,1,150,10|0,0:0|0:0,0:0:0:0:
240,292,163599,1,8,0:0:0:0:
320,252,163794,2,0,P|312:176|256:112,1,150,10|8,0:3|0:0,0:0:0:0:
184,92,164378,1,0,0:0:0:0:
116,148,164573,6,0,P|60:156|20:140,1,75,10|0,0:0|0:0,0:0:0:0:
180,18,164962,2,0,P|188:74|172:114,1,75,2|8,0:0|0:0,0:0:0:0:
272,44,165352,1,10,0:3:0:0:
272,44,165742,6,0,B|272:80|272:80|288:132,1,75,0|2,0:0|0:0,0:0:0:0:
288,208,166131,2,0,P|335:192|370:127,1,112.5,8|2,0:0|0:0,0:0:0:0:
392,112,166521,2,0,B|428:96|428:96|484:120,1,75,0|8,0:0|0:0,0:0:0:0:
448,194,166911,2,0,B|419:247|444:266|465:285|448:338,1,150,10|0,0:3|0:0,0:0:0:0:
352,284,167495,1,0,0:0:0:0:
352,284,167690,6,0,L|316:360,1,75,10|0,0:0|0:0,0:0:0:0:
252,292,168079,2,0,L|184:352,1,75,2|8,0:0|0:0,0:0:0:0:
159,259,168469,2,0,P|67:274|16:240,1,150,10|0,0:3|0:0,0:0:0:0:
22,247,169053,1,2,0:0:0:0:
80,176,169248,6,0,P|112:136|124:48,1,112.5,8|2,0:0|0:0,0:0:0:0:
148,52,169638,2,0,L|228:76,1,75,0|8,0:0|0:0,0:0:0:0:
300,36,170027,2,0,P|308:96|236:160,1,150,10|8,0:3|0:0,0:0:0:0:
250,157,170612,1,0,0:0:0:0:
172,204,170807,6,0,B|176:228|176:228|172:248|172:248|176:264|176:264|176:292,1,75,10|0,0:0|0:0,0:0:0:0:
324,232,171196,2,0,B|328:256|328:256|324:276|324:276|328:292|328:292|328:305,1,75,2|8,0:0|0:0,0:0:0:0:
248,348,171586,1,10,0:3:0:0:
250,157,171975,5,8,0:3:0:0:
220,72,172170,1,0,0:0:0:0:
160,140,172365,2,0,P|116:152|64:136,1,75,10|0,0:0|0:0,0:0:0:0:
192,220,172755,2,0,L|208:296,1,75,10|0,0:0|0:0,0:0:0:0:
270,357,173144,2,0,P|306:365|350:349,1,75,10|0,0:3|0:0,0:0:0:0:
376,252,173534,1,10,0:0:0:0:
144,113,173924,5,8,0:0:0:0:
232,144,174118,1,8,0:0:0:0:
168,207,174313,1,8,0:0:0:0:
261,229,174508,1,8,0:0:0:0:
232,144,174703,2,0,L|260:112,3,37.5,10|10|8|0,0:0|0:0|0:0|0:0,0:0:0:0:
244,72,175092,5,8,0:3:0:0:
32,44,175482,6,0,L|20:144,1,75,6|0,0:0|0:0,0:0:0:0:
76,192,175872,2,0,L|108:240,2,37.5,8|0|0,0:3|0:0|0:0,0:0:0:0:
148,136,176261,2,0,L|256:116,1,75,10|0,0:0|0:0,0:0:0:0:
292,64,176651,2,0,L|308:16,2,37.5,8|0|0,0:3|0:0|0:0,0:0:0:0:
348,136,177040,6,0,L|356:240,1,75,10|0,0:0|0:0,0:0:0:0:
284,268,177430,2,0,L|284:312,2,37.5,8|0|0,0:3|0:0|0:0,0:0:0:0:
204,224,177820,2,0,P|160:216|112:232,1,75,10|0,0:0|0:0,0:0:0:0:
37,250,178209,2,0,L|29:166,1,75,8|0,0:3|0:0,0:0:0:0:
112,92,178599,5,10,0:0:0:0:
192,136,178794,1,0,0:0:0:0:
256,72,178988,2,0,L|280:20,2,37.5,8|0|0,0:3|0:0|0:0,0:0:0:0:
192,136,179378,1,10,0:0:0:0:
112,92,179573,1,0,0:0:0:0:
105,189,179768,2,0,L|61:209,2,37.5,8|0|0,0:3|0:0|0:0,0:0:0:0:
240,216,180157,6,0,P|227:178|232:136,2,75,10|2|10,0:0|0:0|0:3,0:0:0:0:
316,168,180742,1,0,0:0:0:0:
344,252,180937,2,0,P|379:254|418:209,1,93.75,8|0,0:0|0:0,0:0:0:0:
423,179,181326,2,0,P|418:139|395:103,1,75,8|0,0:3|0:0,0:0:0:0:
304,52,181716,6,0,L|224:72,1,75,10|0,0:0|0:0,0:0:0:0:
144,44,182105,2,0,L|116:12,2,37.5,8|0|0,0:3|0:0|0:0,0:0:0:0:
88,116,182495,2,0,L|168:136,1,75,10|0,0:0|0:0,0:0:0:0:
252,145,182885,2,0,L|248:108,2,37.5,8|0|0,0:3|0:0|0:0,0:0:0:0:
336,120,183274,6,0,P|380:100|400:68,1,75,10|0,0:0|0:0,0:0:0:0:
316,40,183664,2,0,L|284:16,2,37.5,8|0|0,0:3|0:0|0:0,0:0:0:0:
244,92,184053,2,0,L|260:184,1,75,10|0,0:0|0:0,0:0:0:0:
224,258,184443,2,0,P|249:301|282:317,1,75,8|0,0:3|0:0,0:0:0:0:
312,232,184833,5,10,0:0:0:0:
356,152,185027,2,0,L|376:116,2,37.5,0|0|10,0:0|0:0|0:3,0:0:0:0:
276,108,185417,2,0,L|272:60,2,37.5,0|0|10,0:0|0:0|0:0,0:0:0:0:
188,96,185807,6,0,L|132:72,5,37.5,0|0|10|0|0|0,0:0|0:0|0:3|0:0|0:0|0:0,0:0:0:0:
192,132,186391,2,0,L|184:256,2,112.5,2|2|8,1:3|1:3|0:0,0:0:0:0:
238,53,187170,6,0,P|185:38|126:64,1,112.500004291535,6|0,1:3|0:0,0:0:0:0:
