osu file format v14

[General]
AudioFilename: Senbonzakura - Lindsey Stirling.mp3
AudioLeadIn: 0
PreviewTime: 69508
Countdown: 0
SampleSet: Soft
StackLeniency: 0.5
Mode: 0
LetterboxInBreaks: 0
WidescreenStoryboard: 0

[Editor]
Bookmarks: 19638,44573,69508,81975,94443,100677,104346,119378,131846,144313,156781,157073,175482,187560
DistanceSpacing: 1
BeatDivisor: 4
GridSize: 32
TimelineZoom: 3.299999

[Metadata]
Title:Senbonzakura
TitleUnicode:Senbonzakura
Artist:Lindsey Stirling
ArtistUnicode:Lindsey Stirling
Creator:MrSergio
Version:Extra
Source:
Tags:初音ミク AsakuraNe 黒うさP violin 千本桜 reprint Kurousa-P Harbyter vocaloid Miku Hatsune Shatter Me A Thousand Cherry Blossoms
BeatmapID:628637
BeatmapSetID:277421

[Difficulty]
HPDrainRate:5.7
CircleSize:4
OverallDifficulty:8
ApproachRate:9
SliderMultiplier:1.8
SliderTickRate:1

[Events]
//Background and Video events
0,0,"1645085.jpg",0,0
Video,0,"vid.avi"
//Break Periods
2,94643,100077
//Storyboard Layer 0 (Background)
//Storyboard Layer 1 (Fail)
//Storyboard Layer 2 (Pass)
//Storyboard Layer 3 (Foreground)
//Storyboard Sound Samples

[TimingPoints]
937,389.61038961039,4,2,2,50,1,0
30937,-100,4,2,2,50,0,0
32105,-200,4,2,2,50,0,0
33859,-100,4,2,2,50,0,0
36781,-100,4,2,2,50,0,0
36975,-100,4,2,2,50,0,0
37949,-83.3333333333333,4,2,2,50,0,0
38339,-100,4,2,2,50,0,0
41456,-100,4,2,2,50,0,0
41846,-100,4,2,2,50,0,0
42235,-100,4,2,2,50,0,0
42625,-100,4,2,2,50,0,0
43014,-100,4,2,2,50,0,0
43794,-200,4,2,2,50,0,0
44183,-100,4,2,2,50,0,0
44573,-100,4,2,0,60,0,0
44768,-100,4,2,2,60,0,0
57040,-100,4,2,0,75,0,1
57235,-100,4,2,2,75,0,1
60547,-100,4,2,2,75,0,1
68729,-200,4,2,2,75,0,1
69118,-66.6666666666667,4,2,2,75,0,0
69508,-100,4,2,2,55,0,1
81196,-100,4,2,2,55,0,0
81975,-100,4,2,2,60,0,0
92885,-83.3333333333333,4,2,2,60,0,0
93274,-125,4,2,2,60,0,0
93664,-133.333333333333,4,2,2,60,0,0
100677,-100,4,2,2,60,0,0
101456,-100,4,2,2,60,0,0
106131,-200,4,2,2,60,0,0
106521,-100,4,2,2,65,0,0
106911,-100,4,2,0,65,0,0
107105,-100,4,2,2,65,0,0
119378,-100,4,2,0,70,0,1
119573,-100,4,2,2,70,0,1
131066,-200,4,2,2,70,0,1
131456,-66.6666666666667,4,2,2,70,0,0
131846,-100,4,2,2,80,0,1
142755,-133.333333333333,4,2,2,80,0,0
144313,-100,4,2,2,70,0,0
145482,-100,4,2,10,70,0,0
145872,-100,4,2,2,70,0,0
147040,-100,4,2,10,70,0,0
147430,-100,4,2,2,70,0,0
156781,-100,4,2,2,70,0,1
158339,-100,4,2,0,70,0,1
158534,-100,4,2,2,70,0,1
159898,-100,4,2,0,70,0,1
160092,-100,4,2,2,70,0,1
161456,-100,4,2,0,80,0,1
161553,-100,4,2,2,80,0,1
162235,-100,4,2,0,80,0,1
162333,-100,4,2,2,80,0,1
163014,-100,4,2,2,55,0,0
175482,-100,4,2,0,85,0,1
175677,-100,4,2,2,85,0,1
186391,-100,4,2,2,85,0,0
187170,-133.333333333333,4,2,2,70,0,0
187560,-133.333333333333,4,2,2,30,0,0

[Colours]
Combo1 : 157,118,26
Combo2 : 255,94,174
Combo3 : 128,64,64
Combo4 : 153,23,63

[HitObjects]
128,116,19638,6,0,P|120:160|136:209,1,90,4|0,0:0|0:0,0:0:0:0:
329,177,20027,2,0,P|269:149|210:161,1,120,2|0,0:3|0:0,0:0:0:0:
208,136,20417,2,0,P|208:92|172:46,1,90,0|0,0:0|0:0,0:0:0:0:
295,32,20807,2,0,L|383:12,1,90,2|0,0:3|0:0,0:0:0:0:
104,28,21196,5,0,0:0:0:0:
104,28,21586,6,0,P|88:88|38:139,1,120,2|0,0:3|0:0,0:0:0:0:
33,158,21975,2,0,L|61:250,1,90,0|0,0:0|0:0,0:0:0:0:
233,176,22365,1,2,0:3:0:0:
122,328,22560,1,0,0:0:0:0:
177,76,22755,5,0,0:0:0:0:
122,328,23144,2,0,P|171:348|261:336,1,120,2|0,0:3|0:0,0:0:0:0:
271,330,23534,5,0,0:0:0:0:
204,244,23729,1,0,0:0:0:0:
371,184,23924,1,2,0:3:0:0:
155,144,24118,1,0,0:0:0:0:
406,301,24313,1,0,0:0:0:0:
424,40,24703,6,0,P|372:64|312:68,1,90,2|0,0:0|0:0,0:0:0:0:
304,68,24995,1,0,0:0:0:0:
262,59,25092,2,0,B|235:41|176:64|176:64|102:90|80:56,1,180,0|2,0:0|0:0,0:0:0:0:
246,170,25872,6,0,P|306:158|355:110,1,120,0|0,0:0|0:0,0:0:0:0:
380,121,26261,2,0,L|396:217,1,90,2|0,0:0|0:0,0:0:0:0:
336,316,26651,1,0,0:0:0:0:
479,201,26846,1,0,0:0:0:0:
252,276,27040,2,0,L|237:187,1,90,2|0,0:0|0:0,0:0:0:0:
84,48,27430,6,0,P|56:112|78:170,1,120
108,155,27820,2,0,P|148:123|192:103,1,90,2|0,0:0|0:0,0:0:0:0:
148,260,28209,2,0,P|112:288|71:307,1,90,0|0,0:0|0:0,0:0:0:0:
252,276,28599,1,2,0:0:0:0:
100,160,28794,1,0,0:0:0:0:
276,60,28988,6,0,P|324:88|324:164,1,120,0|0,0:0|0:0,0:0:0:0:
321,177,29378,2,0,L|417:173,1,90,2|0,0:0|0:0,0:0:0:0:
252,276,29768,1,0,0:0:0:0:
471,241,29962,1,0,0:0:0:0:
236,144,30157,2,0,P|182:125|140:128,1,90,2|0,0:0|0:0,0:0:0:0:
396,134,30547,6,0,B|427:99|419:38,1,90,0|0,0:0|0:0,0:0:0:0:
236,144,30937,2,0,P|220:186|221:231,1,90,2|0,0:0|0:0,0:0:0:0:
239,261,31229,1,0,0:0:0:0:
261,288,31326,2,0,P|213:284|165:300,1,90,0|0,0:0|0:0,0:0:0:0:
384,72,31716,1,2,0:0:0:0:
384,72,32105,6,0,L|376:120,1,45,0|0,0:0|0:0,0:0:0:0:
162,145,32495,2,0,L|174:95,1,45,2|0,0:0|0:0,0:0:0:0:
314,222,32885,2,0,L|306:266,1,45
75,287,33274,2,0,L|87:238,1,45,2|0,0:0|0:0,0:0:0:0:
296,360,33664,5,2,0:0:0:0:
416,240,33859,1,0,0:0:0:0:
432,208,33956,1,0,0:0:0:0:
440,168,34053,2,0,P|424:120|392:92,1,90,0|0,0:0|0:0,0:0:0:0:
181,172,34443,2,0,B|232:143|264:167|296:191|356:163,1,180,2|0,0:0|0:0,0:0:0:0:
112,224,35222,6,0,P|96:180|106:122,1,90,2|0,0:0|0:0,0:0:0:0:
152,48,35612,2,0,P|212:56|264:40,1,90
48,56,36001,1,2,0:0:0:0:
188,137,36196,2,0,L|180:172,1,30,0|0,0:0|0:0,0:0:0:0:
216,156,36359,2,0,L|292:236,1,90,0|0,0:0|0:0,0:0:0:0:
448,160,36781,6,0,P|460:100|448:60,1,90,2|0,0:0|0:0,0:0:0:0:
234,125,37170,1,2,0:0:0:0:
380,220,37365,1,0,0:0:0:0:
312,88,37560,2,0,P|330:43|366:16,1,90,2|0,0:0|0:0,0:0:0:0:
380,220,37949,2,0,L|398:256,4,26.9999991760254,2|0|2|0|2,0:0|0:0|0:0|0:0|0:0,0:0:0:0:
200,208,38339,6,0,P|160:172|152:110,1,112.5,10|0,0:0|0:0,0:0:0:0:
164,92,38664,1,0,0:0:0:0:
177,74,38729,2,0,P|129:62|69:78,1,90,8|8,0:0|0:0,0:0:0:0:
352,144,39118,2,0,P|368:96|356:40,1,90,8|8,0:0|0:0,0:0:0:0:
256,180,39508,1,8,0:0:0:0:
456,104,39703,1,8,0:0:0:0:
276,92,39898,6,0,P|228:92|188:116,1,90,10|8,0:0|0:0,0:0:0:0:
164,135,40190,1,0,0:0:0:0:
144,164,40287,2,0,L|136:264,1,90,8|8,0:0|0:0,0:0:0:0:
240,324,40677,2,0,P|300:328|353:285,1,90,8|8,0:0|0:0,0:0:0:0:
250,79,41066,2,0,L|234:51,3,30,8|0|0|8,0:0|0:0|0:0|0:0,0:0:0:0:
388,156,41456,6,0,B|420:124|420:124|432:76,1,90,10|10,0:0|0:0,0:0:0:0:
240,247,41846,1,8,0:0:0:0:
340,72,42040,1,8,0:0:0:0:
199,157,42235,2,0,B|167:125|167:125|157:82,1,90,10|8,0:0|0:0,0:0:0:0:
102,213,42625,1,10,0:0:0:0:
296,156,42820,1,8,0:0:0:0:
105,46,43014,6,0,L|141:90,1,45,10|0,0:0|0:0,0:0:0:0:
264,119,43209,2,0,L|224:77,1,45,8|0,0:0|0:0,0:0:0:0:
71,150,43404,2,0,L|100:185,1,45,10|0,0:0|0:0,0:0:0:0:
383,116,43599,2,0,L|353:82,1,45,8|0,0:0|0:0,0:0:0:0:
262,241,43794,6,0,B|269:253|269:253|281:255|281:255|284:266|284:266|294:267|294:267|297:276|297:276|307:279|307:279|311:287|311:287|320:290|320:290|325:300,1,90,2|2,0:0|0:0,0:0:0:0:
385,228,44378,1,0,0:0:0:0:
108,228,44573,6,0,P|92:180|112:120,1,90,4|0,0:0|0:0,0:0:0:0:
128,108,44865,1,0,0:0:0:0:
164,84,44962,1,8,0:3:0:0:
64,40,45157,1,0,0:0:0:0:
176,180,45352,2,0,P|224:176|268:152,1,90,8|0,0:0|0:0,0:0:0:0:
224,264,45742,1,8,0:3:0:0:
164,84,45937,1,0,0:0:0:0:
348,132,46131,5,8,0:0:0:0:
478,76,46326,1,0,0:0:0:0:
347,167,46521,1,8,0:3:0:0:
217,108,46716,1,0,0:0:0:0:
348,202,46911,1,8,0:0:0:0:
348,56,47105,1,0,0:0:0:0:
224,264,47300,6,0,P|168:272|120:260,1,90,8|0,0:3|0:0,0:0:0:0:
332,196,47690,1,8,0:0:0:0:
212,176,47885,1,0,0:0:0:0:
236,140,47982,1,0,0:0:0:0:
272,116,48079,1,8,0:3:0:0:
344,288,48274,1,0,0:0:0:0:
316,108,48469,2,0,P|288:64|256:44,1,90,8|0,0:0|0:0,0:0:0:0:
208,220,48859,1,8,0:3:0:0:
76,55,49053,1,0,0:0:0:0:
76,56,49248,6,0,B|84:101|84:101|44:148,1,90,8|0,0:0|0:0,0:0:0:0:
277,123,49638,2,0,B|248:89|248:89|256:44,1,90,8|0,0:3|0:0,0:0:0:0:
181,296,50027,1,8,0:0:0:0:
135,124,50222,1,0,0:0:0:0:
200,289,50417,1,8,0:3:0:0:
60,194,50612,1,0,0:0:0:0:
264,252,50807,6,0,P|248:196|256:144,1,90,8|0,0:0|0:0,0:0:0:0:
272,124,51099,1,0,0:0:0:0:
308,96,51196,1,8,0:3:0:0:
344,296,51391,1,0,0:0:0:0:
164,254,51586,2,0,P|151:211|160:168,2,90,8|0|8,0:0|0:0|0:3,0:0:0:0:
200,88,52170,1,0,0:0:0:0:
360,176,52365,6,0,B|388:188|388:188|424:184|424:184|464:192,1,90,8|0,0:0|0:0,0:0:0:0:
204,248,52755,2,0,B|176:260|176:260|140:256|140:256|100:264,1,90,8|0,0:3|0:0,0:0:0:0:
360,176,53144,2,0,P|348:121|243:68,1,180,8|8,0:0|0:3,0:0:0:0:
247,331,53729,1,0,0:0:0:0:
40,144,53924,6,0,P|24:200|60:248,1,90,8|0,0:0|0:0,0:0:0:0:
171,341,54313,2,0,P|180:297|160:258,1,90,8|0,0:3|0:0,0:0:0:0:
139,231,54605,1,0,0:0:0:0:
124,204,54703,2,0,P|180:204|232:172,1,90,8|0,0:0|0:0,0:0:0:0:
280,36,55092,1,8,0:3:0:0:
456,300,55482,6,0,P|412:320|356:312,1,90,8|0,0:0|0:0,0:0:0:0:
371,317,55774,1,0,0:0:0:0:
371,317,55872,1,8,0:3:0:0:
369,165,56066,1,8,0:0:0:0:
223,250,56261,1,0,0:0:0:0:
116,124,56456,1,8,0:0:0:0:
261,153,56651,5,8,0:3:0:0:
219,32,56846,1,8,0:3:0:0:
80,232,57040,6,0,L|64:184,1,45,6|0,0:0|0:0,0:0:0:0:
216,216,57235,2,0,L|232:264,1,45,0|0,0:0|0:0,0:0:0:0:
120,312,57430,2,0,L|156:280,1,45,8|0,0:3|0:0,0:0:0:0:
144,172,57625,2,0,L|178:143,1,45,0|0,0:0|0:0,0:0:0:0:
332,84,57820,6,0,L|288:136,1,45,10|0,0:0|0:0,0:0:0:0:
384,168,58014,2,0,L|408:220,1,45,0|0,0:0|0:0,0:0:0:0:
308,224,58209,2,0,L|276:264,1,45,8|0,0:3|0:0,0:0:0:0:
364,304,58404,2,0,L|388:360,1,45,0|0,0:0|0:0,0:0:0:0:
264,144,58599,6,0,L|216:112,1,45,10|0,0:0|0:0,0:0:0:0:
180,208,58794,2,0,L|128:204,1,45,0|0,0:0|0:0,0:0:0:0:
136,296,58988,2,0,L|92:328,1,45,10|0,0:3|0:0,0:0:0:0:
248,276,59183,2,0,L|258:232,1,45,0|0,0:0|0:0,0:0:0:0:
204,364,59378,1,10,0:0:0:0:
240,380,59475,1,0,0:0:0:0:
280,380,59573,1,0,0:0:0:0:
320,368,59670,1,0,0:0:0:0:
356,344,59768,6,0,L|392:300,1,45,8|0,0:3|0:0,0:0:0:0:
320,240,59962,2,0,L|344:180,1,45,0|0,0:0|0:0,0:0:0:0:
264,140,60157,6,0,L|212:108,3,45,10|0|0|0,0:0|0:0|0:0|0:0,0:0:0:0:
354,124,60547,2,0,L|414:100,1,45,8|0,0:3|0:0,0:0:0:0:
240,216,60742,2,0,L|172:228,1,45,0|0,0:0|0:0,0:0:0:0:
340,248,60937,5,10,0:0:0:0:
368,236,61034,1,0,0:0:0:0:
396,224,61131,2,0,L|452:236,1,45,0|0,0:0|0:0,0:0:0:0:
252,344,61326,5,10,0:3:0:0:
232,328,61424,1,0,0:0:0:0:
212,308,61521,2,0,L|212:236,1,45,0|0,0:0|0:0,0:0:0:0:
88,160,61716,5,10,0:0:0:0:
68,176,61814,1,0,0:0:0:0:
48,196,61911,2,0,L|48:268,1,45,0|0,0:0|0:0,0:0:0:0:
260,184,62105,5,10,0:3:0:0:
280,168,62203,1,0,0:0:0:0:
300,148,62300,2,0,L|300:76,1,45,0|0,0:0|0:0,0:0:0:0:
136,24,62495,6,0,L|104:64,1,45,10|0,0:0|0:0,0:0:0:0:
175,123,62690,2,0,L|127:147,1,45,0|0,0:0|0:0,0:0:0:0:
175,242,62885,2,0,L|111:226,1,45,8|0,0:3|0:0,0:0:0:0:
110,333,63079,2,0,L|65:313,1,45,0|0,0:0|0:0,0:0:0:0:
64,96,63274,6,0,L|40:48,1,45,10|0,0:0|0:0,0:0:0:0:
232,88,63469,2,0,L|252:128,1,45,0|0,0:0|0:0,0:0:0:0:
156,112,63664,2,0,L|135:71,1,45,8|0,0:3|0:0,0:0:0:0:
328,100,63859,2,0,L|357:153,1,45,0|0,0:0|0:0,0:0:0:0:
248,244,64053,6,0,L|226:203,1,45,10|0,0:0|0:0,0:0:0:0:
136,148,64248,2,0,L|120:192,1,45,0|0,0:0|0:0,0:0:0:0:
295,134,64443,2,0,L|256:112,1,45,8|0,0:3|0:0,0:0:0:0:
220,332,64638,2,0,L|276:324,1,45,0|0,0:0|0:0,0:0:0:0:
372,256,64833,6,0,L|316:248,1,45,10|0,0:0|0:0,0:0:0:0:
192,216,65027,2,0,L|248:208,1,45,0|0,0:0|0:0,0:0:0:0:
332,136,65222,2,0,L|276:128,1,45,10|0,0:3|0:0,0:0:0:0:
152,96,65416,2,0,L|208:88,1,45,0|0,0:0|0:0,0:0:0:0:
308,22,65612,2,0,L|252:14,1,45,10|0,0:0|0:0,0:0:0:0:
280,216,65807,5,0,0:0:0:0:
320,224,65904,1,0,0:0:0:0:
360,220,66001,1,8,0:3:0:0:
400,204,66099,1,0,0:0:0:0:
432,176,66196,2,0,L|448:112,1,45,0|0,0:0|0:0,0:0:0:0:
221,63,66391,5,10,0:0:0:0:
232,88,66488,1,0,0:0:0:0:
244,112,66586,2,0,L|283:139,1,45,0|0,0:0|0:0,0:0:0:0:
117,135,66781,5,10,0:3:0:0:
128,160,66878,1,0,0:0:0:0:
140,184,66976,2,0,L|179:211,1,45,0|0,0:0|0:0,0:0:0:0:
28,228,67171,5,10,0:0:0:0:
39,253,67268,1,0,0:0:0:0:
52,276,67366,2,0,L|91:303,1,45,0|0,0:0|0:0,0:0:0:0:
256,312,67560,5,10,0:3:0:0:
288,288,67657,1,0,0:0:0:0:
328,276,67755,2,0,L|400:288,1,45,0|0,0:0|0:0,0:0:0:0:
405,154,67949,6,0,L|408:109,1,45,8|0,0:0|0:0,0:0:0:0:
222,200,68144,2,0,L|218:244,1,45,0|0,0:0|0:0,0:0:0:0:
312,192,68339,2,0,L|314:146,1,45,8|0,0:3|0:0,0:0:0:0:
134,255,68534,2,0,L|130:299,1,45,0|0,0:0|0:0,0:0:0:0:
140,136,68729,6,0,P|96:128|60:140,1,67.5,10|0,0:0|0:0,0:0:0:0:
176,112,69118,6,0,P|114:88|49:104,1,135.000005149842,12|0,0:3|0:0,0:0:0:0:
284,116,69508,5,10,0:0:0:0:
232,24,69703,1,0,0:0:0:0:
444,56,69898,1,8,0:3:0:0:
452,88,69995,1,0,0:0:0:0:
460,120,70092,1,0,0:0:0:0:
312,212,70287,1,10,0:0:0:0:
204,200,70482,1,0,0:0:0:0:
372,95,70677,1,8,0:3:0:0:
364,63,70774,1,0,0:0:0:0:
356,31,70872,1,0,0:0:0:0:
312,212,71066,5,10,0:0:0:0:
370,301,71261,1,0,0:0:0:0:
204,200,71456,1,8,0:3:0:0:
172,200,71553,1,0,0:0:0:0:
140,201,71651,1,0,0:0:0:0:
300,88,71846,1,10,0:0:0:0:
208,52,72040,2,0,L|190:-2,2,30,0|0|0,0:0|0:0|0:0,0:0:0:0:
188,84,72235,2,0,L|76:64,1,90,8|0,0:3|0:0,0:0:0:0:
280,176,72625,6,0,P|324:184|376:168,1,90,10|0,0:0|0:0,0:0:0:0:
136,152,73014,1,8,0:3:0:0:
136,152,73112,1,0,0:0:0:0:
136,152,73209,1,0,0:0:0:0:
176,260,73404,2,0,P|132:268|80:252,1,90,10|0,0:0|0:0,0:0:0:0:
320,236,73793,1,8,0:3:0:0:
320,236,73891,1,0,0:0:0:0:
320,236,73988,1,0,0:0:0:0:
404,92,74183,5,10,0:0:0:0:
248,156,74378,1,2,0:0:0:0:
420,200,74573,1,10,0:3:0:0:
296,68,74768,1,0,0:0:0:0:
180,212,74962,1,8,0:0:0:0:
180,212,75011,2,0,L|146:240,2,45,0|0|0,0:0|0:0|0:0,0:0:0:0:
420,200,75352,2,0,P|428:256|420:304,1,90,8|0,0:3|0:0,0:0:0:0:
208,192,75742,5,10,0:0:0:0:
324,244,75937,1,0,0:0:0:0:
188,104,76131,2,0,L|144:124,2,45,8|0|0,0:3|0:0|0:0,0:0:0:0:
256,32,76521,1,10,0:0:0:0:
120,200,76716,1,0,0:0:0:0:
280,116,76911,2,0,L|324:136,2,45,8|0|0,0:3|0:0|0:0,0:0:0:0:
60,128,77300,5,10,0:0:0:0:
172,8,77495,1,0,0:0:0:0:
188,264,77690,1,8,0:3:0:0:
220,264,77787,1,0,0:0:0:0:
252,264,77885,1,0,0:0:0:0:
120,200,78079,5,10,0:0:0:0:
280,108,78274,2,0,L|286:79,2,30,0|0|0,0:0|0:0|0:0,0:0:0:0:
301,45,78469,2,0,P|369:37|397:21,1,90,8|0,0:3|0:0,0:0:0:0:
200,60,78859,6,0,L|100:88,1,90,10|0,0:0|0:0,0:0:0:0:
92,120,79151,1,0,0:0:0:0:
78,153,79248,2,0,P|102:197|146:213,1,90,10|0,0:3|0:0,0:0:0:0:
175,199,79540,1,0,0:0:0:0:
212,183,79638,2,0,P|264:171|307:190,1,90,10|0,0:0|0:0,0:0:0:0:
333,200,79930,1,0,0:0:0:0:
373,204,80027,1,10,0:3:0:0:
410,186,80125,1,0,0:0:0:0:
439,158,80222,2,0,L|454:115,1,45
312,344,80417,5,2,1:3:0:0:
200,40,80709,1,2,1:3:0:0:
184,264,81001,1,8,0:0:0:0:
328,112,81196,6,0,B|332:144|332:144|324:156|324:156|324:192|324:192|316:204|316:204|316:240|316:240|308:252|308:252|308:300,1,180,2|0,1:3|0:0,0:0:0:0:
308,284,81975,6,0,P|396:296|448:256,1,135,8|0,0:0|0:0,0:0:0:0:
280,260,82365,2,0,L|252:354,1,90,2|0,0:0|0:0,0:0:0:0:
364,212,82755,1,0,0:0:0:0:
224,180,82949,1,8,0:0:0:0:
315,116,83144,1,2,0:0:0:0:
280,260,83339,1,2,0:0:0:0:
396,128,83534,5,8,0:3:0:0:
180,40,83826,1,0,0:0:0:0:
180,40,83924,2,0,P|152:88|120:112,1,90,2|0,0:0|0:0,0:0:0:0:
212,320,84313,2,0,P|240:272|272:248,1,90,0|8,0:0|0:0,0:0:0:0:
84,192,84703,2,0,P|44:160|32:104,1,90,2|2,0:0|0:0,0:0:0:0:
296,48,85092,5,8,0:3:0:0:
320,68,85190,1,0,0:0:0:0:
334,95,85287,1,0,0:0:0:0:
359,113,85385,1,0,0:0:0:0:
374,140,85482,2,0,P|418:108|430:56,1,90,2|0,0:0|0:0,0:0:0:0:
240,152,85872,1,0,0:0:0:0:
153,282,86066,1,8,0:0:0:0:
264,128,86261,2,0,P|221:89|152:80,1,90,2|2,0:0|0:0,0:0:0:0:
308,204,86651,6,0,P|356:220|404:216,1,90,8|0,0:3|0:0,0:0:0:0:
420,204,86943,1,0,0:0:0:0:
448,184,87040,2,0,L|464:88,1,90,2|0,0:0|0:0,0:0:0:0:
448,68,87333,1,0,0:0:0:0:
404,84,87430,1,0,0:0:0:0:
360,96,87527,1,0,0:0:0:0:
316,100,87625,1,0,0:0:0:0:
272,88,87722,1,0,0:0:0:0:
232,68,87820,6,0,L|225:129,1,45,0|0,0:0|0:0,0:0:0:0:
292,228,88014,2,0,L|297:184,1,45,2|0,0:0|0:0,0:0:0:0:
196,264,88209,2,0,L|184:360,1,90,8|0,0:3|0:0,0:0:0:0:
400,212,88599,2,0,L|412:116,2,90,2|0|0,0:0|0:0|0:0,0:0:0:0:
260,108,89183,6,0,L|228:64,1,45,8|0,0:0|0:0,0:0:0:0:
172,152,89378,2,0,L|152:192,1,45,2|0,0:0|0:0,0:0:0:0:
248,200,89573,2,0,L|292:195,1,45,2|0,0:0|0:0,0:0:0:0:
140,56,89768,1,8,0:3:0:0:
408,52,90109,5,0,0:0:0:0:
408,52,90157,2,0,P|360:36|292:64,1,90,2|0,0:0|0:0,0:0:0:0:
296,68,90449,1,0,0:0:0:0:
268,92,90547,2,0,L|264:144,1,45,0|0,0:0|0:0,0:0:0:0:
172,152,90742,2,0,L|168:204,1,45,0|0,0:0|0:0,0:0:0:0:
72,212,90937,2,0,L|64:304,1,90,0|0,0:0|0:0,0:0:0:0:
86,113,91326,2,0,P|127:69|214:68,1,135,8|0,0:3|0:0,0:0:0:0:
198,61,91716,5,2,0:0:0:0:
199,241,91911,1,8,0:0:0:0:
240,164,92105,2,0,B|196:152|196:152|153:165,1,90,0|8,0:0|0:0,0:0:0:0:
336,168,92495,2,0,L|408:96,1,90,2|2,0:0|0:0,0:0:0:0:
284,252,92885,6,0,P|216:228|128:272,1,161.999995056153,8|0,0:3|0:0,0:0:0:0:
160,288,93274,6,0,P|212:264|280:292,1,108,2|0,0:0|0:0,0:0:0:0:
248,304,93664,6,0,P|212:304|176:324,1,67.5000025749208,0|0,0:0|0:0,0:0:0:0:
334,338,94053,2,0,P|368:336|400:320,1,67.5000025749208,2|2,0:0|0:0,0:0:0:0:
501,211,94443,1,4,0:0:0:0:
172,112,100677,5,10,0:0:0:0:
229,169,100872,1,8,0:0:0:0:
171,226,101066,1,8,0:0:0:0:
114,169,101261,1,8,0:0:0:0:
240,49,101456,5,10,0:0:0:0:
52,108,101651,1,8,0:0:0:0:
112,296,101846,1,8,0:0:0:0:
296,228,102040,1,8,0:0:0:0:
320,84,102235,5,10,0:0:0:0:
216,224,102430,1,8,0:0:0:0:
316,112,102625,1,10,0:0:0:0:
420,252,102820,1,8,0:0:0:0:
312,144,103014,2,0,P|264:152|196:124,1,90,10|8,0:0|0:0,0:0:0:0:
108,60,103404,1,8,0:0:0:0:
108,60,103599,1,8,0:0:0:0:
120,224,103794,6,0,P|120:276|92:328,1,90,10|10,0:0|0:0,0:0:0:0:
16,248,104183,1,8,0:0:0:0:
44,144,104378,1,8,0:0:0:0:
208,336,104573,2,0,P|260:344|320:324,2,90,10|8|8,0:0|0:0|0:0,0:0:0:0:
400,312,105157,1,8,0:0:0:0:
441,148,105352,6,0,L|373:150,1,45,10|0,0:0|0:0,0:0:0:0:
360,72,105547,2,0,L|320:95,1,45,8|0,0:0|0:0,0:0:0:0:
241,87,105742,2,0,L|220:128,1,45,10|0,0:0|0:0,0:0:0:0:
146,163,105937,2,0,L|149:207,1,45,8|0,0:0|0:0,0:0:0:0:
360,72,106132,6,0,B|372:63|372:63|383:66|383:66|391:57|391:57|400:60|400:60|406:53|406:53|417:54|417:54|424:48|424:48,1,67.5,8|0,0:0|0:0,0:0:0:0:
452,56,106521,5,8,0:3:0:0:
356,196,106716,1,8,0:0:0:0:
232,48,106911,6,0,P|220:96|244:144,1,90,4|0,0:0|0:0,0:0:0:0:
256,160,107203,1,0,0:0:0:0:
288,172,107300,1,8,0:3:0:0:
128,40,107495,1,0,0:0:0:0:
320,88,107690,2,0,P|376:68|400:36,2,90,8|0|8,0:0|0:0|0:3,0:0:0:0:
156,60,108274,1,0,0:0:0:0:
128,256,108469,6,0,B|108:272|104:296|104:296|76:296|52:312,1,90,8|0,0:0|0:0,0:0:0:0:
272,208,108859,2,0,B|296:216|318:208|318:208|328:232|358:245,1,90,8|0,0:3|0:0,0:0:0:0:
156,112,109248,2,0,B|148:88|132:72|132:72|148:48|145:18,1,90,8|0,0:0|0:0,0:0:0:0:
212,344,109638,5,8,0:3:0:0:
128,256,109833,1,0,0:0:0:0:
272,256,110027,2,0,P|320:276|344:320,1,90,8|0,0:0|0:0,0:0:0:0:
352,328,110320,1,0,0:0:0:0:
360,352,110417,1,8,0:3:0:0:
372,184,110612,1,0,0:0:0:0:
212,344,110807,2,0,P|146:353|104:332,2,90,8|0|8,0:0|0:0|0:3,0:0:0:0:
252,104,111391,1,0,0:0:0:0:
172,224,111586,6,0,B|144:232|124:224|124:224|104:240|76:244,1,90,8|0,0:0|0:0,0:0:0:0:
340,160,111975,2,0,B|368:152|388:160|388:160|408:144|436:140,1,90,8|0,0:3|0:0,0:0:0:0:
247,266,112365,6,0,L|253:313,1,45,8|0,0:0|0:0,0:0:0:0:
170,217,112560,2,0,L|126:225,1,45,0|0,0:0|0:0,0:0:0:0:
318,210,112755,2,0,L|325:255,1,45,8|0,0:3|0:0,0:0:0:0:
199,130,112949,2,0,L|154:135,1,45,0|0,0:0|0:0,0:0:0:0:
372,112,113144,6,0,P|404:72|412:24,2,90,8|0|8,0:0|0:0|0:3,0:0:0:0:
316,32,113729,1,0,0:0:0:0:
464,231,113924,2,0,B|468:255|468:255|459:289|459:289|468:348,2,90,8|0|8,0:0|0:0|0:3,0:0:0:0:
372,112,114508,1,0,0:0:0:0:
320,320,114703,6,0,P|276:332|224:320,1,90,8|0,0:0|0:0,0:0:0:0:
128,100,115092,2,0,P|172:88|224:100,1,90,8|0,0:3|0:0,0:0:0:0:
120,320,115482,1,8,0:0:0:0:
440,184,115872,5,8,0:3:0:0:
300,244,116066,1,0,0:0:0:0:
376,116,116261,2,0,B|400:72|400:72|452:36,1,90,8|0,0:0|0:0,0:0:0:0:
392,260,116651,1,8,0:3:0:0:
276,81,116846,2,0,L|272:41,2,30
244,92,117040,2,0,L|152:52,1,90,8|0,0:0|0:0,0:0:0:0:
264,320,117430,2,0,L|356:360,1,90,8|0,0:3|0:0,0:0:0:0:
107,200,117820,6,0,P|71:252|67:292,1,90,8|0,0:0|0:0,0:0:0:0:
58,312,118112,1,0,0:0:0:0:
56,348,118209,2,0,P|108:332|148:340,1,90,8|8,0:3|0:0,0:0:0:0:
140,108,118599,2,0,P|95:102|53:118,1,90,8|8,0:0|0:0,0:0:0:0:
200,184,118988,5,8,0:3:0:0:
256,48,119183,1,8,0:3:0:0:
304,176,119378,6,0,L|312:224,1,45,6|0,0:0|0:0,0:0:0:0:
416,244,119573,2,0,L|408:196,1,45,0|0,0:0|0:0,0:0:0:0:
244,284,119768,2,0,L|252:332,1,45,8|0,0:3|0:0,0:0:0:0:
356,352,119963,2,0,L|348:304,1,45,0|0,0:0|0:0,0:0:0:0:
240,208,120157,6,0,L|197:193,1,45,10|0,0:0|0:0,0:0:0:0:
340,168,120352,2,0,L|382:154,1,45,0|0,0:0|0:0,0:0:0:0:
232,108,120547,2,0,L|189:92,1,45,8|0,0:3|0:0,0:0:0:0:
350,264,120742,2,0,L|392:248,1,45,0|0,0:0|0:0,0:0:0:0:
446,90,120937,6,0,L|424:48,1,45,10|0,0:0|0:0,0:0:0:0:
328,76,121131,2,0,L|285:61,1,45,0|0,0:0|0:0,0:0:0:0:
250,155,121326,2,0,L|205:165,1,45,10|0,0:3|0:0,0:0:0:0:
220,264,121521,2,0,L|184:300,1,45,0|0,0:0|0:0,0:0:0:0:
186,53,121716,6,0,L|161:-15,1,45,10|0,0:0|0:0,0:0:0:0:
117,116,121911,2,0,L|99:72,1,45,0|0,0:0|0:0,0:0:0:0:
282,82,122105,2,0,L|262:32,1,45,8|0,0:3|0:0,0:0:0:0:
226,170,122300,2,0,L|207:123,1,45,0|0,0:0|0:0,0:0:0:0:
124,240,122495,5,10,0:0:0:0:
144,248,122592,1,0,0:0:0:0:
164,256,122690,2,0,L|216:248,1,45,0|0,0:0|0:0,0:0:0:0:
312,128,122885,5,8,0:3:0:0:
272,112,122982,1,0,0:0:0:0:
228,116,123079,1,0,0:0:0:0:
184,128,123177,1,0,0:0:0:0:
144,112,123274,2,0,L|164:64,3,45,10|0|0|0,0:0|0:0|0:0|0:0,0:0:0:0:
96,272,123664,5,10,0:3:0:0:
104,288,123761,1,0,0:0:0:0:
112,304,123859,2,0,L|184:320,1,45,0|0,0:0|0:0,0:0:0:0:
289,182,124053,5,10,0:0:0:0:
272,180,124150,1,0,0:0:0:0:
254,177,124248,2,0,L|199:226,1,45,0|0,0:0|0:0,0:0:0:0:
296,312,124443,5,10,0:3:0:0:
304,328,124540,1,0,0:0:0:0:
312,344,124638,2,0,L|384:360,1,45,0|0,0:0|0:0,0:0:0:0:
424,240,124833,6,0,L|376:248,1,45,10|0,0:0|0:0,0:0:0:0:
272,216,125027,2,0,L|224:220,1,45,0|0,0:0|0:0,0:0:0:0:
112,180,125222,2,0,L|64:184,1,45,8|0,0:3|0:0,0:0:0:0:
192,100,125417,2,0,L|236:96,1,45,0|0,0:0|0:0,0:0:0:0:
408,112,125612,6,0,L|378:78,1,45,10|0,0:0|0:0,0:0:0:0:
264,174,125807,2,0,L|240:212,1,45,0|0,0:0|0:0,0:0:0:0:
424,240,126001,2,0,L|392:204,1,45,8|0,0:3|0:0,0:0:0:0:
283,305,126196,2,0,L|260:344,1,45,0|0,0:0|0:0,0:0:0:0:
333,138,126391,6,0,L|377:127,1,45,10|0,0:0|0:0,0:0:0:0:
180,179,126586,2,0,L|137:168,1,45,0|0,0:0|0:0,0:0:0:0:
348,246,126781,2,0,L|391:232,1,45,8|0,0:3|0:0,0:0:0:0:
182,83,126975,2,0,L|134:69,1,45,0|0,0:0|0:0,0:0:0:0:
260,172,127170,5,10,0:0:0:0:
267,212,127268,1,0,0:0:0:0:
248,248,127365,1,0,0:0:0:0:
229,283,127462,1,0,0:0:0:0:
240,322,127560,2,0,L|288:358,1,45,10|0,0:3|0:0,0:0:0:0:
384,273,127755,2,0,L|348:246,1,45,0|0,0:0|0:0,0:0:0:0:
449,196,127949,2,0,L|485:224,1,45,10|0,0:0|0:0,0:0:0:0:
283,69,128144,6,0,L|321:36,1,45,0|0,0:0|0:0,0:0:0:0:
439,62,128339,2,0,L|448:111,1,45,8|0,0:3|0:0,0:0:0:0:
354,188,128534,2,0,L|309:171,1,45,0|0,0:0|0:0,0:0:0:0:
162,225,128729,5,10,0:0:0:0:
150,245,128826,1,0,0:0:0:0:
138,265,128924,2,0,L|70:285,1,45,0|0,0:0|0:0,0:0:0:0:
85,181,129118,5,10,0:3:0:0:
98,161,129215,1,0,0:0:0:0:
110,141,129313,2,0,L|177:121,1,45,0|0,0:0|0:0,0:0:0:0:
280,268,129508,5,10,0:0:0:0:
292,288,129605,1,0,0:0:0:0:
304,308,129703,2,0,L|372:328,1,45,0|0,0:0|0:0,0:0:0:0:
360,220,129898,5,10,0:3:0:0:
348,200,129995,1,0,0:0:0:0:
336,180,130093,2,0,L|268:160,1,45,0|0,0:0|0:0,0:0:0:0:
456,232,130287,5,8,0:0:0:0:
324,88,130482,1,0,0:0:0:0:
172,216,130677,1,8,0:3:0:0:
408,144,130872,1,0,0:0:0:0:
260,152,131066,6,0,L|188:120,1,67.5,8|0,0:0|0:0,0:0:0:0:
288,139,131456,6,0,L|164:88,1,135.000005149842,12|0,0:3|0:0,0:0:0:0:
60,296,131846,5,10,0:0:0:0:
208,356,132040,1,0,0:0:0:0:
68,192,132235,1,8,0:3:0:0:
60,164,132333,1,0,0:0:0:0:
52,136,132430,1,0,0:0:0:0:
296,140,132625,1,10,0:0:0:0:
128,92,132820,1,0,0:0:0:0:
276,232,133014,2,0,L|280:284,2,45,8|0|0,0:3|0:0|0:0,0:0:0:0:
324,48,133404,5,10,0:0:0:0:
208,172,133599,1,0,0:0:0:0:
380,204,133794,1,8,0:3:0:0:
408,216,133891,1,0,0:0:0:0:
436,228,133988,1,0,0:0:0:0:
448,112,134183,1,10,0:0:0:0:
392,312,134378,2,0,L|402:350,2,30,0|0|0,0:0|0:0|0:0,0:0:0:0:
368,288,134573,2,0,P|312:276|264:304,1,90,8|0,0:3|0:0,0:0:0:0:
136,144,134962,5,10,0:0:0:0:
72,304,135157,1,0,0:0:0:0:
248,308,135352,2,0,L|296:324,2,45,8|0|0,0:3|0:0|0:0,0:0:0:0:
52,164,135742,1,10,0:0:0:0:
148,356,135937,1,0,0:0:0:0:
224,152,136131,1,8,0:3:0:0:
232,124,136229,1,0,0:0:0:0:
240,100,136326,1,0,0:0:0:0:
432,68,136521,6,0,P|472:104|484:152,2,90,10|2|10,0:0|0:0|0:3,0:0:0:0:
192,32,137105,1,0,0:0:0:0:
392,152,137300,1,8,0:0:0:0:
392,152,137349,2,0,L|382:197,2,45,0|0|0,0:0|0:0|0:0,0:0:0:0:
109,184,137690,2,0,L|124:96,1,90,8|0,0:3|0:0,0:0:0:0:
160,316,138079,6,0,P|120:328|60:308,1,90,10|0,0:0|0:0,0:0:0:0:
236,188,138469,2,0,L|240:132,2,45,8|0|0,0:3|0:0|0:0,0:0:0:0:
352,316,138859,2,0,P|392:328|452:308,1,90,10|0,0:0|0:0,0:0:0:0:
276,188,139248,2,0,L|272:132,2,45,8|0|0,0:3|0:0|0:0,0:0:0:0:
252,284,139638,5,10,0:0:0:0:
264,56,139833,1,0,0:0:0:0:
100,168,140027,1,8,0:3:0:0:
96,196,140125,1,0,0:0:0:0:
92,224,140222,1,0,0:0:0:0:
52,84,140417,1,10,0:0:0:0:
293,246,140612,2,0,L|250:229,2,30,0|0|0,0:0|0:0|0:0,0:0:0:0:
336,248,140807,2,0,P|360:204|360:152,1,90,8|0,0:3|0:0,0:0:0:0:
240,48,141196,6,0,L|208:140,1,90,10|0,0:0|0:0,0:0:0:0:
180,140,141488,1,0,0:0:0:0:
148,148,141586,2,0,L|112:244,1,90,10|0,0:3|0:0,0:0:0:0:
84,240,141878,1,0,0:0:0:0:
52,248,141975,2,0,L|8:352,1,90,10|0,0:0|0:0,0:0:0:0:
48,352,142268,1,0,0:0:0:0:
92,360,142365,1,10,0:3:0:0:
132,340,142462,1,0,0:0:0:0:
176,324,142560,1,0,0:0:0:0:
220,332,142657,1,0,0:0:0:0:
252,348,142755,6,0,L|296:248,2,101.250003862381,2|2|8,1:3|1:3|0:0,0:0:0:0:
428,180,143534,2,0,L|368:320,1,135.000005149842,2|0,1:3|0:0,0:0:0:0:
272,40,144313,5,10,0:0:0:0:
268,52,144508,1,2,0:0:0:0:
264,64,144703,1,2,0:0:0:0:
260,76,144898,1,2,0:0:0:0:
256,88,145092,1,2,0:0:0:0:
252,100,145287,1,2,0:0:0:0:
312,248,145482,2,0,L|336:300,2,45,2|0|0,0:0|0:0|0:0,0:0:0:0:
152,124,145872,5,10,0:0:0:0:
207,172,146066,1,2,0:0:0:0:
140,196,146261,1,2,0:0:0:0:
195,244,146456,1,2,0:0:0:0:
128,269,146651,1,2,0:0:0:0:
183,317,146846,1,2,0:0:0:0:
68,220,147040,2,0,L|64:168,2,45,2|0|0,0:0|0:0|0:0,0:0:0:0:
312,100,147430,5,10,0:0:0:0:
137,132,147625,1,2,0:0:0:0:
324,188,147820,1,2,0:0:0:0:
216,68,148014,1,2,0:0:0:0:
292,272,148209,5,10,0:0:0:0:
392,136,148404,1,2,0:0:0:0:
228,140,148599,1,2,0:0:0:0:
228,140,148696,1,0,0:0:0:0:
228,140,148794,1,2,0:0:0:0:
424,48,148988,5,10,0:0:0:0:
284,188,149183,1,0,0:0:0:0:
248,212,149281,1,0,0:0:0:0:
204,212,149378,1,2,0:0:0:0:
169,191,149475,1,0,0:0:0:0:
152,144,149573,1,0,0:0:0:0:
164,100,149670,1,0,0:0:0:0:
200,72,149768,2,0,L|212:24,1,45,10|0,0:0|0:0,0:0:0:0:
284,188,149962,2,0,L|272:253,1,45,0|0,0:0|0:0,0:0:0:0:
75,94,150157,2,0,B|90:51|90:51|128:24,1,90,2|0,0:0|0:0,0:0:0:0:
87,268,150547,5,8,0:3:0:0:
87,268,150644,2,0,L|137:296,1,45,2|2,0:0|0:0,0:0:0:0:
276,279,150839,1,2,0:0:0:0:
323,73,151034,6,0,L|299:27,2,45,2|0|0,0:0|0:0|0:0,0:0:0:0:
452,141,151326,1,2,0:0:0:0:
452,141,151424,2,0,L|479:192,1,45,2|0,0:0|0:0,0:0:0:0:
346,291,151618,1,2,0:0:0:0:
138,152,151813,6,0,L|93:139,2,45,2|2|0,0:0|0:0|0:0,0:0:0:0:
156,303,152105,1,8,0:3:0:0:
170,341,152203,2,0,L|232:356,1,45,2|0,0:0|0:0,0:0:0:0:
284,188,152398,1,2,0:0:0:0:
458,301,152592,6,0,L|475:352,2,45,2|0|0,0:0|0:0|0:0,0:0:0:0:
382,179,152885,1,2,0:0:0:0:
382,179,152982,2,0,L|438:149,1,45,2|0,0:0|0:0,0:0:0:0:
456,18,153177,1,2,0:0:0:0:
284,188,153372,6,0,L|282:260,2,45,2|0|0,0:0|0:0|0:0,0:0:0:0:
165,141,153664,1,8,0:3:0:0:
131,111,153761,2,0,L|129:56,1,45,0|0,0:0|0:0,0:0:0:0:
324,33,153956,1,2,0:0:0:0:
387,297,154151,6,0,L|389:253,2,45,2|0|0,0:0|0:0|0:0,0:0:0:0:
234,178,154443,1,2,0:0:0:0:
234,178,154540,2,0,L|228:253,1,45,2|0,0:0|0:0,0:0:0:0:
348,67,154735,1,2,0:0:0:0:
38,54,154929,5,0,0:0:0:0:
38,54,155027,2,0,L|75:99,1,45,2|2,0:0|0:0,0:0:0:0:
77,233,155222,1,8,0:3:0:0:
77,233,155320,2,0,L|134:238,1,45,0|0,0:0|0:0,0:0:0:0:
207,352,155514,1,2,0:0:0:0:
460,337,155709,5,0,0:0:0:0:
460,337,155807,2,0,L|423:292,1,45,2|2,0:0|0:0,0:0:0:0:
421,158,156002,1,8,0:3:0:0:
421,158,156100,2,0,L|363:152,1,45,0|0,0:0|0:0,0:0:0:0:
291,39,156294,1,2,0:0:0:0:
313,340,156488,5,2,0:0:0:0:
313,340,156586,2,0,L|333:292,1,45,0|0,0:0|0:0,0:0:0:0:
456,164,156781,5,8,0:0:0:0:
434,124,156878,1,0,0:0:0:0:
396,99,156975,1,8,0:0:0:0:
350,102,157073,1,0,0:0:0:0:
312,126,157170,1,8,0:0:0:0:
266,130,157268,1,0,0:0:0:0:
231,101,157365,1,8,0:0:0:0:
225,56,157462,1,0,0:0:0:0:
243,14,157560,5,8,0:0:0:0:
212,46,157657,1,0,0:0:0:0:
178,80,157755,1,8,0:0:0:0:
147,111,157852,1,0,0:0:0:0:
115,144,157949,1,8,0:0:0:0:
85,178,158047,1,0,0:0:0:0:
54,211,158144,1,8,0:0:0:0:
26,243,158242,1,0,0:0:0:0:
1,276,158339,6,0,L|55:290,1,45,4|0,0:1|0:0,0:0:0:0:
174,241,158534,2,0,L|130:233,1,45,8|0,0:0|0:0,0:0:0:0:
238,316,158729,2,0,L|290:325,1,45,8|0,0:0|0:0,0:0:0:0:
415,274,158924,2,0,L|366:267,1,45,0|0,0:0|0:0,0:0:0:0:
237,166,159118,6,0,L|268:116,1,45,8|0,0:0|0:0,0:0:0:0:
401,128,159313,2,0,L|433:168,1,45,8|0,0:0|0:0,0:0:0:0:
430,292,159508,2,0,L|402:336,1,45,8|0,0:0|0:0,0:0:0:0:
267,334,159703,2,0,L|234:294,1,45,0|0,0:0|0:0,0:0:0:0:
200,84,159898,5,4,0:1:0:0:
244,78,159995,1,0,0:0:0:0:
285,94,160092,1,8,0:0:0:0:
314,128,160190,1,0,0:0:0:0:
323,171,160287,6,0,L|267:187,1,45,8|0,0:0|0:0,0:0:0:0:
67,188,160482,2,0,L|110:203,1,45,8|0,0:0|0:0,0:0:0:0:
200,84,160677,2,0,L|156:72,1,45,8|0,0:0|0:0,0:0:0:0:
177,306,160872,2,0,L|228:320,1,45,8|0,0:0|0:0,0:0:0:0:
342,211,161066,2,0,L|320:164,1,45,8|0,0:0|0:0,0:0:0:0:
47,147,161261,2,0,L|66:187,1,45,8|0,0:0|0:0,0:0:0:0:
274,253,161456,6,0,L|229:260,1,45,4|8,0:1|0:0,0:0:0:0:
60,358,161651,2,0,L|104:350,1,45,8|8,0:0|0:0,0:0:0:0:
227,175,161846,2,0,L|183:183,1,45,8|8,0:0|0:0,0:0:0:0:
1,287,162040,2,0,L|46:280,1,45,8|8,0:0|0:0,0:0:0:0:
328,352,162235,6,0,L|317:309,1,45,4|8,0:1|0:0,0:0:0:0:
177,223,162430,2,0,L|189:267,1,45,8|8,0:0|0:0,0:0:0:0:
347,291,162625,2,0,L|337:248,1,45,8|8,0:0|0:0,0:0:0:0:
191,139,162820,2,0,L|203:183,1,45,8|8,0:0|0:0,0:0:0:0:
412,94,163014,6,0,P|398:52|366:22,2,90,10|0|0,0:0|0:0|0:0,0:0:0:0:
104,96,163599,1,8,0:0:0:0:
327,104,163794,2,0,B|319:138|338:168|338:168|308:199|308:199|331:218|339:264,1,180,10|8,0:3|0:0,0:0:0:0:
297,346,164378,5,0,0:0:0:0:
440,232,164573,2,0,P|452:180|440:128,1,90,10|0,0:0|0:0,0:0:0:0:
312,240,164962,1,2,0:0:0:0:
372,88,165157,1,8,0:0:0:0:
388,304,165352,2,0,L|488:352,1,90,10|0,0:3|0:0,0:0:0:0:
200,328,165742,5,0,0:0:0:0:
304,236,165937,1,2,0:0:0:0:
167,191,166131,2,0,P|122:187|81:206,1,90,8|0,0:0|0:0,0:0:0:0:
100,244,166424,1,2,0:0:0:0:
123,270,166521,2,0,P|167:282|215:266,1,90,0|8,0:0|0:0,0:0:0:0:
304,136,166911,2,0,B|277:195|310:222|343:248|309:307,1,180,10|0,0:3|0:0,0:0:0:0:
380,168,167495,1,0,0:0:0:0:
212,128,167690,6,0,P|204:172|220:228,1,90,10|0,0:0|0:0,0:0:0:0:
388,48,168079,1,2,0:0:0:0:
280,48,168274,1,8,0:0:0:0:
460,212,168469,2,0,P|468:168|452:112,1,90,10|0,0:3|0:0,0:0:0:0:
160,48,168859,5,0,0:0:0:0:
304,136,169053,1,2,0:0:0:0:
68,152,169248,2,0,P|56:100|60:48,1,90,8|0,0:0|0:0,0:0:0:0:
57,63,169540,1,2,0:0:0:0:
57,63,169638,1,0,0:0:0:0:
24,240,169833,1,8,0:0:0:0:
164,148,170027,2,0,P|212:140|268:160,2,90,10|0|8,0:3|0:0|0:0,0:0:0:0:
164,148,170612,1,0,0:0:0:0:
332,68,170807,6,0,B|376:80|376:80|420:64,1,90,10|0,0:0|0:0,0:0:0:0:
180,68,171196,2,0,B|136:80|136:80|92:64,1,90,2|8,0:0|0:0,0:0:0:0:
252,36,171586,2,0,B|264:96|264:96|252:148|252:148|264:216,1,180,10|8,0:3|0:3,0:0:0:0:
263,212,172170,1,0,0:0:0:0:
116,192,172365,6,0,P|108:244|128:300,1,90,10|0,0:0|0:0,0:0:0:0:
313,317,172755,2,0,L|224:328,1,90,10|0,0:0|0:0,0:0:0:0:
207,306,172998,2,0,L|169:290,1,33.75,0|0,0:0|0:0,0:0:0:0:
188,268,173144,2,0,L|196:160,1,90,10|0,0:3|0:0,0:0:0:0:
444,136,173534,2,0,L|437:225,1,90,10|0,0:0|0:0,0:0:0:0:
320,240,173924,5,8,0:0:0:0:
180,228,174118,1,8,0:0:0:0:
260,96,174313,1,8,0:0:0:0:
400,108,174507,1,8,0:0:0:0:
200,152,174703,1,10,0:0:0:0:
168,136,174800,1,10,0:0:0:0:
140,116,174898,2,0,L|120:68,1,45,8|0,0:0|0:0,0:0:0:0:
4,24,175092,5,8,0:3:0:0:
76,332,175482,5,6,0:0:0:0:
92,176,175677,1,0,0:0:0:0:
172,344,175872,1,8,0:3:0:0:
200,348,175969,1,0,0:0:0:0:
228,352,176066,1,0,0:0:0:0:
388,256,176261,1,10,0:0:0:0:
200,264,176456,1,0,0:0:0:0:
404,344,176651,1,8,0:3:0:0:
432,348,176748,1,0,0:0:0:0:
460,352,176845,1,0,0:0:0:0:
380,124,177040,5,10,0:0:0:0:
296,300,177235,1,0,0:0:0:0:
200,120,177430,2,0,L|176:80,2,45,8|0|0,0:3|0:0|0:0,0:0:0:0:
388,256,177820,1,10,0:0:0:0:
164,208,178014,2,0,L|120:200,2,30,0|0|0,0:0|0:0|0:0,0:0:0:0:
100,216,178209,2,0,L|60:316,1,90,8|0,0:3|0:0,0:0:0:0:
52,80,178599,6,0,P|96:64|140:80,1,90,10|0,0:0|0:0,0:0:0:0:
296,184,178988,1,8,0:3:0:0:
316,208,179086,1,0,0:0:0:0:
336,232,179183,1,0,0:0:0:0:
460,80,179378,2,0,P|416:64|372:80,1,90,10|0,0:0|0:0,0:0:0:0:
216,184,179767,1,8,0:3:0:0:
196,208,179865,1,0,0:0:0:0:
176,232,179962,1,0,0:0:0:0:
276,104,180157,5,10,0:0:0:0:
252,304,180352,1,2,0:0:0:0:
272,128,180547,1,10,0:3:0:0:
164,256,180742,1,0,0:0:0:0:
348,272,180937,1,8,0:0:0:0:
348,272,180985,2,0,L|367:227,2,45,0|0|0,0:0|0:0|0:0,0:0:0:0:
180,160,181326,2,0,P|180:112|208:60,1,90,8|0,0:3|0:0,0:0:0:0:
438,138,181716,5,10,0:0:0:0:
380,56,181911,1,0,0:0:0:0:
268,192,182105,1,8,0:3:0:0:
240,216,182203,1,0,0:0:0:0:
204,228,182300,1,0,0:0:0:0:
348,173,182495,1,10,0:0:0:0:
288,96,182690,1,0,0:0:0:0:
320,272,182884,1,8,0:3:0:0:
348,296,182982,1,0,0:0:0:0:
384,308,183079,1,0,0:0:0:0:
440,128,183274,6,0,B|440:100|440:100|448:80|448:80|440:56|440:56|448:20,1,90,10|0,0:0|0:0,0:0:0:0:
264,92,183664,2,0,L|208:56,2,45,8|0|0,0:3|0:0|0:0,0:0:0:0:
412,224,184053,1,10,0:0:0:0:
200,168,184248,2,0,L|196:204,2,30,0|0|0,0:0|0:0|0:0,0:0:0:0:
168,144,184443,2,0,B|128:112|128:112|120:72,1,90,8|0,0:3|0:0,0:0:0:0:
28,252,184833,5,10,0:0:0:0:
248,236,185027,1,0,0:0:0:0:
244,264,185125,1,0,0:0:0:0:
240,292,185222,1,10,0:3:0:0:
96,184,185417,1,0,0:0:0:0:
100,156,185515,1,0,0:0:0:0:
104,128,185612,1,10,0:0:0:0:
364,80,185806,5,0,0:0:0:0:
371,115,185903,1,0,0:0:0:0:
362,150,186001,1,10,0:3:0:0:
372,184,186099,1,0,0:0:0:0:
364,219,186196,1,0,0:0:0:0:
454,283,186391,5,2,1:3:0:0:
268,317,186683,1,2,1:3:0:0:
82,349,186975,1,8,0:0:0:0:
160,128,187170,6,0,P|204:96|284:128,1,135.000005149842,6|0,1:3|0:0,0:0:0:0:
