osu file format v14

[General]
AudioFilename: audio.mp3
AudioLeadIn: 0
PreviewTime: 74975
Countdown: 0
SampleSet: Normal
StackLeniency: 0.7
Mode: 1
LetterboxInBreaks: 0
WidescreenStoryboard: 1

[Editor]
Bookmarks: 25105,37572,50040,62507,74975,87442,93676,106143,118611
DistanceSpacing: 1
BeatDivisor: 1
GridSize: 32
TimelineZoom: 1.2

[Metadata]
Title:Senbonzakura
TitleUnicode:Senbonzakura
Artist:Lindsey Stirling
ArtistUnicode:Lindsey Stirling
Creator:Michiru
Version:Kantan
Source:
Tags:Fallmorph gaston_2199 fleure de lapin franklin_dejavu 千本桜 violin Kurousa-P 黒うさP vocaloid 初音ミク Miku Hatsune Shatter Me A Thousand Cherry Blossoms cover
BeatmapID:2140746
BeatmapSetID:1020623

[Difficulty]
HPDrainRate:8
CircleSize:2
OverallDifficulty:3
ApproachRate:10
SliderMultiplier:1.4
SliderTickRate:1

[Events]
//Background and Video events
0,0,"BG.jpg",0,40
//Break Periods
//Storyboard Layer 0 (Background)
//Storyboard Layer 1 (Fail)
//Storyboard Layer 2 (Pass)
//Storyboard Layer 3 (Foreground)
//Storyboard Layer 4 (Overlay)
//Storyboard Sound Samples

[TimingPoints]
25105,389.61038961039,4,1,0,60,1,0
37572,-100,4,1,0,70,0,0
50040,-100,4,1,0,80,0,0
74975,-100,4,1,0,90,0,1
87053,-100,4,1,0,80,0,0
118611,-100,4,1,0,90,0,1
130689,-100,4,1,0,90,0,0

[HitObjects]
256,192,25105,5,0,0:0:0:0:
256,192,26663,1,8,0:0:0:0:
256,192,27442,1,0,0:0:0:0:
256,192,28222,1,8,0:0:0:0:
256,192,29780,1,0,0:0:0:0:
256,192,30559,1,8,0:0:0:0:
256,192,31339,1,8,0:0:0:0:
256,192,32897,1,8,0:0:0:0:
256,192,33676,1,0,0:0:0:0:
259,194,34455,1,8,0:0:0:0:
256,192,36014,1,0,0:0:0:0:
256,192,36793,1,8,0:0:0:0:
256,192,37572,1,8,0:0:0:0:
256,192,39131,1,0,0:0:0:0:
256,192,40689,1,0,0:0:0:0:
256,192,41468,1,8,0:0:0:0:
256,192,42248,1,8,0:0:0:0:
256,192,43806,1,8,0:0:0:0:
256,192,44585,1,0,0:0:0:0:
256,192,45365,1,0,0:0:0:0:
256,192,45754,1,0,0:0:0:0:
256,192,46144,1,8,0:0:0:0:
256,192,46923,1,0,0:0:0:0:
256,192,47702,1,8,0:0:0:0:
256,192,48481,1,8,0:0:0:0:
256,192,48871,1,0,0:0:0:0:
256,192,49261,1,8,0:0:0:0:
256,192,50040,1,0,0:0:0:0:
256,192,51598,1,8,0:0:0:0:
256,192,51988,1,8,0:0:0:0:
256,192,52378,1,0,0:0:0:0:
256,192,53157,1,8,0:0:0:0:
256,192,54715,1,0,0:0:0:0:
256,192,55105,1,8,0:0:0:0:
256,192,55494,1,0,0:0:0:0:
256,192,56274,1,0,0:0:0:0:
256,192,57832,1,8,0:0:0:0:
256,192,58222,1,8,0:0:0:0:
256,192,58611,1,0,0:0:0:0:
256,192,59391,1,8,0:0:0:0:
256,192,60170,1,0,0:0:0:0:
256,192,60949,1,8,0:0:0:0:
256,192,62507,1,0,0:0:0:0:
256,192,63287,1,8,0:0:0:0:
256,192,64066,1,0,0:0:0:0:
256,192,64455,1,8,0:0:0:0:
256,192,64845,1,0,0:0:0:0:
256,192,65624,1,0,0:0:0:0:
256,192,66404,1,0,0:0:0:0:
256,192,67183,1,8,0:0:0:0:
256,192,67572,1,0,0:0:0:0:
256,192,67962,1,8,0:0:0:0:
256,192,68741,1,8,0:0:0:0:
256,192,69520,1,0,0:0:0:0:
256,192,70300,1,0,0:0:0:0:
256,192,70689,1,8,0:0:0:0:
256,192,71079,1,0,0:0:0:0:
256,192,71858,1,8,0:0:0:0:
256,192,72637,1,0,0:0:0:0:
256,192,73416,1,0,0:0:0:0:
256,192,74975,1,0,0:0:0:0:
256,192,75754,1,0,0:0:0:0:
256,192,76144,1,8,0:0:0:0:
256,192,76533,1,0,0:0:0:0:
256,192,77313,1,8,0:0:0:0:
256,192,78092,1,0,0:0:0:0:
256,192,78871,1,8,0:0:0:0:
256,192,79261,1,8,0:0:0:0:
256,192,79650,1,0,0:0:0:0:
256,192,80429,1,8,0:0:0:0:
256,192,81209,1,0,0:0:0:0:
256,192,81988,1,0,0:0:0:0:
256,192,82378,1,8,0:0:0:0:
256,192,82767,1,0,0:0:0:0:
256,192,83546,1,8,0:0:0:0:
256,192,84326,1,8,0:0:0:0:
256,192,84715,1,8,0:0:0:0:
256,192,85105,1,0,0:0:0:0:
256,192,85494,1,8,0:0:0:0:
256,192,85884,1,4,0:0:0:0:
256,192,86663,1,4,0:0:0:0:
256,192,87442,1,8,0:0:0:0:
256,192,89001,1,0,0:0:0:0:
256,192,90559,1,8,0:0:0:0:
256,192,91339,1,8,0:0:0:0:
256,192,92118,1,8,0:0:0:0:
256,192,92897,1,8,0:0:0:0:
256,192,93676,1,0,0:0:0:0:
256,192,95235,1,8,0:0:0:0:
256,192,96793,1,8,0:0:0:0:
256,192,98352,1,0,0:0:0:0:
256,192,99131,1,8,0:0:0:0:
256,192,99910,1,0,0:0:0:0:
256,192,101468,1,8,0:0:0:0:
256,192,103027,1,8,0:0:0:0:
256,192,103806,1,0,0:0:0:0:
256,192,104585,1,8,0:0:0:0:
256,192,105365,1,8,0:0:0:0:
256,192,105754,1,0,0:0:0:0:
256,192,106144,1,0,0:0:0:0:
256,192,106923,1,8,0:0:0:0:
256,192,107702,1,8,0:0:0:0:
256,192,109261,1,0,0:0:0:0:
256,192,110040,1,8,0:0:0:0:
256,192,110819,1,0,0:0:0:0:
256,192,112378,1,0,0:0:0:0:
256,192,113157,1,8,0:0:0:0:
256,192,113936,1,8,0:0:0:0:
256,192,115494,1,0,0:0:0:0:
256,192,116274,1,8,0:0:0:0:
256,192,117053,1,8,0:0:0:0:
256,192,117442,1,8,0:0:0:0:
256,192,117832,1,0,0:0:0:0:
256,192,118611,1,0,0:0:0:0:
256,192,119391,1,0,0:0:0:0:
256,192,119780,1,8,0:0:0:0:
256,192,120170,1,0,0:0:0:0:
256,192,120949,1,8,0:0:0:0:
256,192,121728,1,8,0:0:0:0:
256,192,122507,1,8,0:0:0:0:
256,192,122897,1,8,0:0:0:0:
256,192,123287,1,0,0:0:0:0:
256,192,123676,1,0,0:0:0:0:
256,192,124066,1,8,0:0:0:0:
256,192,124845,1,0,0:0:0:0:
256,192,125624,1,0,0:0:0:0:
256,192,126014,1,8,0:0:0:0:
256,192,126404,1,0,0:0:0:0:
256,192,127183,1,8,0:0:0:0:
256,192,127962,1,8,0:0:0:0:
256,192,128352,1,8,0:0:0:0:
256,192,128741,1,0,0:0:0:0:
256,192,129131,1,8,0:0:0:0:
256,192,129520,1,4,0:0:0:0:
256,192,130300,1,4,0:0:0:0:
