osu file format v14

[General]
AudioFilename: audio.mp3
AudioLeadIn: 0
PreviewTime: 74975
Countdown: 0
SampleSet: Normal
StackLeniency: 0.7
Mode: 1
LetterboxInBreaks: 0
WidescreenStoryboard: 0

[Editor]
Bookmarks: 25105,37572,50040,62507,74975,87442,93676,106143,1186113
DistanceSpacing: 1
BeatDivisor: 4
GridSize: 32
TimelineZoom: 1.9

[Metadata]
Title:Senbonzakura
TitleUnicode:Senbonzakura
Artist:Lindsey Stirling
ArtistUnicode:Lindsey Stirling
Creator:Michiru
Version:Inner Oni
Source:
Tags:Fallmorph gaston_2199 fleure de lapin franklin_dejavu 千本桜 violin Kurousa-P 黒うさP vocaloid 初音ミク Miku Hatsune Shatter Me A Thousand Cherry Blossoms cover
BeatmapID:2135532
BeatmapSetID:1020623

[Difficulty]
HPDrainRate:6
CircleSize:2
OverallDifficulty:6
ApproachRate:10
SliderMultiplier:1.4
SliderTickRate:1

[Events]
//Background and Video events
0,0,"BG.jpg",0,40
//Break Periods
//Storyboard Layer 0 (Background)
//Storyboard Layer 1 (Fail)
//Storyboard Layer 2 (Pass)
//Storyboard Layer 3 (Foreground)
//Storyboard Layer 4 (Overlay)
//Storyboard Sound Samples

[TimingPoints]
25105,389.61038961039,4,1,0,60,1,0
37572,-100,4,1,0,70,0,0
50040,-100,4,1,0,80,0,0
74585,-50,4,1,0,80,0,0
74975,-100,4,1,0,90,0,1
85884,-66.6666666666667,4,1,0,90,0,1
87053,-100,4,1,0,80,0,0
106436,-102.040816326531,4,1,0,70,0,0
106728,-104.166666666667,4,1,0,70,0,0
106923,-106.382978723404,4,1,0,70,0,0
107313,-108.695652173913,4,1,0,70,0,0
107507,-111.111111111111,4,1,0,70,0,0
107702,-113.636363636364,4,1,0,70,0,0
107897,-116.279069767442,4,1,0,70,0,0
108092,-119.047619047619,4,1,0,70,0,0
108286,-121.951219512195,4,1,0,70,0,0
108481,-125,4,1,0,70,0,0
115494,-121.951219512195,4,1,0,70,0,0
115884,-119.047619047619,4,1,0,70,0,0
116274,-116.279069767442,4,1,0,70,0,0
116663,-113.636363636364,4,1,0,70,0,0
117053,-111.111111111111,4,1,0,70,0,0
117248,-109.89010989011,4,1,0,70,0,0
117345,-108.695652173913,4,1,0,70,0,0
117442,-107.52688172043,4,1,0,70,0,0
117637,-106.382978723404,4,1,0,70,0,0
117832,-105.263157894737,4,1,0,70,0,0
117929,-104.166666666667,4,1,0,70,0,0
118027,-103.092783505155,4,1,0,70,0,0
118124,-102.040816326531,4,1,0,70,0,0
118222,-86.9565217391304,4,1,0,80,0,0
118611,-100,4,1,0,90,0,1
129520,-66.6666666666667,4,1,0,90,0,1
130689,-100,4,1,0,90,0,0

[HitObjects]
256,192,25105,5,4,0:0:0:0:
256,192,25494,1,8,0:0:0:0:
256,192,25787,1,0,0:0:0:0:
256,192,25884,1,8,0:0:0:0:
256,192,26079,1,8,0:0:0:0:
256,192,26274,1,0,0:0:0:0:
256,192,26468,1,8,0:0:0:0:
256,192,26663,1,0,0:0:0:0:
256,192,27053,1,8,0:0:0:0:
256,192,27345,1,0,0:0:0:0:
256,192,27442,1,8,0:0:0:0:
256,192,27637,1,0,0:0:0:0:
256,192,27832,1,8,0:0:0:0:
256,192,28027,1,8,0:0:0:0:
256,192,28222,1,0,0:0:0:0:
256,192,28611,1,8,0:0:0:0:
256,192,28904,1,8,0:0:0:0:
256,192,29001,1,0,0:0:0:0:
256,192,29196,1,0,0:0:0:0:
256,192,29391,1,8,0:0:0:0:
256,192,29585,1,0,0:0:0:0:
256,192,29780,1,8,0:0:0:0:
256,192,30170,1,0,0:0:0:0:
256,192,30365,1,8,0:0:0:0:
256,192,30462,1,0,0:0:0:0:
256,192,30559,1,8,0:0:0:0:
256,192,30949,1,0,0:0:0:0:
256,192,31339,1,8,0:0:0:0:
256,192,31631,1,0,0:0:0:0:
256,192,31728,1,8,0:0:0:0:
256,192,31923,1,8,0:0:0:0:
256,192,32118,1,0,0:0:0:0:
256,192,32313,1,0,0:0:0:0:
256,192,32507,1,8,0:0:0:0:
256,192,32702,1,0,0:0:0:0:
256,192,32800,1,0,0:0:0:0:
256,192,32897,1,8,0:0:0:0:
256,192,33189,1,0,0:0:0:0:
256,192,33287,1,8,0:0:0:0:
256,192,33481,1,0,0:0:0:0:
256,192,33676,1,8,0:0:0:0:
256,192,33871,1,0,0:0:0:0:
256,192,34066,1,8,0:0:0:0:
256,192,34261,1,0,0:0:0:0:
256,192,34358,1,0,0:0:0:0:
256,192,34455,1,8,0:0:0:0:
256,192,34748,1,0,0:0:0:0:
256,192,34845,1,8,0:0:0:0:
256,192,35040,1,0,0:0:0:0:
256,192,35235,1,0,0:0:0:0:
256,192,35429,1,8,0:0:0:0:
256,192,35624,1,8,0:0:0:0:
256,192,35819,1,0,0:0:0:0:
256,192,35916,1,0,0:0:0:0:
256,192,36014,1,8,0:0:0:0:
256,192,36404,1,8,0:0:0:0:
256,192,36598,1,8,0:0:0:0:
256,192,36696,1,0,0:0:0:0:
256,192,36793,1,8,0:0:0:0:
256,192,37183,1,0,0:0:0:0:
256,192,37572,1,8,0:0:0:0:
256,192,37767,1,0,0:0:0:0:
256,192,37962,1,8,0:0:0:0:
256,192,38157,1,8,0:0:0:0:
256,192,38352,1,0,0:0:0:0:
256,192,38546,1,0,0:0:0:0:
256,192,38741,1,8,0:0:0:0:
256,192,39131,1,8,0:0:0:0:
256,192,39326,1,0,0:0:0:0:
256,192,39423,1,0,0:0:0:0:
256,192,39520,1,8,0:0:0:0:
256,192,39715,1,8,0:0:0:0:
256,192,39910,1,0,0:0:0:0:
256,192,40300,1,8,0:0:0:0:
256,192,40689,1,0,0:0:0:0:
256,192,40884,1,8,0:0:0:0:
256,192,41079,1,8,0:0:0:0:
256,192,41468,1,8,0:0:0:0:
256,192,41663,1,8,0:0:0:0:
256,192,41761,1,8,0:0:0:0:
256,192,41858,1,0,0:0:0:0:
256,192,42248,1,8,0:0:0:0:
256,192,42637,1,8,0:0:0:0:
256,192,42832,1,8,0:0:0:0:
256,192,43027,1,0,0:0:0:0:
256,192,43416,1,0,0:0:0:0:
256,192,43481,1,0,0:0:0:0:
256,192,43546,1,0,0:0:0:0:
256,192,43611,1,8,0:0:0:0:
256,192,43806,1,8,0:0:0:0:
256,192,44001,1,0,0:0:0:0:
256,192,44066,1,8,0:0:0:0:
256,192,44130,1,8,0:0:0:0:
256,192,44196,1,0,0:0:0:0:
256,192,44585,1,8,0:0:0:0:
256,192,44780,1,0,0:0:0:0:
256,192,44975,1,8,0:0:0:0:
256,192,45170,1,8,0:0:0:0:
256,192,45365,1,0,0:0:0:0:
256,192,45559,1,0,0:0:0:0:
256,192,45657,1,0,0:0:0:0:
256,192,45754,1,8,0:0:0:0:
256,192,45949,1,0,0:0:0:0:
256,192,46144,1,8,0:0:0:0:
256,192,46339,1,0,0:0:0:0:
256,192,46533,1,0,0:0:0:0:
256,192,46598,1,0,0:0:0:0:
256,192,46663,1,0,0:0:0:0:
256,192,46728,1,8,0:0:0:0:
256,192,46923,1,8,0:0:0:0:
256,192,47020,1,0,0:0:0:0:
256,192,47118,1,8,0:0:0:0:
256,192,47313,1,0,0:0:0:0:
256,192,47507,1,8,0:0:0:0:
256,192,47702,1,8,0:0:0:0:
256,192,47897,1,0,0:0:0:0:
256,192,47994,1,0,0:0:0:0:
256,192,48092,1,8,0:0:0:0:
256,192,48189,1,8,0:0:0:0:
256,192,48287,1,0,0:0:0:0:
256,192,48481,1,8,0:0:0:0:
256,192,48579,1,0,0:0:0:0:
256,192,48676,1,8,0:0:0:0:
256,192,48774,1,8,0:0:0:0:
256,192,48871,1,0,0:0:0:0:
256,192,48968,1,0,0:0:0:0:
256,192,49066,1,8,0:0:0:0:
256,192,49163,1,0,0:0:0:0:
256,192,49261,1,8,0:0:0:0:
256,192,49650,1,0,0:0:0:0:
256,192,49845,1,0,0:0:0:0:
256,192,50040,1,8,0:0:0:0:
256,192,50137,1,0,0:0:0:0:
256,192,50332,1,0,0:0:0:0:
256,192,50429,1,8,0:0:0:0:
256,192,50624,1,0,0:0:0:0:
256,192,50819,1,8,0:0:0:0:
256,192,50916,1,8,0:0:0:0:
256,192,51014,1,0,0:0:0:0:
256,192,51111,1,0,0:0:0:0:
256,192,51209,1,8,0:0:0:0:
256,192,51404,1,0,0:0:0:0:
256,192,51598,1,8,0:0:0:0:
256,192,51696,1,0,0:0:0:0:
256,192,51793,1,8,0:0:0:0:
256,192,51988,1,8,0:0:0:0:
256,192,52085,1,8,0:0:0:0:
256,192,52183,1,0,0:0:0:0:
256,192,52378,1,8,0:0:0:0:
256,192,52767,1,8,0:0:0:0:
256,192,52962,1,0,0:0:0:0:
256,192,53157,1,8,0:0:0:0:
256,192,53254,1,0,0:0:0:0:
256,192,53449,1,0,0:0:0:0:
256,192,53546,1,8,0:0:0:0:
256,192,53741,1,0,0:0:0:0:
256,192,53936,1,8,0:0:0:0:
256,192,54033,1,0,0:0:0:0:
256,192,54131,1,0,0:0:0:0:
256,192,54228,1,0,0:0:0:0:
256,192,54326,1,8,0:0:0:0:
256,192,54520,1,0,0:0:0:0:
256,192,54715,1,8,0:0:0:0:
256,192,54813,1,8,0:0:0:0:
256,192,54910,1,0,0:0:0:0:
256,192,55105,1,8,0:0:0:0:
256,192,55300,1,0,0:0:0:0:
256,192,55397,1,0,0:0:0:0:
256,192,55494,1,8,0:0:0:0:
256,192,55884,1,8,0:0:0:0:
256,192,56079,1,0,0:0:0:0:
256,192,56274,1,8,0:0:0:0:
256,192,56371,1,0,0:0:0:0:
256,192,56566,1,0,0:0:0:0:
256,192,56663,1,8,0:0:0:0:
256,192,56858,1,0,0:0:0:0:
256,192,57053,1,8,0:0:0:0:
256,192,57150,1,8,0:0:0:0:
256,192,57248,1,0,0:0:0:0:
256,192,57345,1,0,0:0:0:0:
256,192,57442,1,8,0:0:0:0:
256,192,57637,1,0,0:0:0:0:
256,192,57832,1,8,0:0:0:0:
256,192,57929,1,0,0:0:0:0:
256,192,58027,1,8,0:0:0:0:
256,192,58222,1,8,0:0:0:0:
256,192,58319,1,0,0:0:0:0:
256,192,58416,1,0,0:0:0:0:
256,192,58611,1,8,0:0:0:0:
256,192,59001,1,8,0:0:0:0:
256,192,59196,1,0,0:0:0:0:
256,192,59391,1,8,0:0:0:0:
256,192,59488,1,8,0:0:0:0:
256,192,59585,1,0,0:0:0:0:
256,192,59780,1,8,0:0:0:0:
256,192,59975,1,8,0:0:0:0:
256,192,60072,1,0,0:0:0:0:
256,192,60170,1,8,0:0:0:0:
256,192,60267,1,8,0:0:0:0:
256,192,60365,1,0,0:0:0:0:
256,192,60462,1,0,0:0:0:0:
256,192,60559,1,8,0:0:0:0:
256,192,60754,1,0,0:0:0:0:
256,192,60949,1,8,0:0:0:0:
256,192,61143,1,8,0:0:0:0:
256,192,61241,1,0,0:0:0:0:
256,192,61339,1,8,0:0:0:0:
256,192,61533,1,0,0:0:0:0:
256,192,61631,1,0,0:0:0:0:
256,192,61728,5,8,0:0:0:0:
256,192,61923,1,0,0:0:0:0:
256,192,62118,5,8,0:0:0:0:
256,192,62313,1,0,0:0:0:0:
256,192,62507,1,8,0:0:0:0:
256,192,62605,1,8,0:0:0:0:
256,192,62702,1,8,0:0:0:0:
256,192,62800,1,0,0:0:0:0:
256,192,62897,1,8,0:0:0:0:
256,192,62994,1,0,0:0:0:0:
256,192,63092,1,8,0:0:0:0:
256,192,63189,1,0,0:0:0:0:
256,192,63287,1,8,0:0:0:0:
256,192,63384,1,8,0:0:0:0:
256,192,63481,1,0,0:0:0:0:
256,192,63579,1,0,0:0:0:0:
256,192,63676,1,8,0:0:0:0:
256,192,63774,1,0,0:0:0:0:
256,192,63871,1,8,0:0:0:0:
256,192,63968,1,0,0:0:0:0:
256,192,64066,1,8,0:0:0:0:
256,192,64163,1,8,0:0:0:0:
256,192,64261,1,0,0:0:0:0:
256,192,64358,1,0,0:0:0:0:
256,192,64455,1,8,0:0:0:0:
256,192,64553,1,8,0:0:0:0:
256,192,64650,1,8,0:0:0:0:
256,192,64748,1,0,0:0:0:0:
256,192,64845,1,8,0:0:0:0:
256,192,64942,1,8,0:0:0:0:
256,192,65040,1,0,0:0:0:0:
256,192,65137,1,0,0:0:0:0:
256,192,65235,1,8,0:0:0:0:
256,192,65332,1,8,0:0:0:0:
256,192,65429,1,8,0:0:0:0:
256,192,65527,1,0,0:0:0:0:
256,192,65624,1,8,0:0:0:0:
256,192,65722,1,0,0:0:0:0:
256,192,65819,1,0,0:0:0:0:
256,192,65916,1,0,0:0:0:0:
256,192,66014,1,8,0:0:0:0:
256,192,66111,1,0,0:0:0:0:
256,192,66209,1,8,0:0:0:0:
256,192,66306,1,0,0:0:0:0:
256,192,66404,1,8,0:0:0:0:
256,192,66501,1,0,0:0:0:0:
256,192,66598,1,0,0:0:0:0:
256,192,66696,1,0,0:0:0:0:
256,192,66793,1,8,0:0:0:0:
256,192,66891,1,8,0:0:0:0:
256,192,66988,1,0,0:0:0:0:
256,192,67085,1,0,0:0:0:0:
256,192,67183,1,8,0:0:0:0:
256,192,67280,1,8,0:0:0:0:
256,192,67378,1,0,0:0:0:0:
256,192,67475,1,0,0:0:0:0:
256,192,67572,1,8,0:0:0:0:
256,192,67670,1,8,0:0:0:0:
256,192,67767,1,0,0:0:0:0:
256,192,67865,1,0,0:0:0:0:
256,192,67962,1,8,0:0:0:0:
256,192,68059,1,0,0:0:0:0:
256,192,68157,1,8,0:0:0:0:
256,192,68254,1,0,0:0:0:0:
256,192,68352,1,8,0:0:0:0:
256,192,68449,1,8,0:0:0:0:
256,192,68546,1,8,0:0:0:0:
256,192,68644,1,0,0:0:0:0:
256,192,68741,1,8,0:0:0:0:
256,192,68839,1,8,0:0:0:0:
256,192,68936,1,0,0:0:0:0:
256,192,69033,1,0,0:0:0:0:
256,192,69131,1,8,0:0:0:0:
256,192,69228,1,0,0:0:0:0:
256,192,69326,1,8,0:0:0:0:
256,192,69423,1,0,0:0:0:0:
256,192,69520,1,8,0:0:0:0:
256,192,69618,1,8,0:0:0:0:
256,192,69715,1,0,0:0:0:0:
256,192,69813,1,0,0:0:0:0:
256,192,69910,1,8,0:0:0:0:
256,192,70007,1,0,0:0:0:0:
256,192,70105,1,8,0:0:0:0:
256,192,70202,1,0,0:0:0:0:
256,192,70300,1,8,0:0:0:0:
256,192,70397,1,8,0:0:0:0:
256,192,70494,1,0,0:0:0:0:
256,192,70592,1,0,0:0:0:0:
256,192,70689,1,8,0:0:0:0:
256,192,70787,1,8,0:0:0:0:
256,192,70884,1,8,0:0:0:0:
256,192,70981,1,0,0:0:0:0:
256,192,71079,1,8,0:0:0:0:
256,192,71176,1,8,0:0:0:0:
256,192,71274,1,0,0:0:0:0:
256,192,71371,1,0,0:0:0:0:
256,192,71468,1,8,0:0:0:0:
256,192,71566,1,0,0:0:0:0:
256,192,71663,1,8,0:0:0:0:
256,192,71761,1,0,0:0:0:0:
256,192,71858,1,8,0:0:0:0:
256,192,71955,1,8,0:0:0:0:
256,192,72053,1,0,0:0:0:0:
256,192,72150,1,0,0:0:0:0:
256,192,72248,1,8,0:0:0:0:
256,192,72345,1,8,0:0:0:0:
256,192,72442,1,0,0:0:0:0:
256,192,72540,1,0,0:0:0:0:
256,192,72637,1,8,0:0:0:0:
256,192,72735,1,8,0:0:0:0:
256,192,72832,1,8,0:0:0:0:
256,192,72929,1,0,0:0:0:0:
256,192,73027,1,8,0:0:0:0:
256,192,73124,1,8,0:0:0:0:
256,192,73222,1,0,0:0:0:0:
256,192,73319,1,0,0:0:0:0:
256,192,73416,1,8,0:0:0:0:
256,192,73514,1,0,0:0:0:0:
256,192,73611,1,8,0:0:0:0:
256,192,73709,1,0,0:0:0:0:
256,192,73806,1,8,0:0:0:0:
256,192,73904,1,8,0:0:0:0:
256,192,74001,1,0,0:0:0:0:
256,192,74098,1,0,0:0:0:0:
256,192,74196,1,8,0:0:0:0:
256,192,74391,1,0,0:0:0:0:
256,192,74585,1,12,0:0:0:0:
256,192,74975,1,0,0:0:0:0:
256,192,75170,1,8,0:0:0:0:
256,192,75365,1,8,0:0:0:0:
256,192,75462,1,8,0:0:0:0:
256,192,75560,1,0,0:0:0:0:
256,192,75657,1,8,0:0:0:0:
256,192,75755,1,0,0:0:0:0:
256,192,75949,1,8,0:0:0:0:
256,192,76144,1,8,0:0:0:0:
256,192,76242,1,0,0:0:0:0:
256,192,76339,1,8,0:0:0:0:
256,192,76436,1,0,0:0:0:0:
256,192,76534,1,8,0:0:0:0:
256,192,76729,1,8,0:0:0:0:
256,192,76923,1,8,0:0:0:0:
256,192,77021,1,8,0:0:0:0:
256,192,77118,1,0,0:0:0:0:
256,192,77313,1,8,0:0:0:0:
256,192,77508,1,8,0:0:0:0:
256,192,77573,1,0,0:0:0:0:
256,192,77638,1,0,0:0:0:0:
256,192,77703,1,8,0:0:0:0:
256,192,77897,1,0,0:0:0:0:
256,192,78092,1,0,0:0:0:0:
256,192,78287,1,8,0:0:0:0:
256,192,78482,1,8,0:0:0:0:
256,192,78579,1,0,0:0:0:0:
256,192,78677,1,8,0:0:0:0:
256,192,78774,1,8,0:0:0:0:
256,192,78871,1,0,0:0:0:0:
256,192,79066,1,8,0:0:0:0:
256,192,79261,1,8,0:0:0:0:
256,192,79358,1,8,0:0:0:0:
256,192,79456,1,0,0:0:0:0:
256,192,79651,1,8,0:0:0:0:
256,192,79845,1,0,0:0:0:0:
256,192,79943,1,0,0:0:0:0:
256,192,80040,1,8,0:0:0:0:
256,192,80235,1,0,0:0:0:0:
256,192,80430,1,0,0:0:0:0:
256,192,80495,1,8,0:0:0:0:
256,192,80560,1,8,0:0:0:0:
256,192,80625,1,0,0:0:0:0:
256,192,80722,1,0,0:0:0:0:
256,192,80819,1,8,0:0:0:0:
256,192,81014,1,0,0:0:0:0:
256,192,81209,1,0,0:0:0:0:
256,192,81404,1,8,0:0:0:0:
256,192,81599,1,8,0:0:0:0:
256,192,81696,1,8,0:0:0:0:
256,192,81793,1,0,0:0:0:0:
256,192,81891,1,8,0:0:0:0:
256,192,81988,1,0,0:0:0:0:
256,192,82183,1,8,0:0:0:0:
256,192,82378,1,8,0:0:0:0:
256,192,82475,1,8,0:0:0:0:
256,192,82573,1,0,0:0:0:0:
256,192,82670,1,0,0:0:0:0:
256,192,82768,1,8,0:0:0:0:
256,192,82962,1,8,0:0:0:0:
256,192,83157,1,8,0:0:0:0:
256,192,83255,1,8,0:0:0:0:
256,192,83352,1,0,0:0:0:0:
256,192,83547,1,8,0:0:0:0:
256,192,83742,1,8,0:0:0:0:
256,192,83806,1,0,0:0:0:0:
256,192,83871,1,0,0:0:0:0:
256,192,83936,1,8,0:0:0:0:
256,192,84131,1,0,0:0:0:0:
256,192,84326,1,8,0:0:0:0:
256,192,84520,1,8,0:0:0:0:
256,192,84618,1,0,0:0:0:0:
256,192,84716,1,8,0:0:0:0:
256,192,84910,1,0,0:0:0:0:
256,192,85008,1,0,0:0:0:0:
256,192,85105,1,8,0:0:0:0:
256,192,85300,1,8,0:0:0:0:
256,192,85397,1,0,0:0:0:0:
256,192,85495,1,8,0:0:0:0:
256,192,85592,1,8,0:0:0:0:
256,192,85690,1,0,0:0:0:0:
256,192,85787,1,0,0:0:0:0:
256,192,85884,1,12,0:0:0:0:
256,192,86177,1,12,0:0:0:0:
256,192,86469,1,4,0:0:0:0:
256,192,86664,1,12,0:0:0:0:
256,192,87442,5,4,0:0:0:0:
256,192,87637,1,8,0:0:0:0:
256,192,87832,1,8,0:0:0:0:
256,192,88027,1,8,0:0:0:0:
256,192,88222,1,8,0:0:0:0:
256,192,88416,1,8,0:0:0:0:
256,192,88611,1,8,0:0:0:0:
256,192,88709,1,0,0:0:0:0:
256,192,88806,1,8,0:0:0:0:
256,192,89001,1,12,0:0:0:0:
256,192,89196,1,0,0:0:0:0:
256,192,89391,1,0,0:0:0:0:
256,192,89585,1,0,0:0:0:0:
256,192,89780,1,0,0:0:0:0:
256,192,89975,1,0,0:0:0:0:
256,192,90170,1,0,0:0:0:0:
256,192,90267,1,8,0:0:0:0:
256,192,90365,1,0,0:0:0:0:
256,192,90559,1,12,0:0:0:0:
256,192,90754,1,0,0:0:0:0:
256,192,90949,1,0,0:0:0:0:
256,192,91144,1,0,0:0:0:0:
256,192,91339,1,12,0:0:0:0:
256,192,91533,1,0,0:0:0:0:
256,192,91728,1,8,0:0:0:0:
256,192,91826,1,8,0:0:0:0:
256,192,91923,1,0,0:0:0:0:
256,192,92118,1,12,0:0:0:0:
256,192,92313,1,8,0:0:0:0:
256,192,92410,1,0,0:0:0:0:
256,192,92507,1,8,0:0:0:0:
256,192,92605,1,0,0:0:0:0:
256,192,92702,1,8,0:0:0:0:
256,192,92800,1,8,0:0:0:0:
256,192,92897,1,0,0:0:0:0:
256,192,92994,1,8,0:0:0:0:
256,192,93092,1,8,0:0:0:0:
256,192,93189,1,0,0:0:0:0:
256,192,93287,1,8,0:0:0:0:
256,192,93481,1,0,0:0:0:0:
256,192,93676,1,8,0:0:0:0:
256,192,93871,1,0,0:0:0:0:
256,192,93968,1,8,0:0:0:0:
256,192,94163,1,8,0:0:0:0:
256,192,94261,1,8,0:0:0:0:
256,192,94358,1,0,0:0:0:0:
256,192,94455,1,8,0:0:0:0:
256,192,94650,1,0,0:0:0:0:
256,192,94748,1,8,0:0:0:0:
256,192,94942,1,8,0:0:0:0:
256,192,95040,1,0,0:0:0:0:
256,192,95137,1,0,0:0:0:0:
256,192,95235,1,8,0:0:0:0:
256,192,95332,1,8,0:0:0:0:
256,192,95429,1,0,0:0:0:0:
256,192,95527,1,8,0:0:0:0:
256,192,95722,1,8,0:0:0:0:
256,192,95819,1,0,0:0:0:0:
256,192,95916,1,0,0:0:0:0:
256,192,96014,1,8,0:0:0:0:
256,192,96209,1,0,0:0:0:0:
256,192,96306,1,8,0:0:0:0:
256,192,96501,1,8,0:0:0:0:
256,192,96598,1,8,0:0:0:0:
256,192,96696,1,0,0:0:0:0:
256,192,96793,1,8,0:0:0:0:
256,192,96891,1,0,0:0:0:0:
256,192,96988,1,0,0:0:0:0:
256,192,97085,1,8,0:0:0:0:
256,192,97280,1,8,0:0:0:0:
256,192,97378,1,8,0:0:0:0:
256,192,97475,1,0,0:0:0:0:
256,192,97572,1,8,0:0:0:0:
256,192,97767,1,0,0:0:0:0:
256,192,97865,1,8,0:0:0:0:
256,192,98059,1,8,0:0:0:0:
256,192,98157,1,0,0:0:0:0:
256,192,98352,1,8,0:0:0:0:
256,192,98449,1,0,0:0:0:0:
256,192,98546,1,0,0:0:0:0:
256,192,98644,1,8,0:0:0:0:
256,192,98839,1,0,0:0:0:0:
256,192,98936,1,8,0:0:0:0:
256,192,99033,1,0,0:0:0:0:
256,192,99131,1,8,0:0:0:0:
256,192,99228,1,8,0:0:0:0:
256,192,99326,1,0,0:0:0:0:
256,192,99423,1,8,0:0:0:0:
256,192,99618,1,8,0:0:0:0:
256,192,99715,1,0,0:0:0:0:
256,192,99813,1,8,0:0:0:0:
256,192,99910,5,8,0:0:0:0:
256,192,100007,1,0,0:0:0:0:
256,192,100105,1,8,0:0:0:0:
256,192,100202,1,0,0:0:0:0:
256,192,100300,1,8,0:0:0:0:
256,192,100397,1,8,0:0:0:0:
256,192,100494,1,8,0:0:0:0:
256,192,100592,1,0,0:0:0:0:
256,192,100689,1,8,0:0:0:0:
256,192,100787,1,0,0:0:0:0:
256,192,100884,1,8,0:0:0:0:
256,192,100981,1,0,0:0:0:0:
256,192,101079,1,8,0:0:0:0:
256,192,101176,1,8,0:0:0:0:
256,192,101274,1,8,0:0:0:0:
256,192,101371,1,0,0:0:0:0:
256,192,101468,1,8,0:0:0:0:
256,192,101566,1,0,0:0:0:0:
256,192,101663,1,8,0:0:0:0:
256,192,101761,1,0,0:0:0:0:
256,192,101858,1,8,0:0:0:0:
256,192,101955,1,8,0:0:0:0:
256,192,102053,1,8,0:0:0:0:
256,192,102150,1,0,0:0:0:0:
256,192,102248,1,8,0:0:0:0:
256,192,102345,1,0,0:0:0:0:
256,192,102442,1,8,0:0:0:0:
256,192,102540,1,0,0:0:0:0:
256,192,102637,1,8,0:0:0:0:
256,192,102735,1,8,0:0:0:0:
256,192,102832,1,8,0:0:0:0:
256,192,102929,1,0,0:0:0:0:
256,192,103027,1,8,0:0:0:0:
256,192,103124,1,8,0:0:0:0:
256,192,103222,1,0,0:0:0:0:
256,192,103319,1,0,0:0:0:0:
256,192,103416,1,8,0:0:0:0:
256,192,103514,1,8,0:0:0:0:
256,192,103611,1,0,0:0:0:0:
256,192,103709,1,0,0:0:0:0:
256,192,103806,1,8,0:0:0:0:
256,192,103904,1,0,0:0:0:0:
256,192,104001,1,8,0:0:0:0:
256,192,104098,1,8,0:0:0:0:
256,192,104196,1,0,0:0:0:0:
256,192,104293,1,8,0:0:0:0:
256,192,104391,1,8,0:0:0:0:
256,192,104488,1,0,0:0:0:0:
256,192,104585,1,8,0:0:0:0:
256,192,104683,1,0,0:0:0:0:
256,192,104780,1,8,0:0:0:0:
256,192,104878,1,0,0:0:0:0:
256,192,104975,1,8,0:0:0:0:
256,192,105072,1,0,0:0:0:0:
256,192,105170,1,8,0:0:0:0:
256,192,105267,1,8,0:0:0:0:
256,192,105365,1,8,0:0:0:0:
256,192,105462,1,0,0:0:0:0:
256,192,105559,1,8,0:0:0:0:
256,192,105657,1,0,0:0:0:0:
256,192,105754,1,8,0:0:0:0:
256,192,105852,1,0,0:0:0:0:
256,192,105949,1,8,0:0:0:0:
256,192,106046,1,8,0:0:0:0:
256,192,106144,5,0,0:0:0:0:
256,192,106436,1,0,0:0:0:0:
256,192,106728,1,0,0:0:0:0:
256,192,106923,1,8,0:0:0:0:
256,192,107313,1,0,0:0:0:0:
256,192,107507,1,8,0:0:0:0:
256,192,107702,1,0,0:0:0:0:
256,192,107897,1,8,0:0:0:0:
256,192,108092,1,8,0:0:0:0:
256,192,108287,1,0,0:0:0:0:
256,192,108481,1,8,0:0:0:0:
256,192,108871,1,0,0:0:0:0:
256,192,109066,1,8,0:0:0:0:
256,192,109261,1,0,0:0:0:0:
256,192,109553,1,0,0:0:0:0:
256,192,109845,1,8,0:0:0:0:
256,192,110040,1,8,0:0:0:0:
256,192,110624,1,8,0:0:0:0:
256,192,110819,1,0,0:0:0:0:
256,192,111014,1,8,0:0:0:0:
256,192,111209,1,8,0:0:0:0:
256,192,111404,1,0,0:0:0:0:
256,192,111598,1,8,0:0:0:0:
256,192,111988,1,0,0:0:0:0:
256,192,112183,1,0,0:0:0:0:
256,192,112378,1,8,0:0:0:0:
256,192,112670,1,0,0:0:0:0:
256,192,112962,1,8,0:0:0:0:
256,192,113157,1,8,0:0:0:0:
256,192,113546,1,0,0:0:0:0:
256,192,113936,1,0,0:0:0:0:
256,192,114131,1,8,0:0:0:0:
256,192,114326,1,8,0:0:0:0:
256,192,114520,1,0,0:0:0:0:
256,192,114715,1,8,0:0:0:0:
256,192,115105,1,8,0:0:0:0:
256,192,115300,1,8,0:0:0:0:
256,192,115494,1,0,0:0:0:0:
256,192,115884,1,0,0:0:0:0:
256,192,116274,1,8,0:0:0:0:
256,192,116663,1,0,0:0:0:0:
256,192,117053,1,8,0:0:0:0:
256,192,117248,1,0,0:0:0:0:
256,192,117345,1,0,0:0:0:0:
256,192,117442,1,8,0:0:0:0:
256,192,117637,1,8,0:0:0:0:
256,192,117832,1,0,0:0:0:0:
256,192,117929,1,0,0:0:0:0:
256,192,118027,1,8,0:0:0:0:
256,192,118124,1,0,0:0:0:0:
256,192,118222,1,12,0:0:0:0:
256,192,118611,1,0,0:0:0:0:
256,192,118806,1,8,0:0:0:0:
256,192,119001,1,8,0:0:0:0:
256,192,119098,1,0,0:0:0:0:
256,192,119196,1,8,0:0:0:0:
256,192,119293,1,8,0:0:0:0:
256,192,119391,1,0,0:0:0:0:
256,192,119585,1,8,0:0:0:0:
256,192,119780,1,8,0:0:0:0:
256,192,119878,1,8,0:0:0:0:
256,192,119975,1,0,0:0:0:0:
256,192,120072,1,0,0:0:0:0:
256,192,120170,1,8,0:0:0:0:
256,192,120365,1,8,0:0:0:0:
256,192,120559,1,8,0:0:0:0:
256,192,120657,1,8,0:0:0:0:
256,192,120754,1,0,0:0:0:0:
256,192,120949,1,8,0:0:0:0:
256,192,121144,1,8,0:0:0:0:
256,192,121209,1,0,0:0:0:0:
256,192,121274,1,0,0:0:0:0:
256,192,121339,1,8,0:0:0:0:
256,192,121533,1,0,0:0:0:0:
256,192,121728,1,0,0:0:0:0:
256,192,121923,1,8,0:0:0:0:
256,192,122118,1,8,0:0:0:0:
256,192,122215,1,0,0:0:0:0:
256,192,122313,1,8,0:0:0:0:
256,192,122410,1,0,0:0:0:0:
256,192,122507,1,0,0:0:0:0:
256,192,122702,1,8,0:0:0:0:
256,192,122897,1,8,0:0:0:0:
256,192,122994,1,8,0:0:0:0:
256,192,123092,1,0,0:0:0:0:
256,192,123287,1,8,0:0:0:0:
256,192,123481,1,0,0:0:0:0:
256,192,123579,1,0,0:0:0:0:
256,192,123676,1,8,0:0:0:0:
256,192,123871,1,0,0:0:0:0:
256,192,124066,1,0,0:0:0:0:
256,192,124131,1,8,0:0:0:0:
256,192,124196,1,8,0:0:0:0:
256,192,124261,1,0,0:0:0:0:
256,192,124358,1,0,0:0:0:0:
256,192,124455,1,8,0:0:0:0:
256,192,124650,1,0,0:0:0:0:
256,192,124845,1,0,0:0:0:0:
256,192,125040,1,8,0:0:0:0:
256,192,125235,1,8,0:0:0:0:
256,192,125332,1,0,0:0:0:0:
256,192,125429,1,8,0:0:0:0:
256,192,125527,1,8,0:0:0:0:
256,192,125624,1,0,0:0:0:0:
256,192,125819,1,8,0:0:0:0:
256,192,126014,1,8,0:0:0:0:
256,192,126111,1,8,0:0:0:0:
256,192,126209,1,0,0:0:0:0:
256,192,126306,1,8,0:0:0:0:
256,192,126404,1,8,0:0:0:0:
256,192,126598,1,8,0:0:0:0:
256,192,126793,1,8,0:0:0:0:
256,192,126891,1,8,0:0:0:0:
256,192,126988,1,0,0:0:0:0:
256,192,127183,1,8,0:0:0:0:
256,192,127378,1,8,0:0:0:0:
256,192,127442,1,0,0:0:0:0:
256,192,127507,1,0,0:0:0:0:
256,192,127572,1,8,0:0:0:0:
256,192,127767,1,0,0:0:0:0:
256,192,127962,1,8,0:0:0:0:
256,192,128059,1,8,0:0:0:0:
256,192,128157,1,0,0:0:0:0:
256,192,128254,1,0,0:0:0:0:
256,192,128352,1,8,0:0:0:0:
256,192,128546,1,0,0:0:0:0:
256,192,128644,1,0,0:0:0:0:
256,192,128741,1,8,0:0:0:0:
256,192,128936,1,8,0:0:0:0:
256,192,129033,1,0,0:0:0:0:
256,192,129131,1,8,0:0:0:0:
256,192,129228,1,8,0:0:0:0:
256,192,129326,1,0,0:0:0:0:
256,192,129423,1,0,0:0:0:0:
256,192,129520,1,12,0:0:0:0:
256,192,129813,1,12,0:0:0:0:
256,192,130105,1,4,0:0:0:0:
256,192,130300,1,12,0:0:0:0:
