osu file format v14

[General]
AudioFilename: adio.mp3
AudioLeadIn: 0
PreviewTime: 69508
Countdown: 0
SampleSet: Normal
StackLeniency: 0.5
Mode: 2
LetterboxInBreaks: 0
WidescreenStoryboard: 1

[Editor]
Bookmarks: 19703,32170,36434,44638,57105,64096,69573,82021,88254,94488,100722,113189,125657
DistanceSpacing: 1
BeatDivisor: 4
GridSize: 4
TimelineZoom: 1.7

[Metadata]
Title:Senbonzakura
TitleUnicode:Senbonzakura
Artist:Lindsey Stirling
ArtistUnicode:Lindsey Stirling
Creator:Benita
Version:wonjae's Salad
Source:
Tags:kotnana3131 Nanachii Wonjae Paranoid Grapes Xetopia BennyBananas Benny- 初音ミク AsakuraNe 黒うさP violin 千本桜 reprint Kurousa-P Harbyter vocaloid Miku Hatsune Shatter Me A Thousand Cherry Blossoms
BeatmapID:1697381
BeatmapSetID:773136

[Difficulty]
HPDrainRate:4
CircleSize:2.5
OverallDifficulty:7
ApproachRate:7
SliderMultiplier:1.5
SliderTickRate:1

[Events]
//Background and Video events
0,0,"Senbonzakura_bg.jpg",0,0
//Break Periods
//Storyboard Layer 0 (Background)
//Storyboard Layer 1 (Fail)
//Storyboard Layer 2 (Pass)
//Storyboard Layer 3 (Foreground)
//Storyboard Sound Samples

[TimingPoints]
980,389.61038961039,4,2,1,30,1,0
25915,-100,4,2,1,35,0,0
32148,-100,4,2,1,40,0,0
38382,-100,4,1,1,50,0,0
38772,-100,4,2,1,50,0,0
39941,-100,4,1,1,50,0,0
40330,-100,4,1,1,55,0,0
40720,-100,4,1,1,60,0,0
41109,-100,4,1,1,65,0,0
41499,-100,4,1,1,70,0,0
41889,-100,4,1,1,75,0,0
42278,-100,4,1,1,80,0,0
42668,-100,4,1,1,50,0,0
43057,-100,4,1,1,90,0,0
43837,-100,4,2,1,50,0,0
44616,-100,4,1,1,80,0,0
57105,-83.3333333333333,4,1,1,80,0,0
68772,-83.3333333333333,4,2,1,80,0,0
69064,-83.3333333333333,4,2,1,60,0,0
69551,-100,4,1,1,80,0,1
80460,-100,4,2,1,80,0,0
81239,-100,4,1,1,80,0,0
81629,-100,4,2,1,80,0,0
82015,389.61038961039,4,1,1,80,1,0
82209,-100,4,1,1,60,0,0
83573,-100,4,1,1,80,0,0
83768,-100,4,1,1,60,0,0
85131,-100,4,1,1,80,0,0
85326,-100,4,1,1,60,0,0
85911,-100,4,1,1,80,0,0
86105,-100,4,1,1,60,0,0
86690,-100,4,1,1,80,0,0
86885,-100,4,1,1,60,0,0
87469,-100,4,1,1,80,0,0
87566,-100,4,1,1,60,0,0
88248,-100,4,1,1,80,0,0
88346,-100,4,1,1,60,0,0
89807,-100,4,1,1,80,0,0
89904,-100,4,1,1,60,0,0
91365,-100,4,1,1,80,0,0
91463,-100,4,1,1,60,0,0
92924,-100,4,1,1,80,0,0
93021,-100,4,1,1,60,0,0
93703,-100,4,1,1,80,0,0
93800,-100,4,1,1,60,0,0
94482,-100,4,1,1,80,0,0
94579,-100,4,1,1,50,0,0
95261,-100,4,1,1,55,0,0
96040,-100,4,1,1,60,0,0
96820,-100,4,1,1,65,0,0
97599,-100,4,1,1,70,0,0
98378,-100,4,1,1,75,0,0
99157,-100,4,1,1,50,0,0
110066,-100,4,1,1,70,0,0
111625,-100,4,1,1,80,0,0
112794,-100,4,2,1,50,0,0
113183,-100,4,1,1,80,0,1
124092,-100,4,2,1,80,0,0
124872,-100,4,1,1,80,0,0
125261,-100,4,1,1,50,0,0

[Colours]
Combo1 : 240,153,199
Combo2 : 255,76,198
Combo3 : 204,0,139
Combo4 : 127,0,87

[HitObjects]
301,257,19681,5,2,0:0:0:0:
156,260,20070,2,0,L|32:258,1,112.5,2|0,0:0|0:0,0:0:0:0:
113,204,20460,2,0,L|206:202,2,75,2|0|2,0:0|0:0|0:0,0:0:0:0:
50,202,21044,1,0,0:0:0:0:
256,137,21239,5,2,0:0:0:0:
386,266,21629,2,0,L|507:267,1,112.5,2|0,0:0|0:0,0:0:0:0:
440,215,22018,2,0,L|347:214,1,75,2|0,0:0|0:0,0:0:0:0:
441,171,22408,2,0,L|469:92,1,75,2|0,0:0|0:0,0:0:0:0:
254,79,22798,5,2,0:0:0:0:
113,200,23187,2,0,L|228:200,1,112.5,2|0,0:0|0:0,0:0:0:0:
262,257,23577,2,0,L|175:257,1,75,2|0,0:0|0:0,0:0:0:0:
271,299,23967,2,0,L|318:364,1,75,2|0,0:0|0:0,0:0:0:0:
107,351,24356,5,2,0:0:0:0:
253,349,24746,2,0,L|349:347,1,75,2|0,0:0|0:0,0:0:0:0:
402,302,25135,2,0,P|452:266|389:219,1,150,2|2,0:0|0:0,0:0:0:0:
100,186,25915,5,2,0:0:0:0:
218,257,26207,1,0,0:0:0:0:
259,258,26304,2,0,P|305:216|263:149,1,150,2|2,0:0|0:0,0:0:0:0:
196,147,26889,1,0,0:0:0:0:
121,148,27083,2,0,L|86:72,1,75,2|0,0:0|0:0,0:0:0:0:
293,62,27473,5,2,0:0:0:0:
412,172,27765,1,0,0:0:0:0:
457,190,27863,2,0,L|294:191,1,150,2|2,0:0|0:0,0:0:0:0:
235,192,28447,1,0,0:0:0:0:
160,195,28642,2,0,L|244:191,1,75,2|0,0:0|0:0,0:0:0:0:
434,123,29031,5,2,0:0:0:0:
337,266,29324,1,0,0:0:0:0:
272,270,29421,2,0,L|116:272,1,150,2|2,0:0|0:0,0:0:0:0:
189,206,30005,1,0,0:0:0:0:
258,205,30200,2,0,L|311:141,1,75,2|0,0:0|0:0,0:0:0:0:
101,122,30590,5,2,0:0:0:0:
246,153,30980,1,2,0:0:0:0:
297,218,31174,1,0,0:0:0:0:
246,276,31369,1,2,0:0:0:0:
92,278,31759,1,2,0:0:0:0:
377,322,32148,6,0,P|432:279|468:194,2,150,2|2|2,0:0|0:0|0:0,0:0:0:0:
256,312,33317,1,2,0:0:0:0:
53,263,33707,1,2,0:0:0:0:
190,264,34096,2,0,L|212:167,1,75,2|0,0:0|0:0,0:0:0:0:
112,185,34486,2,0,P|70:136|118:77,1,150,2|2,0:0|0:0,0:0:0:0:
296,154,35265,6,0,L|379:152,1,75,2|0,0:0|0:0,0:0:0:0:
417,126,35655,1,0,0:0:0:0:
98,301,36044,2,0,P|60:253|111:183,1,150,2|2,0:0|0:0,0:0:0:0:
289,177,36824,2,0,L|122:99,2,150,2|2|2,0:0|0:0|0:0,0:0:0:0:
459,183,37992,1,2,0:0:0:0:
149,298,38382,5,2,0:0:0:0:
31,208,38772,1,2,0:0:0:0:
58,87,39161,1,2,0:0:0:0:
213,62,39551,1,2,0:0:0:0:
402,83,39941,5,2,0:0:0:0:
281,169,40330,2,0,L|256:69,1,75,2|2,0:0|0:0,0:0:0:0:
367,117,40720,2,0,P|419:77|356:50,1,150,2|2,0:0|0:0,0:0:0:0:
253,42,41304,1,2,0:0:0:0:
47,171,41499,6,0,P|38:233|118:261,1,150,2|2,0:0|0:0,0:0:0:0:
174,261,42083,1,2,0:0:0:0:
245,257,42278,2,0,L|72:259,1,150,2|2,0:0|0:0,0:0:0:0:
366,250,43057,5,2,0:0:0:0:
440,178,43252,1,2,0:0:0:0:
439,88,43447,1,2,0:0:0:0:
366,29,43642,1,2,0:0:0:0:
159,186,43837,1,2,0:0:0:0:
271,291,44226,6,0,L|323:212,1,75,0|0,0:0|0:0,0:0:0:0:
108,192,44616,6,0,P|37:153|31:126,2,112.5,2|0|0,0:0|0:0|0:0,0:0:0:0:
180,191,45395,1,2,0:0:0:0:
330,199,45785,2,0,L|371:105,1,75,8|0,0:0|0:0,0:0:0:0:
154,195,46174,6,0,L|3:191,2,150,2|8|2,0:0|0:0|0:0,0:0:0:0:
274,280,47343,2,0,L|207:210,1,75,8|0,0:0|0:0,0:0:0:0:
429,208,47733,6,0,P|471:186|486:104,2,112.5,2|0|0,0:0|0:0|0:0,0:0:0:0:
332,212,48512,1,2,0:0:0:0:
190,296,48902,2,0,L|156:211,1,75,8|0,0:0|0:0,0:0:0:0:
366,222,49291,5,2,0:0:0:0:
438,163,49486,1,0,0:0:0:0:
419,82,49681,1,8,0:0:0:0:
341,64,49876,1,0,0:0:0:0:
135,87,50070,1,2,0:0:0:0:
28,217,50460,2,0,L|116:222,1,75,8|0,0:0|0:0,0:0:0:0:
311,298,50850,6,0,L|441:295,2,112.5,2|0|0,0:0|0:0|0:0,0:0:0:0:
225,299,51629,1,2,0:0:0:0:
76,239,52018,2,0,L|167:239,1,75,8|0,0:0|0:0,0:0:0:0:
361,236,52408,6,0,P|453:202|472:153,2,150,2|8|2,0:0|0:0|0:0,0:0:0:0:
184,321,53577,2,0,L|129:243,1,75,8|0,0:0|0:0,0:0:0:0:
348,234,53967,6,0,L|503:224,2,150,2|8|2,0:0|0:0|0:0,0:0:0:0:
489,193,55135,1,8,0:0:0:0:
187,276,55525,6,0,P|115:221|114:142,1,150,2|8,0:0|0:0,0:0:0:0:
190,125,56109,1,2,0:0:0:0:
277,91,56304,2,0,L|107:88,1,150,0|8,0:0|0:0,0:0:0:0:
406,91,57083,6,0,P|448:171|393:197,1,150,2|8,0:0|0:0,0:0:0:0:
356,199,57668,1,0,0:0:0:0:
299,215,57863,2,0,L|484:211,1,179.999994506836,2|8,0:0|0:0,0:0:0:0:
164,310,58642,6,0,P|100:302|162:256,1,179.999994506836,2|8,0:0|0:0,0:0:0:0:
230,239,59226,1,0,0:0:0:0:
292,203,59421,2,0,L|112:205,1,179.999994506836,2|8,0:0|0:0,0:0:0:0:
430,111,60200,6,0,P|488:169|422:223,1,179.999994506836,2|8,0:0|0:0,0:0:0:0:
358,226,60785,1,0,0:0:0:0:
293,267,60980,2,0,L|399:266,2,89.9999972534181,2|0|8,0:0|0:0|0:0,0:0:0:0:
143,325,61759,5,2,0:0:0:0:
349,296,62148,1,8,0:0:0:0:
38,259,62538,2,0,L|36:144,1,89.9999972534181,2|0,0:0|0:0,0:0:0:0:
130,153,62928,2,0,L|205:64,1,89.9999972534181,8|0,0:0|0:0,0:0:0:0:
419,198,63317,6,0,P|465:167|403:81,1,179.999994506836,2|8,0:0|0:0,0:0:0:0:
312,80,64096,2,0,L|499:77,1,179.999994506836,2|8,0:0|0:0,0:0:0:0:
167,286,64876,6,0,L|52:286,2,89.9999972534181,2|0|8,0:0|0:0|0:0,0:0:0:0:
320,274,65655,2,0,L|410:274,2,89.9999972534181,2|0|8,0:0|0:0|0:0,0:0:0:0:
28,205,66434,5,2,0:0:0:0:
171,181,66824,1,8,0:0:0:0:
28,205,67213,1,2,0:0:0:0:
171,181,67603,1,8,0:0:0:0:
477,123,67992,6,0,L|483:241,2,89.9999972534181,2|2|8,0:0|0:0|0:0,0:0:0:0:
366,146,68577,2,0,L|460:134,1,89.9999972534181,2|2,0:0|0:0,0:0:0:0:
144,228,69161,5,8,0:0:0:0:
445,96,69551,6,0,L|493:21,2,75,2|0|8,0:0|0:0|0:0,0:0:0:0:
365,116,70135,1,0,0:0:0:0:
289,127,70330,2,0,L|185:125,2,75,2|0|8,0:0|0:0|0:0,0:0:0:0:
164,168,71109,6,0,L|73:167,2,75,2|0|8,0:0|0:0|0:0,0:0:0:0:
474,245,71889,2,0,P|489:174|437:94,1,150,2|8,0:0|0:0,0:0:0:0:
166,171,72668,6,0,L|69:164,2,75,2|0|8,0:0|0:0|0:0,0:0:0:0:
240,176,73252,1,0,0:0:0:0:
319,186,73447,2,0,L|419:184,2,75,2|0|8,0:0|0:0|0:0,0:0:0:0:
28,252,74226,6,0,P|11:190|92:126,1,150,2|8,0:0|0:0,0:0:0:0:
205,107,75005,1,2,0:0:0:0:
59,52,75395,1,8,0:0:0:0:
357,207,75785,6,0,L|445:197,2,75,2|0|8,0:0|0:0|0:0,0:0:0:0:
278,248,76369,1,0,0:0:0:0:
189,300,76564,2,0,L|83:297,2,75,2|0|8,0:0|0:0|0:0,0:0:0:0:
351,296,77343,6,0,L|452:299,2,75,2|0|8,0:0|0:0|0:0,0:0:0:0:
56,228,78122,2,0,P|21:162|79:129,1,150,2|8,0:0|0:0,0:0:0:0:
160,123,78707,1,0,0:0:0:0:
372,194,78902,6,0,P|418:158|356:106,1,150,2|8,0:0|0:0,0:0:0:0:
234,40,79681,2,0,L|383:38,1,150,2|8,0:0|0:0,0:0:0:0:
98,252,80460,5,6,0:0:0:0:
235,255,80752,1,6,0:0:0:0:
98,252,81044,1,6,0:0:0:0:
316,249,81239,1,2,0:0:0:0:
160,188,82015,6,0,P|129:118|179:48,1,150,6|0,0:0|0:0,0:0:0:0:
380,50,82794,2,0,L|380:135,1,75,0|0,0:0|0:0,0:0:0:0:
294,174,83183,1,0,0:0:0:0:
242,174,83378,1,0,0:0:0:0:
437,251,83573,6,0,B|489:249|489:249|490:296|490:296|427:298,1,150,6|0,0:0|0:0,0:0:0:0:
265,257,84352,2,0,L|266:157,1,75,0|0,0:0|0:0,0:0:0:0:
343,168,84742,1,0,0:0:0:0:
396,168,84937,1,0,0:0:0:0:
199,108,85131,5,6,0:0:0:0:
113,101,85521,1,0,0:0:0:0:
419,209,85911,1,6,0:0:0:0:
482,205,86105,1,0,0:0:0:0:
419,209,86300,2,0,L|333:210,1,75,0|0,0:0|0:0,0:0:0:0:
140,256,86690,6,0,P|67:200|70:126,1,150,6|0,0:0|0:0,0:0:0:0:
134,127,87274,1,0,0:0:0:0:
337,128,87469,2,0,P|398:208|372:261,1,150,6|0,0:0|0:0,0:0:0:0:
304,253,88053,1,0,0:0:0:0:
107,305,88248,5,6,0:0:0:0:
17,303,88540,1,0,0:0:0:0:
168,262,88833,1,0,0:0:0:0:
255,223,89027,2,0,L|256:86,1,112.5
117,94,89612,1,0,0:0:0:0:
310,83,89807,5,6,0:0:0:0:
403,81,90099,1,0,0:0:0:0:
268,203,90391,1,0,0:0:0:0:
183,160,90586,2,0,L|182:28,1,112.5
327,37,91170,1,0,0:0:0:0:
131,273,91365,5,6,0:0:0:0:
32,270,91657,1,0,0:0:0:0:
176,181,91950,1,0,0:0:0:0:
278,149,92144,2,0,L|275:8,1,112.5
183,45,92729,1,0,0:0:0:0:
384,203,92924,6,0,P|434:126|394:69,1,150,6|0,0:0|0:0,0:0:0:0:
252,60,93703,2,0,L|404:61,1,150,6|0,0:0|0:0,0:0:0:0:
102,216,94482,6,0,P|13:143|18:100,1,150,6|2,0:0|0:0,0:0:0:0:
101,108,95066,1,2,0:0:0:0:
184,86,95261,2,0,L|12:83,1,150,2|2,0:0|0:0,0:0:0:0:
102,164,95846,1,2,0:0:0:0:
308,277,96040,6,0,P|380:232|341:101,1,225,6|2,0:0|0:0,0:0:0:0:
236,99,96820,2,0,L|415:89,1,150,2|2,0:0|0:0,0:0:0:0:
99,233,97599,6,0,P|42:192|65:101,1,150,6|2,0:0|0:0,0:0:0:0:
138,105,98183,1,2,0:0:0:0:
220,162,98378,2,0,L|51:174,1,150,2|2,0:0|0:0,0:0:0:0:
358,315,99157,6,0,P|417:257|334:131,1,225,6|8,0:0|0:0,0:0:0:0:
246,178,99937,2,0,B|151:170|117:145|136:104|254:85,1,225,6|8,0:0|0:0,0:0:0:0:
444,68,100716,6,0,P|473:139|441:187,1,112.5,2|0,0:0|0:0,0:0:0:0:
338,201,101300,2,0,L|352:298,1,75,2|8,0:0|0:0,0:0:0:0:
478,284,101885,1,2,0:0:0:0:
189,311,102274,6,0,P|93:304|65:249,1,150,2|0,0:0|0:0,0:0:0:0:
145,235,102859,1,2,0:0:0:0:
228,236,103053,1,8,0:0:0:0:
96,199,103443,1,0,0:0:0:0:
387,192,103833,6,0,P|434:169|442:100,1,112.5,2|0,0:0|0:0,0:0:0:0:
329,80,104417,2,0,L|252:79,1,75,2|8,0:0|0:0,0:0:0:0:
390,160,105196,1,0,0:0:0:0:
184,256,105391,6,0,L|24:252,1,150,2|0,0:0|0:0,0:0:0:0:
105,146,105976,1,2,0:0:0:0:
224,138,106170,1,8,0:0:0:0:
74,82,106560,1,0,0:0:0:0:
364,313,106950,6,0,P|418:270|406:229,1,112.5,2|0,0:0|0:0,0:0:0:0:
291,189,107534,2,0,L|360:246,1,75,2|8,0:0|0:0,0:0:0:0:
484,123,108118,1,2,0:0:0:0:
191,303,108508,6,0,P|125:263|163:181,1,150,2|0,0:0|0:0,0:0:0:0:
223,181,109092,1,2,0:0:0:0:
349,182,109287,1,8,0:0:0:0:
232,131,109677,2,0,L|192:49,1,75,8|0,0:0|0:0,0:0:0:0:
406,61,110066,5,2,0:0:0:0:
498,144,110456,1,2,0:0:0:0:
326,257,110846,1,2,0:0:0:0:
484,323,111235,1,2,0:0:0:0:
175,219,111625,6,0,P|150:173|148:130,2,75,2|2|2,0:0|0:0|0:0,0:0:0:0:
292,209,112209,1,2,0:0:0:0:
409,209,112404,1,8,0:0:0:0:
135,247,112794,5,8,0:0:0:0:
414,289,113183,6,0,L|500:289,2,75,2|0|8,0:0|0:0|0:0,0:0:0:0:
333,284,113768,1,0,0:0:0:0:
271,245,113963,2,0,L|162:247,2,75,2|0|8,0:0|0:0|0:0,0:0:0:0:
165,186,114742,6,0,L|75:185,2,75,2|0|8,0:0|0:0|0:0,0:0:0:0:
463,161,115521,2,0,P|492:112|436:35,1,150,2|8,0:0|0:0,0:0:0:0:
155,84,116300,6,0,L|52:83,2,75,2|0|8,0:0|0:0|0:0,0:0:0:0:
240,83,116885,1,0,0:0:0:0:
325,85,117079,2,0,L|427:86,2,75,2|0|8,0:0|0:0|0:0,0:0:0:0:
150,248,117859,6,0,P|90:192|132:124,1,150,2|8,0:0|0:0,0:0:0:0:
248,87,118638,1,2,0:0:0:0:
88,68,119027,1,8,0:0:0:0:
385,219,119417,6,0,L|484:224,2,75,2|0|8,0:0|0:0|0:0,0:0:0:0:
298,219,120002,1,0,0:0:0:0:
211,161,120196,2,0,L|109:154,2,75,2|0|8,0:0|0:0|0:0,0:0:0:0:
368,120,120976,6,0,L|467:125,2,75,2|0|8,0:0|0:0|0:0,0:0:0:0:
70,146,121755,2,0,P|23:213|84:246,1,150,2|8,0:0|0:0,0:0:0:0:
146,254,122339,1,0,0:0:0:0:
352,337,122534,6,0,L|502:337,1,150,2|8,0:0|0:0,0:0:0:0:
336,266,123313,2,0,L|166:258,1,150,2|10,0:0|0:0,0:0:0:0:
473,180,124092,5,6,0:0:0:0:
328,178,124385,1,6,0:0:0:0:
473,180,124677,1,6,0:0:0:0:
256,174,124872,1,2,0:0:0:0:
