osu file format v14

[General]
AudioFilename: adio.mp3
AudioLeadIn: 0
PreviewTime: 69508
Countdown: 0
SampleSet: Normal
StackLeniency: 0.5
Mode: 2
LetterboxInBreaks: 0
WidescreenStoryboard: 1

[Editor]
Bookmarks: 19703,32170,44638,57105,64096,69573,82021,88254,94488,100722,113189,125657
DistanceSpacing: 1
BeatDivisor: 4
GridSize: 32
TimelineZoom: 3.299999

[Metadata]
Title:Senbonzakura
TitleUnicode:Senbonzakura
Artist:Lindsey Stirling
ArtistUnicode:Lindsey Stirling
Creator:Benita
Version:Xetopia's Platter
Source:
Tags:kotnana3131 Nanachii Wonjae Paranoid Grapes Xetopia BennyBananas Benny- 初音ミク AsakuraNe 黒うさP violin 千本桜 reprint Kurousa-P Harbyter vocaloid Miku Hatsune Shatter Me A Thousand Cherry Blossoms
BeatmapID:1655664
BeatmapSetID:773136

[Difficulty]
HPDrainRate:5
CircleSize:3
OverallDifficulty:8
ApproachRate:8
SliderMultiplier:1.7
SliderTickRate:2

[Events]
//Background and Video events
0,0,"Senbonzakura_bg.jpg",0,0
//Break Periods
//Storyboard Layer 0 (Background)
//Storyboard Layer 1 (Fail)
//Storyboard Layer 2 (Pass)
//Storyboard Layer 3 (Foreground)
//Storyboard Sound Samples

[TimingPoints]
980,389.61038961039,4,2,1,30,1,0
25915,-100,4,2,1,35,0,0
32148,-100,4,2,1,40,0,0
38382,-100,4,1,1,50,0,0
38772,-100,4,2,1,50,0,0
39941,-100,4,1,1,50,0,0
40330,-100,4,1,1,55,0,0
40720,-100,4,1,1,60,0,0
41109,-100,4,1,1,65,0,0
41499,-100,4,1,1,70,0,0
41889,-100,4,1,1,75,0,0
42278,-100,4,1,1,80,0,0
42668,-100,4,1,1,50,0,0
43057,-100,4,1,1,90,0,0
43837,-100,4,2,1,50,0,0
44616,-100,4,1,1,80,0,0
57083,-83.3333333333333,4,1,1,80,0,0
68772,-83.3333333333333,4,2,1,80,0,0
69064,-83.3333333333333,4,2,1,60,0,0
69551,-100,4,1,1,80,0,1
80460,-100,4,2,1,80,0,0
81239,-100,4,1,1,80,0,0
81629,-100,4,2,1,80,0,0
82015,389.61038961039,4,1,1,80,1,0
82209,-100,4,1,1,60,0,0
83573,-100,4,1,1,80,0,0
83768,-100,4,1,1,60,0,0
85131,-100,4,1,1,80,0,0
85326,-100,4,1,1,60,0,0
85911,-100,4,1,1,80,0,0
86105,-100,4,1,1,60,0,0
86690,-100,4,1,1,80,0,0
86885,-100,4,1,1,60,0,0
87469,-100,4,1,1,80,0,0
87566,-100,4,1,1,60,0,0
88248,-100,4,1,1,80,0,0
88346,-100,4,1,1,60,0,0
89807,-100,4,1,1,80,0,0
89904,-100,4,1,1,60,0,0
91365,-100,4,1,1,80,0,0
91463,-100,4,1,1,60,0,0
92924,-100,4,1,1,80,0,0
93021,-100,4,1,1,60,0,0
93703,-100,4,1,1,80,0,0
93800,-100,4,1,1,60,0,0
94482,-100,4,1,1,80,0,0
94579,-100,4,1,1,50,0,0
95261,-100,4,1,1,55,0,0
96040,-100,4,1,1,60,0,0
96820,-100,4,1,1,65,0,0
97599,-100,4,1,1,70,0,0
98378,-100,4,1,1,75,0,0
99157,-100,4,1,1,50,0,0
110066,-100,4,1,1,70,0,0
111625,-100,4,1,1,80,0,0
112794,-100,4,2,1,50,0,0
113183,-100,4,1,1,80,0,1
124092,-100,4,2,1,80,0,0
124872,-100,4,1,1,80,0,0
125261,-100,4,1,1,50,0,0

[Colours]
Combo1 : 240,153,199
Combo2 : 255,76,198
Combo3 : 204,0,139
Combo4 : 127,0,87

[HitObjects]
137,46,19681,6,0,L|46:51,1,85,2|0,0:0|0:0,0:0:0:0:
225,93,20070,2,0,L|232:183,1,85,2|0,0:0|0:0,0:0:0:0:
350,250,20460,2,0,L|264:251,1,85,2|0,0:0|0:0,0:0:0:0:
137,334,20850,2,0,L|241:336,1,85,2|0,0:0|0:0,0:0:0:0:
405,184,21239,6,0,L|409:100,1,85,2|0,0:0|0:0,0:0:0:0:
231,41,21629,2,0,L|135:45,1,85,2|0,0:0|0:0,0:0:0:0:
265,123,22018,2,0,L|353:127,1,85,2|0,0:0|0:0,0:0:0:0:
466,205,22408,2,0,L|377:204,1,85,2|0,0:0|0:0,0:0:0:0:
198,313,22798,6,0,L|194:229,1,85,2|0,0:0|0:0,0:0:0:0:
367,140,23187,2,0,L|195:132,2,170,2|2|2,0:0|0:0|0:0,0:0:0:0:
369,231,24161,1,0,0:0:0:0:
186,288,24356,6,0,L|84:291,1,85,2|0,0:0|0:0,0:0:0:0:
282,48,24746,2,0,L|370:52,1,85,2|0,0:0|0:0,0:0:0:0:
378,96,25038,1,0,0:0:0:0:
370,148,25135,2,0,L|274:152,1,85,2|0,0:0|0:0,0:0:0:0:
114,275,25525,2,0,L|109:182,1,85,2|0,0:0|0:0,0:0:0:0:
372,329,25915,6,0,L|376:241,1,85,2|0,0:0|0:0,0:0:0:0:
316,245,26207,1,0,0:0:0:0:
256,245,26304,2,0,L|252:146,1,85,2|0,0:0|0:0,0:0:0:0:
425,54,26694,2,0,L|337:53,1,85,2|0,0:0|0:0,0:0:0:0:
485,161,27083,2,0,L|488:246,1,85,2|0,0:0|0:0,0:0:0:0:
199,333,27473,6,0,L|195:249,1,85,2|0,0:0|0:0,0:0:0:0:
255,245,27765,1,0,0:0:0:0:
315,245,27863,2,0,L|403:244,1,85,2|0,0:0|0:0,0:0:0:0:
227,167,28252,2,0,L|225:82,1,85,2|0,0:0|0:0,0:0:0:0:
56,125,28642,2,0,L|52:39,1,85,2|0,0:0|0:0,0:0:0:0:
323,50,29031,6,0,L|407:52,1,85,2|0,0:0|0:0,0:0:0:0:
345,120,29324,1,0,0:0:0:0:
284,131,29421,2,0,L|280:215,1,85,2|0,0:0|0:0,0:0:0:0:
454,313,29811,2,0,L|369:307,1,85,2|0,0:0|0:0,0:0:0:0:
259,233,30200,2,0,L|347:231,1,85,2|0,0:0|0:0,0:0:0:0:
64,52,30590,6,0,P|32:84|72:192,1,170,2|2,0:0|0:0,0:0:0:0:
276,312,31369,2,0,L|104:304,1,170,2|2,0:0|0:0,0:0:0:0:
404,44,32148,6,0,L|412:216,1,170,2|2,0:0|0:0,0:0:0:0:
164,100,32928,1,2,0:0:0:0:
416,304,33317,1,2,0:0:0:0:
148,320,33707,6,0,L|144:184,1,127.5,2|0,0:0|0:0,0:0:0:0:
216,152,34096,2,0,L|32:148,2,170,2|2|2,0:0|0:0|0:0,0:0:0:0:
448,56,35265,5,2,0:0:0:0:
363,57,35460,1,0,0:0:0:0:
448,56,35655,1,2,0:0:0:0:
144,96,36044,6,0,P|116:168|152:248,1,170,2|2,0:0|0:0,0:0:0:0:
432,312,36824,2,0,L|256:320,2,170,2|2|2,0:0|0:0|0:0,0:0:0:0:
176,160,37992,2,0,L|168:204,2,42.5,2|0|0,0:0|0:0|0:0,0:0:0:0:
448,48,38382,6,0,P|472:112|456:212,1,170,2|2,0:0|0:0,0:0:0:0:
232,92,39161,1,2,0:0:0:0:
424,212,39551,1,2,0:0:0:0:
168,328,39941,6,0,L|160:236,1,85,2|2,0:0|0:0,0:0:0:0:
292,172,40330,2,0,L|200:168,2,85,2|2|2,0:0|0:0|0:0,0:0:0:0:
88,160,41109,1,2,0:0:0:0:
332,32,41499,5,2,0:0:0:0:
374,103,41694,1,2,0:0:0:0:
358,184,41889,1,2,0:0:0:0:
292,234,42083,1,2,0:0:0:0:
115,310,42278,2,0,L|205:310,1,85,2|2,0:0|0:0,0:0:0:0:
320,332,42668,2,0,L|412:332,1,85,2|2,0:0|0:0,0:0:0:0:
130,324,43057,5,2,0:0:0:0:
110,286,43155,1,0,0:0:0:0:
117,245,43252,1,2,0:0:0:0:
147,217,43350,1,0,0:0:0:0:
214,192,43447,1,2,0:0:0:0:
233,154,43544,1,0,0:0:0:0:
210,112,43642,1,2,0:0:0:0:
18,49,43837,6,0,L|190:45,1,170,2|0,0:0|0:0,0:0:0:0:
98,125,44421,1,0,0:0:0:0:
408,296,44616,6,0,L|412:208,1,85,2|0,0:0|0:0,0:0:0:0:
292,192,45005,1,8,0:0:0:0:
396,192,45200,1,0,0:0:0:0:
202,145,45395,2,0,L|198:53,1,85,2|0,0:0|0:0,0:0:0:0:
392,40,45785,2,0,L|480:44,1,85,8|0,0:0|0:0,0:0:0:0:
212,256,46174,6,0,L|124:260,1,85,2|0,0:0|0:0,0:0:0:0:
310,295,46564,2,0,L|314:211,1,85,8|0,0:0|0:0,0:0:0:0:
112,168,46954,2,0,L|108:84,1,85,2|0,0:0|0:0,0:0:0:0:
220,116,47343,1,8,0:0:0:0:
107,83,47538,1,0,0:0:0:0:
404,44,47733,6,0,P|452:96|404:176,1,170,2|8,0:0|0:0,0:0:0:0:
324,184,48317,1,0,0:0:0:0:
142,122,48512,2,0,L|138:206,1,85,2|0,0:0|0:0,0:0:0:0:
328,304,48902,2,0,L|420:300,1,85,8|0,0:0|0:0,0:0:0:0:
138,56,49291,6,0,L|48:57,1,85,2|0,0:0|0:0,0:0:0:0:
196,156,49681,2,0,L|104:160,1,85,8|0,0:0|0:0,0:0:0:0:
292,305,50070,2,0,L|296:221,1,85,2|0,0:0|0:0,0:0:0:0:
104,172,50460,2,0,L|188:168,1,85,8|0,0:0|0:0,0:0:0:0:
480,44,50850,6,0,L|488:128,1,85,2|0,0:0|0:0,0:0:0:0:
356,190,51239,2,0,L|268:186,1,85,8|0,0:0|0:0,0:0:0:0:
454,304,51629,2,0,L|274:296,1,170,2|8,0:0|0:0,0:0:0:0:
370,216,52213,1,0,0:0:0:0:
109,54,52408,6,0,L|20:53,1,85,2|0,0:0|0:0,0:0:0:0:
218,172,52798,2,0,L|302:168,1,85,8|0,0:0|0:0,0:0:0:0:
116,304,53187,2,0,L|24:304,1,85,2|0,0:0|0:0,0:0:0:0:
196,264,53577,2,0,L|112:264,1,85,8|0,0:0|0:0,0:0:0:0:
376,188,53967,6,0,P|432:168|472:68,2,170,2|8|2,0:0|0:0|0:0,0:0:0:0:
168,76,55135,2,0,L|164:160,1,85,8|0,0:0|0:0,0:0:0:0:
350,267,55525,2,0,L|170:271,1,170,2|8,0:0|0:0,0:0:0:0:
266,203,56109,1,2,0:0:0:0:
394,107,56304,2,0,L|298:111,1,85,0|2,0:0|0:0,0:0:0:0:
124,208,56694,2,0,L|120:124,1,85,8|8,0:0|0:0,0:0:0:0:
384,52,57083,6,0,L|443:55,2,50.9999984436036,2|0|0,0:0|0:0|0:0,0:0:0:0:
268,44,57473,1,8,0:0:0:0:
384,52,57668,1,0,0:0:0:0:
116,248,57863,6,0,L|104:300,2,50.9999984436036,2|0|0,0:0|0:0|0:0,0:0:0:0:
244,248,58252,1,8,0:0:0:0:
120,248,58447,1,0,0:0:0:0:
380,48,58642,6,0,L|432:52,2,50.9999984436036,2|0|0,0:0|0:0|0:0,0:0:0:0:
185,98,59031,1,8,0:0:0:0:
181,148,59129,1,0,0:0:0:0:
177,199,59226,1,0,0:0:0:0:
380,304,59421,6,0,L|484:300,1,101.999996887207,2|0,0:0|0:0,0:0:0:0:
340,208,59811,2,0,L|444:212,1,101.999996887207,8|0,0:0|0:0,0:0:0:0:
288,96,60200,6,0,L|180:100,1,101.999996887207,2|0,0:0|0:0,0:0:0:0:
379,182,60590,2,0,L|387:286,1,101.999996887207,8|0,0:0|0:0,0:0:0:0:
200,336,60980,2,0,L|196:232,1,101.999996887207,2|0,0:0|0:0,0:0:0:0:
394,100,61369,2,0,L|502:104,1,101.999996887207,8|0,0:0|0:0,0:0:0:0:
176,320,61759,6,0,L|168:216,1,101.999996887207,2|0,0:0|0:0,0:0:0:0:
360,134,62148,2,0,L|252:126,1,101.999996887207,8|0,0:0|0:0,0:0:0:0:
64,56,62538,2,0,L|168:52,1,101.999996887207,2|0,0:0|0:0,0:0:0:0:
428,144,62928,2,0,L|436:196,2,50.9999984436036,8|0|0,0:0|0:0|0:0,0:0:0:0:
152,80,63317,6,0,L|96:84,2,50.9999984436036,2|0|0,0:0|0:0|0:0,0:0:0:0:
268,76,63707,1,8,0:0:0:0:
152,80,63902,1,0,0:0:0:0:
424,264,64096,5,2,0:0:0:0:
427,213,64194,1,0,0:0:0:0:
431,162,64291,1,0,0:0:0:0:
312,204,64486,1,8,0:0:0:0:
431,162,64681,1,0,0:0:0:0:
152,40,64876,6,0,L|92:44,2,50.9999984436036,2|0|0,0:0|0:0|0:0,0:0:0:0:
344,134,65265,2,0,L|404:138,2,50.9999984436036,8|0|0,0:0|0:0|0:0,0:0:0:0:
148,192,65655,1,2,0:0:0:0:
146,242,65752,1,0,0:0:0:0:
144,293,65850,1,0,0:0:0:0:
264,228,66044,1,8,0:0:0:0:
144,293,66239,1,0,0:0:0:0:
420,328,66434,6,0,L|472:324,2,50.9999984436036,2|0|0,0:0|0:0|0:0,0:0:0:0:
223,299,66824,1,8,0:0:0:0:
221,249,66921,1,0,0:0:0:0:
219,198,67018,1,0,0:0:0:0:
424,88,67213,2,0,L|320:84,2,101.999996887207,2|0|8,0:0|0:0|0:0,0:0:0:0:
136,224,67992,6,0,L|128:120,1,101.999996887207,2|2,0:0|0:0,0:0:0:0:
305,51,68382,2,0,L|409:55,1,101.999996887207,8|2,0:0|0:0,0:0:0:0:
216,144,68772,2,0,L|106:145,1,101.999996887207,2|0,0:0|0:0,0:0:0:0:
456,272,69161,2,0,L|460:168,1,101.999996887207,8|0,0:0|0:0,0:0:0:0:
184,56,69551,6,0,P|177:117|255:182,1,170,2|8,0:0|0:0,0:0:0:0:
342,187,70135,1,0,0:0:0:0:
80,332,70330,2,0,L|76:244,1,85,2|0,0:0|0:0,0:0:0:0:
192,248,70720,1,8,0:0:0:0:
77,249,70915,1,0,0:0:0:0:
364,320,71109,6,0,P|433:260|405:189,1,170,2|8,0:0|0:0,0:0:0:0:
325,189,71694,1,0,0:0:0:0:
494,52,71889,2,0,L|406:56,1,85,2|0,0:0|0:0,0:0:0:0:
265,176,72278,2,0,L|357:180,1,85,8|0,0:0|0:0,0:0:0:0:
84,344,72668,6,0,P|55:293|115:213,1,170,2|8,0:0|0:0,0:0:0:0:
204,202,73252,1,0,0:0:0:0:
33,66,73447,2,0,L|117:70,1,85,2|0,0:0|0:0,0:0:0:0:
280,192,73837,2,0,L|284:104,1,85,8|0,0:0|0:0,0:0:0:0:
112,312,74226,6,0,L|108:228,1,85,2|0,0:0|0:0,0:0:0:0:
280,176,74616,2,0,L|364:180,1,85,8|0,0:0|0:0,0:0:0:0:
224,88,75005,2,0,L|136:92,1,85,2|0,0:0|0:0,0:0:0:0:
424,332,75395,2,0,L|428:244,1,85,8|0,0:0|0:0,0:0:0:0:
144,212,75785,6,0,P|104:156|171:85,1,170,2|8,0:0|0:0,0:0:0:0:
244,136,76369,1,0,0:0:0:0:
72,41,76564,6,0,L|244:45,1,170,2|8,0:0|0:0,0:0:0:0:
144,125,77148,1,0,0:0:0:0:
452,280,77343,6,0,L|460:188,1,85,2|0,0:0|0:0,0:0:0:0:
360,248,77733,1,8,0:0:0:0:
460,200,77928,1,0,0:0:0:0:
195,127,78122,6,0,L|180:35,1,85,2|0,0:0|0:0,0:0:0:0:
350,130,78512,2,0,L|364:44,1,85,8|0,0:0|0:0,0:0:0:0:
52,40,78902,6,0,L|48:128,1,85,2|0,0:0|0:0,0:0:0:0:
230,185,79291,2,0,L|314:181,1,85,8|0,0:0|0:0,0:0:0:0:
132,304,79681,2,0,L|48:300,1,85,2|0,0:0|0:0,0:0:0:0:
356,232,80070,1,8,0:0:0:0:
357,189,80168,1,0,0:0:0:0:
359,147,80265,1,0,0:0:0:0:
72,48,80460,6,0,L|69:139,1,85,6|0,0:0|0:0,0:0:0:0:
136,132,80752,1,6,0:0:0:0:
342,218,81044,1,6,0:0:0:0:
188,308,81239,6,0,L|360:312,1,170,2|0,0:0|0:0,0:0:0:0:
144,36,82015,5,6,0:0:0:0:
89,100,82209,1,0,0:0:0:0:
76,182,82404,1,0,0:0:0:0:
106,261,82599,1,0,0:0:0:0:
173,312,82794,1,0,0:0:0:0:
256,322,82989,1,0,0:0:0:0:
84,156,83183,2,0,L|72:200,2,42.5,0|0|0,0:0|0:0|0:0,0:0:0:0:
400,36,83573,5,6,0:0:0:0:
455,100,83768,1,0,0:0:0:0:
468,182,83963,1,0,0:0:0:0:
438,261,84157,1,0,0:0:0:0:
371,312,84352,1,0,0:0:0:0:
288,322,84547,1,0,0:0:0:0:
105,208,84742,2,0,L|93:260,2,42.5,0|0|0,0:0|0:0|0:0,0:0:0:0:
404,44,85131,5,6,0:0:0:0:
480,76,85326,1,0,0:0:0:0:
510,153,85521,1,0,0:0:0:0:
475,228,85716,1,0,0:0:0:0:
208,320,85911,6,0,L|200:232,1,85,6|0,0:0|0:0,0:0:0:0:
381,212,86300,1,0,0:0:0:0:
384,169,86398,1,0,0:0:0:0:
388,127,86495,1,0,0:0:0:0:
92,24,86690,6,0,L|88:108,1,85,6|0,0:0|0:0,0:0:0:0:
144,108,86982,1,0,0:0:0:0:
200,108,87079,1,0,0:0:0:0:
96,204,87274,1,0,0:0:0:0:
364,320,87469,2,0,L|368:232,1,85,6|0,0:0|0:0,0:0:0:0:
300,236,87761,1,0,0:0:0:0:
232,236,87859,2,0,L|144:236,1,85,0|0,0:0|0:0,0:0:0:0:
420,32,88248,5,6,0:0:0:0:
440,68,88346,1,0,0:0:0:0:
442,110,88443,1,0,0:0:0:0:
421,146,88540,1,0,0:0:0:0:
228,256,88833,2,0,L|316:256,2,85,0|0|0,0:0|0:0|0:0,0:0:0:0:
372,320,89417,2,0,L|376:232,1,85,0|0,0:0|0:0,0:0:0:0:
72,56,89807,5,6,0:0:0:0:
56,94,89904,1,0,0:0:0:0:
64,135,90002,1,0,0:0:0:0:
94,165,90099,1,0,0:0:0:0:
276,304,90391,2,0,L|184:308,2,85,0|0|0,0:0|0:0|0:0,0:0:0:0:
136,216,90976,2,0,L|48:212,1,85,0|0,0:0|0:0,0:0:0:0:
324,56,91365,6,0,L|328:144,1,85,6|0,0:0|0:0,0:0:0:0:
272,144,91657,1,0,0:0:0:0:
216,144,91755,1,0,0:0:0:0:
352,272,91950,2,0,L|264:268,2,85,0|0|0,0:0|0:0|0:0,0:0:0:0:
496,168,92534,2,0,L|408:172,1,85,0|0,0:0|0:0,0:0:0:0:
144,52,92924,5,6,0:0:0:0:
116,88,93021,1,0,0:0:0:0:
116,132,93118,1,0,0:0:0:0:
144,164,93216,1,0,0:0:0:0:
344,144,93508,1,0,0:0:0:0:
76,324,93703,2,0,L|72:236,1,85,6|0,0:0|0:0,0:0:0:0:
184,168,94092,2,0,L|100:164,1,85,0|0,0:0|0:0,0:0:0:0:
380,40,94482,5,6,0:0:0:0:
423,110,94677,1,2,0:0:0:0:
406,191,94872,1,2,0:0:0:0:
338,239,95066,1,2,0:0:0:0:
192,312,95261,2,0,L|188:224,1,85,2|2,0:0|0:0,0:0:0:0:
336,200,95651,2,0,L|344:112,1,85,2|2,0:0|0:0,0:0:0:0:
76,44,96040,5,6,0:0:0:0:
41,118,96235,1,2,0:0:0:0:
75,193,96430,1,2,0:0:0:0:
154,216,96625,1,2,0:0:0:0:
300,304,96820,2,0,L|216:308,1,85,2|2,0:0|0:0,0:0:0:0:
68,208,97209,2,0,L|156:212,1,85,2|2,0:0|0:0,0:0:0:0:
417,47,97599,6,0,L|421:131,1,85,6|2,0:0|0:0,0:0:0:0:
280,208,97989,2,0,L|192:204,1,85,2|0,0:0|0:0,0:0:0:0:
374,293,98378,1,2,0:0:0:0:
482,293,98573,1,2,0:0:0:0:
366,289,98768,1,2,0:0:0:0:
486,285,98963,1,2,0:0:0:0:
206,56,99157,5,6,0:0:0:0:
133,96,99352,1,8,0:0:0:0:
104,174,99547,1,8,0:0:0:0:
131,253,99742,1,8,0:0:0:0:
398,328,99937,1,6,0:0:0:0:
470,287,100131,1,8,0:0:0:0:
499,209,100326,1,8,0:0:0:0:
472,130,100521,1,8,0:0:0:0:
152,48,100716,6,0,L|144:224,1,170,2|0,0:0|0:0,0:0:0:0:
260,148,101300,1,2,0:0:0:0:
84,295,101495,1,8,0:0:0:0:
352,312,101885,1,2,0:0:0:0:
104,320,102274,6,0,L|96:232,1,85,2|0,0:0|0:0,0:0:0:0:
240,160,102664,2,0,L|152:156,1,85,0|2,0:0|0:0,0:0:0:0:
440,40,103053,6,0,P|484:92|440:172,1,170,8|0,0:0|0:0,0:0:0:0:
176,296,103833,2,0,L|348:300,1,170,2|0,0:0|0:0,0:0:0:0:
432,304,104417,1,2,0:0:0:0:
164,56,104612,6,0,P|140:108|212:184,1,170,8|0,0:0|0:0,0:0:0:0:
440,152,105391,2,0,L|444:236,1,85,2|0,0:0|0:0,0:0:0:0:
332,188,105781,1,0,0:0:0:0:
448,236,105976,1,2,0:0:0:0:
176,320,106170,6,0,P|112:296|80:196,1,170,8|0,0:0|0:0,0:0:0:0:
332,128,106950,2,0,L|508:132,1,170,2|0,0:0|0:0,0:0:0:0:
416,216,107534,1,2,0:0:0:0:
153,56,107729,6,0,P|109:106|158:184,1,170,8|2,0:0|0:0,0:0:0:0:
420,316,108508,2,0,L|336:320,1,85,2|0,0:0|0:0,0:0:0:0:
200,284,108898,2,0,L|192:192,1,85,0|2,0:0|0:0,0:0:0:0:
460,44,109287,6,0,P|488:88|436:188,1,170,8|8,0:0|0:0,0:0:0:0:
152,76,110066,2,0,L|328:80,2,170,2|2|2,0:0|0:0|0:0,0:0:0:0:
408,228,111235,1,2,0:0:0:0:
136,312,111625,6,0,L|128:224,1,85,2|2,0:0|0:0,0:0:0:0:
256,176,112015,2,0,L|172:176,1,85,2|2,0:0|0:0,0:0:0:0:
436,64,112404,1,8,0:0:0:0:
439,106,112502,1,8,0:0:0:0:
443,148,112599,1,8,0:0:0:0:
164,64,112794,1,8,0:0:0:0:
333,310,113183,6,0,P|417:272|422:198,1,170,2|8,0:0|0:0,0:0:0:0:
332,142,113768,1,0,0:0:0:0:
69,40,113963,2,0,L|65:132,1,85,2|0,0:0|0:0,0:0:0:0:
177,84,114352,1,8,0:0:0:0:
65,124,114547,1,0,0:0:0:0:
354,281,114742,6,0,P|354:221|258:161,1,170,2|8,0:0|0:0,0:0:0:0:
182,165,115326,1,0,0:0:0:0:
482,40,115521,2,0,L|490:128,1,85,2|0,0:0|0:0,0:0:0:0:
333,156,115911,2,0,L|329:244,1,85,8|0,0:0|0:0,0:0:0:0:
68,312,116300,6,0,P|36:224|76:168,1,170,2|8,0:0|0:0,0:0:0:0:
176,128,116885,1,0,0:0:0:0:
440,48,117079,2,0,L|444:136,1,85,2|0,0:0|0:0,0:0:0:0:
328,76,117469,1,8,0:0:0:0:
444,132,117664,1,0,0:0:0:0:
253,212,117859,6,0,L|169:216,1,85,2|0,0:0|0:0,0:0:0:0:
356,312,118248,2,0,L|360:228,1,85,8|0,0:0|0:0,0:0:0:0:
169,121,118638,2,0,L|265:117,1,85,2|0,0:0|0:0,0:0:0:0:
444,60,119027,2,0,L|360:56,1,85,8|0,0:0|0:0,0:0:0:0:
88,56,119417,6,0,P|52:116|100:208,1,170,2|8,0:0|0:0,0:0:0:0:
184,228,120002,1,0,0:0:0:0:
452,324,120196,2,0,L|460:240,1,85,2|0,0:0|0:0,0:0:0:0:
344,292,120586,1,8,0:0:0:0:
456,240,120781,1,0,0:0:0:0:
192,48,120976,6,0,P|184:116|280:168,1,170,2|8,0:0|0:0,0:0:0:0:
356,168,121560,1,0,0:0:0:0:
52,338,121755,2,0,L|44:250,1,85,2|0,0:0|0:0,0:0:0:0:
212,223,122144,2,0,L|216:139,1,85,8|0,0:0|0:0,0:0:0:0:
480,40,122534,6,0,L|484:128,1,85,2|0,0:0|0:0,0:0:0:0:
301,205,122924,2,0,L|209:201,1,85,8|0,0:0|0:0,0:0:0:0:
396,296,123313,2,0,L|492:292,1,85,2|0,0:0|0:0,0:0:0:0:
208,56,123703,1,10,0:0:0:0:
204,99,123800,1,0,0:0:0:0:
200,141,123898,1,0,0:0:0:0:
472,316,124092,6,0,L|480:184,1,127.5,6|6,0:0|0:0,0:0:0:0:
256,48,124677,1,6,0:0:0:0:
396,152,124872,2,0,L|224:148,1,170,2|0,0:0|0:0,0:0:0:0:
