osu file format v14

[General]
AudioFilename: audio.mp3
AudioLeadIn: 0
PreviewTime: 62000
Countdown: 1
SampleSet: Soft
StackLeniency: 0.7
Mode: 0
LetterboxInBreaks: 0
WidescreenStoryboard: 0

[Editor]
Bookmarks: 159500,163250,167000,196531
DistanceSpacing: 1.7
BeatDivisor: 4
GridSize: 4
TimelineZoom: 1

[Metadata]
Title:Roundtable Rival
TitleUnicode:Roundtable Rival
Artist:Lindsey Stirling
ArtistUnicode:Lindsey Stirling
Creator:MagicNAT
Version:Insane
Source:
Tags:
BeatmapID:1078687
BeatmapSetID:507103

[Difficulty]
HPDrainRate:7
CircleSize:4
OverallDifficulty:7
ApproachRate:8.5
SliderMultiplier:1.9
SliderTickRate:2

[Events]
//Background and Video events
0,0,"228039.jpg",0,0
//Break Periods
2,165089,166325
//Storyboard Layer 0 (Background)
//Storyboard Layer 1 (Fail)
//Storyboard Layer 2 (Pass)
//Storyboard Layer 3 (Foreground)
//Storyboard Sound Samples

[TimingPoints]
2000,468.75,4,2,0,100,1,0
62000,-66.6666666666667,4,2,0,100,0,1
76531,-100,4,2,0,100,0,0
122000,-100,4,2,0,100,0,1
129265,-100,4,2,0,100,0,0
129500,-100,4,2,0,100,0,1
136531,-66.6666666666667,4,2,0,100,0,0
164890,-100,4,2,0,100,0,0
167000,-100,4,2,0,100,0,1
174265,-100,4,2,0,100,0,0
174500,-100,4,2,0,100,0,1
181531,-100,4,2,0,100,0,0
182000,-100,4,2,0,100,0,1
196531,-100,4,2,0,100,0,0

[HitObjects]
105,55,2000,5,0,0:0:0:0:
114,66,2468,1,0,0:0:0:0:
256,161,2703,1,0,0:0:0:0:
101,233,2937,1,0,0:0:0:0:
140,249,3406,1,0,0:0:0:0:
205,91,3640,1,0,0:0:0:0:
284,208,3875,6,0,P|334:236|361:264,1,95
178,179,4343,2,0,P|121:183|54:154,1,95
262,285,4812,2,0,P|316:274|365:252,1,95
205,219,5281,2,0,P|172:179|167:121,1,95
294,107,5750,5,0,0:0:0:0:
310,113,6218,1,0,0:0:0:0:
246,230,6453,1,0,0:0:0:0:
188,110,6687,2,0,P|186:165|183:173,1,47.5
347,193,6921,2,0,P|323:242|320:251,1,47.5
221,261,7156,1,0,0:0:0:0:
325,51,7390,6,0,P|298:102|279:115,1,47.5
175,120,7625,2,0,P|144:167|137:191,1,47.5
243,188,7859,2,0,P|296:191|346:170,1,95
76,108,8328,1,0,0:0:0:0:
207,128,8562,6,0,P|249:159|273:163,1,47.5
310,103,8796,1,0,0:0:0:0:
337,199,9031,2,0,P|295:245|221:261,1,95
188,149,9500,5,0,0:0:0:0:
164,163,9968,1,0,0:0:0:0:
273,323,10203,1,0,0:0:0:0:
348,180,10437,2,0,P|370:127|364:92,1,95
122,230,10906,2,0,P|67:260|35:316,1,95
241,193,11375,5,0,0:0:0:0:
221,158,11843,1,0,0:0:0:0:
302,308,12078,1,0,0:0:0:0:
455,283,12312,1,0,0:0:0:0:
364,77,12546,1,0,0:0:0:0:
261,340,12781,1,0,0:0:0:0:
79,151,13015,1,0,0:0:0:0:
236,209,13250,5,0,0:0:0:0:
261,219,13718,1,0,0:0:0:0:
359,129,13953,1,0,0:0:0:0:
359,308,14187,1,0,0:0:0:0:
156,241,14421,1,0,0:0:0:0:
467,175,14656,1,0,0:0:0:0:
207,318,14890,1,0,0:0:0:0:
111,116,15125,6,0,P|83:65|20:38,1,95
372,286,15593,2,0,P|424:321|482:330,1,95
290,117,16062,1,0,0:0:0:0:
136,262,16296,1,0,0:0:0:0:
325,329,16531,1,0,0:0:0:0:
349,307,17000,5,0,0:0:0:0:
392,109,17234,1,0,0:0:0:0:
332,56,17351,1,0,0:0:0:0:
266,93,17468,1,0,0:0:0:0:
211,245,17703,1,0,0:0:0:0:
371,233,17937,1,0,0:0:0:0:
229,156,18171,1,0,0:0:0:0:
158,115,18289,1,0,0:0:0:0:
113,202,18406,2,0,P|118:257|152:296,1,95
138,74,18875,5,0,0:0:0:0:
125,89,19109,2,0,P|84:121|72:124,1,47.5
276,260,19343,1,0,0:0:0:0:
288,277,19578,2,0,P|321:315|326:319,1,47.5
361,86,19812,2,0,P|400:40|444:22,1,95
149,278,20281,2,0,P|103:316|64:323,1,95
134,164,20750,5,0,0:0:0:0:
268,252,20984,1,0,0:0:0:0:
318,189,21101,1,0,0:0:0:0:
396,239,21218,1,0,0:0:0:0:
262,330,21453,1,0,0:0:0:0:
186,211,21687,2,0,P|136:226|133:226,1,47.5
325,117,21921,2,0,P|350:68|354:64,1,47.5
383,217,22156,1,0,0:0:0:0:
176,127,22390,1,0,0:0:0:0:
255,278,22625,6,0,P|199:307|141:308,1,95
233,169,22976,1,0,0:0:0:0:
191,195,23093,2,0,P|146:217|94:220,1,95
204,78,23445,1,0,0:0:0:0:
239,94,23562,2,0,P|292:117|349:116,1,95
233,241,24031,1,0,0:0:0:0:
255,220,24500,5,0,0:0:0:0:
419,190,24734,1,0,0:0:0:0:
375,288,24851,1,0,0:0:0:0:
291,149,24968,1,0,0:0:0:0:
99,248,25203,1,0,0:0:0:0:
146,115,25437,2,0,P|153:61|146:39,1,47.5
226,271,25671,2,0,P|256:315|262:319,1,47.5
301,180,25906,2,0,P|339:144|366:85,1,95
155,65,26375,6,0,P|107:70|67:98,1,95
346,306,26843,2,0,P|398:302|448:271,1,95
392,116,27312,1,0,0:0:0:0:
262,309,27546,1,0,0:0:0:0:
171,163,27781,1,0,0:0:0:0:
458,303,28015,1,0,0:0:0:0:
354,139,28250,5,0,0:0:0:0:
222,249,28484,1,0,0:0:0:0:
121,193,28601,1,0,0:0:0:0:
179,86,28718,1,0,0:0:0:0:
121,295,28953,1,0,0:0:0:0:
327,242,29187,6,0,P|340:297|340:301,1,47.5
414,180,29421,2,0,P|456:146|463:144,1,47.5
324,125,29656,1,0,0:0:0:0:
298,155,29890,1,0,0:0:0:0:
340,311,30125,6,0,B|292:324|292:324|244:280|195:332|148:303,1,190
334,195,30828,1,0,0:0:0:0:
199,105,31062,1,0,0:0:0:0:
83,217,31296,1,0,0:0:0:0:
379,314,31531,1,0,0:0:0:0:
423,319,32000,5,0,0:0:0:0:
404,301,32937,1,0,0:0:0:0:
141,204,33171,1,0,0:0:0:0:
305,52,33640,5,0,0:0:0:0:
418,122,33875,1,0,0:0:0:0:
101,267,34343,1,0,0:0:0:0:
276,333,34578,1,0,0:0:0:0:
136,82,34812,1,0,0:0:0:0:
153,107,35281,1,0,0:0:0:0:
421,82,35750,5,0,0:0:0:0:
391,118,36218,1,0,0:0:0:0:
153,81,36453,1,0,0:0:0:0:
218,228,36687,1,0,0:0:0:0:
265,227,37156,1,0,0:0:0:0:
54,338,37390,1,0,0:0:0:0:
235,300,37625,5,0,0:0:0:0:
257,263,38093,1,0,0:0:0:0:
123,156,38328,1,0,0:0:0:0:
318,63,38562,1,0,0:0:0:0:
307,97,39031,5,0,0:0:0:0:
292,317,39500,1,0,0:0:0:0:
442,48,39968,1,0,0:0:0:0:
292,262,40203,1,0,0:0:0:0:
271,224,40437,5,0,0:0:0:0:
84,311,40906,1,0,0:0:0:0:
183,153,41140,1,0,0:0:0:0:
221,152,41609,2,0,P|285:163|335:206,1,95
150,242,42078,1,0,0:0:0:0:
371,331,42312,2,0,P|442:324|488:291,1,95
384,69,42781,1,0,0:0:0:0:
111,288,43015,1,0,0:0:0:0:
156,272,43250,6,0,P|202:239|236:178,1,95
64,146,43718,1,0,0:0:0:0:
394,318,43953,1,0,0:0:0:0:
398,273,44187,6,0,P|387:210|352:159,1,95
255,308,44656,1,0,0:0:0:0:
457,77,44890,1,0,0:0:0:0:
427,107,45359,5,0,0:0:0:0:
218,62,45593,2,0,B|151:51|96:59|96:59|45:133,1,190
96,143,46531,1,0,0:0:0:0:
136,188,47000,6,0,P|185:240|223:240,1,95
295,87,47468,1,0,0:0:0:0:
240,259,47703,1,0,0:0:0:0:
66,307,47937,5,0,0:0:0:0:
177,165,48171,1,0,0:0:0:0:
344,217,48406,2,0,P|386:265|405:314,1,95
89,106,49109,5,0,0:0:0:0:
174,264,49343,2,0,P|225:303|276:304,1,95
339,147,49812,1,0,0:0:0:0:
196,228,50281,1,0,0:0:0:0:
186,259,50750,6,0,P|136:300|86:301,1,95
211,156,51218,1,0,0:0:0:0:
318,301,51453,1,0,0:0:0:0:
371,128,51687,6,0,P|347:172|292:193,1,95
230,27,52156,1,0,0:0:0:0:
445,323,52390,1,0,0:0:0:0:
400,306,52859,5,0,0:0:0:0:
156,278,53328,1,0,0:0:0:0:
258,211,53562,1,0,0:0:0:0:
80,62,54031,5,0,0:0:0:0:
439,100,54500,5,0,0:0:0:0:
134,293,54968,1,0,0:0:0:0:
456,263,55437,1,0,0:0:0:0:
140,87,55906,1,0,0:0:0:0:
403,334,56375,1,0,0:0:0:0:
245,9,56843,1,0,0:0:0:0:
45,309,57312,1,0,0:0:0:0:
397,231,57781,1,0,0:0:0:0:
56,111,58250,5,0,0:0:0:0:
143,268,58484,1,0,0:0:0:0:
215,103,58718,1,0,0:0:0:0:
62,200,58953,1,0,0:0:0:0:
240,222,59187,1,0,0:0:0:0:
363,90,59421,1,0,0:0:0:0:
402,266,59656,1,0,0:0:0:0:
275,137,59890,1,0,0:0:0:0:
265,183,60125,6,0,P|230:229|94:210,1,190
167,102,60828,1,0,0:0:0:0:
261,159,61062,2,0,P|303:193|358:201,1,95
181,284,61531,1,0,0:0:0:0:
434,47,61765,1,0,0:0:0:0:
254,66,62000,5,0,0:0:0:0:
51,222,62234,1,0,0:0:0:0:
117,158,62351,1,0,0:0:0:0:
179,222,62468,1,0,0:0:0:0:
205,235,62703,1,0,0:0:0:0:
268,92,62937,2,0,P|195:128|106:139,1,142.500005435944
290,258,63406,2,0,P|363:298|445:307,1,142.500005435944
408,44,64109,5,0,0:0:0:0:
193,184,64343,2,0,P|123:222|51:224,1,142.500005435944
439,325,64812,1,0,0:0:0:0:
204,265,65046,1,0,0:0:0:0:
75,44,65281,1,0,0:0:0:0:
92,59,65750,5,0,0:0:0:0:
313,192,66218,2,0,P|381:157|436:74,1,142.500005435944
166,133,66687,1,0,0:0:0:0:
436,314,66921,1,0,0:0:0:0:
443,20,67156,1,0,0:0:0:0:
102,319,67390,1,0,0:0:0:0:
445,258,67625,6,0,P|385:318|306:338,1,142.500005435944
151,81,68093,2,0,P|185:177|239:218,1,142.500005435944
438,12,68562,1,0,0:0:0:0:
147,298,68796,1,0,0:0:0:0:
334,317,69031,1,0,0:0:0:0:
313,280,69500,5,0,0:0:0:0:
140,90,69734,1,0,0:0:0:0:
97,210,69851,1,0,0:0:0:0:
157,322,69968,1,0,0:0:0:0:
176,285,70203,1,0,0:0:0:0:
333,87,70437,2,0,P|393:144|462:153,1,142.500005435944
150,241,70906,2,0,P|74:273|3:273,1,142.500005435944
255,44,71609,5,0,0:0:0:0:
89,164,71843,2,0,P|43:221|-27:247,1,142.500005435944
226,170,72312,1,0,0:0:0:0:
419,337,72546,1,0,0:0:0:0:
61,337,72781,1,0,0:0:0:0:
86,311,73250,5,0,0:0:0:0:
372,165,73718,2,0,P|436:114|457:49,1,142.500005435944
202,102,74187,1,0,0:0:0:0:
339,318,74421,1,0,0:0:0:0:
388,184,74656,1,0,0:0:0:0:
169,317,74890,1,0,0:0:0:0:
298,94,75125,2,0,P|230:141|141:155,1,142.500005435944
410,250,75593,2,0,P|463:316|534:338,1,142.500005435944
374,69,76062,1,0,0:0:0:0:
211,326,76296,1,0,0:0:0:0:
47,47,76531,1,0,0:0:0:0:
207,99,77000,5,0,0:0:0:0:
74,190,77234,2,0,P|55:242|52:261,1,47.5
244,202,77468,2,0,P|308:152|324:106,1,95
394,292,77937,5,0,0:0:0:0:
241,344,78171,2,0,P|181:348|162:344,1,47.5
296,225,78406,1,0,0:0:0:0:
153,149,78640,1,0,0:0:0:0:
152,103,78875,6,0,P|180:144|234:178,1,95
193,100,79343,2,0,P|192:45|166:7,1,95
87,161,79812,1,0,0:0:0:0:
184,289,80046,2,0,P|133:320|111:323,1,47.5
213,195,80281,1,0,0:0:0:0:
373,350,80515,1,0,0:0:0:0:
383,325,80750,5,0,0:0:0:0:
343,191,80984,2,0,P|290:211|263:213,1,47.5
217,112,81218,1,0,0:0:0:0:
111,249,81453,1,0,0:0:0:0:
277,285,81687,2,0,P|340:294|402:281,1,95
204,167,82156,2,0,P|196:100|163:53,1,95
155,92,82625,1,0,0:0:0:0:
14,189,82859,1,0,0:0:0:0:
167,264,83093,1,0,0:0:0:0:
469,201,83562,2,0,P|421:235|379:237,1,95
436,74,84031,1,0,0:0:0:0:
406,98,84500,5,0,0:0:0:0:
385,121,84968,1,0,0:0:0:0:
216,88,85203,1,0,0:0:0:0:
118,227,85437,2,0,P|81:273|26:302,1,95
409,303,85906,2,0,P|462:333|525:321,1,95
363,173,86375,5,0,0:0:0:0:
347,197,86843,1,0,0:0:0:0:
199,109,87078,1,0,0:0:0:0:
345,297,87312,2,0,P|401:318|440:318,1,95
111,97,87781,2,0,P|65:61|1:37,1,95
143,268,88250,5,0,0:0:0:0:
168,247,88718,1,0,0:0:0:0:
309,343,88953,1,0,0:0:0:0:
216,141,89187,2,0,P|154:92|103:73,1,95
129,170,89539,1,0,0:0:0:0:
213,183,89656,2,0,P|266:197|348:191,1,95
381,44,90125,5,0,0:0:0:0:
369,82,90593,1,0,0:0:0:0:
275,213,91062,2,0,B|228:246|228:246|152:236|86:258|81:299,1,190
453,189,92000,5,0,0:0:0:0:
438,225,92117,1,0,0:0:0:0:
416,249,92234,1,0,0:0:0:0:
379,266,92351,1,0,0:0:0:0:
325,199,92468,1,0,0:0:0:0:
285,270,92703,2,0,P|241:292|178:280,1,95
402,85,93406,1,0,0:0:0:0:
232,101,93640,6,0,P|179:102|144:118,1,47.5
217,180,93875,2,0,P|266:204|337:202,1,95
154,240,94343,2,0,P|103:281|68:291,1,95
314,304,94812,2,0,P|367:321|416:315,1,95
133,305,95281,2,0,P|92:333|38:340,1,95
227,237,95750,5,0,0:0:0:0:
212,203,96218,2,0,P|184:158|166:145,3,47.5
465,270,96687,1,0,0:0:0:0:
453,232,97156,2,0,P|422:188|401:174,3,47.5
216,87,97625,1,0,0:0:0:0:
204,53,98093,2,0,P|176:9|157:-4,3,47.5
175,273,98562,1,0,0:0:0:0:
89,124,98796,1,0,0:0:0:0:
259,136,99031,1,0,0:0:0:0:
232,161,99265,1,0,0:0:0:0:
390,226,99500,5,0,0:0:0:0:
355,58,99734,1,0,0:0:0:0:
269,205,99851,1,0,0:0:0:0:
206,119,99968,1,0,0:0:0:0:
436,145,100203,1,0,0:0:0:0:
323,273,100437,2,0,P|269:303|226:305,1,95
171,112,100906,2,0,P|132:138|86:183,1,95
267,155,101375,5,0,0:0:0:0:
437,158,101609,1,0,0:0:0:0:
383,88,101726,1,0,0:0:0:0:
337,213,101843,1,0,0:0:0:0:
455,323,102078,1,0,0:0:0:0:
152,255,102312,2,0,P|118:309|76:330,1,95
354,133,102781,2,0,P|410:85|450:67,1,95
393,243,103250,5,0,0:0:0:0:
229,291,103484,1,0,0:0:0:0:
172,82,103601,1,0,0:0:0:0:
131,157,103718,1,0,0:0:0:0:
311,114,103953,1,0,0:0:0:0:
150,247,104187,2,0,P|104:281|70:288,2,47.5
51,106,104656,1,0,0:0:0:0:
268,183,104890,1,0,0:0:0:0:
123,56,105125,5,0,0:0:0:0:
356,303,105593,1,0,0:0:0:0:
241,151,106062,1,0,0:0:0:0:
366,202,106296,1,0,0:0:0:0:
446,103,106531,1,0,0:0:0:0:
423,319,107000,5,0,0:0:0:0:
404,301,107937,1,0,0:0:0:0:
141,204,108171,1,0,0:0:0:0:
305,52,108640,5,0,0:0:0:0:
283,134,108757,1,0,0:0:0:0:
418,122,108875,1,0,0:0:0:0:
317,143,109109,1,0,0:0:0:0:
101,267,109343,1,0,0:0:0:0:
276,333,109578,1,0,0:0:0:0:
136,82,109812,1,0,0:0:0:0:
153,107,110281,1,0,0:0:0:0:
312,85,110515,1,0,0:0:0:0:
350,220,110750,5,0,0:0:0:0:
324,238,111218,1,0,0:0:0:0:
138,337,111453,1,0,0:0:0:0:
187,95,111687,1,0,0:0:0:0:
218,127,112156,1,0,0:0:0:0:
71,251,112390,1,0,0:0:0:0:
235,300,112625,5,0,0:0:0:0:
257,263,113093,1,0,0:0:0:0:
123,156,113328,1,0,0:0:0:0:
318,63,113562,1,0,0:0:0:0:
307,97,114031,1,0,0:0:0:0:
237,162,114148,1,0,0:0:0:0:
294,237,114265,1,0,0:0:0:0:
205,270,114382,1,0,0:0:0:0:
292,317,114500,5,0,0:0:0:0:
396,43,114968,1,0,0:0:0:0:
321,359,115437,1,0,0:0:0:0:
303,40,115906,1,0,0:0:0:0:
229,364,116375,1,0,0:0:0:0:
199,42,116843,1,0,0:0:0:0:
126,357,117312,1,0,0:0:0:0:
116,34,117781,1,0,0:0:0:0:
420,190,118250,1,0,0:0:0:0:
259,131,118484,1,0,0:0:0:0:
332,284,118718,1,0,0:0:0:0:
348,113,118953,1,0,0:0:0:0:
232,239,119187,5,0,0:0:0:0:
206,242,119304,5,0,0:0:0:0:
172,237,119421,5,0,0:0:0:0:
138,218,119539,5,0,0:0:0:0:
106,188,119656,5,0,0:0:0:0:
96,132,119773,5,0,0:0:0:0:
112,88,119890,5,0,0:0:0:0:
162,50,120007,5,0,0:0:0:0:
223,37,120125,5,0,0:0:0:0:
269,146,121531,1,0,0:0:0:0:
221,239,122000,6,0,P|173:280|121:285,1,95
360,138,122468,2,0,P|399:97|457:71,1,95
228,74,122937,1,0,0:0:0:0:
246,116,123406,6,0,P|212:165|153:186,1,95
390,157,124109,1,0,0:0:0:0:
282,232,124343,2,0,P|232:240|171:218,1,95
247,67,124812,1,0,0:0:0:0:
430,334,125046,1,0,0:0:0:0:
151,255,125281,1,0,0:0:0:0:
411,120,125750,6,0,P|366:158|301:164,1,95
443,37,126218,1,0,0:0:0:0:
483,249,126453,1,0,0:0:0:0:
356,134,126687,1,0,0:0:0:0:
266,279,126921,1,0,0:0:0:0:
209,117,127156,1,0,0:0:0:0:
395,320,127390,1,0,0:0:0:0:
214,232,127625,2,0,P|164:263|102:269,1,95
391,164,128093,2,0,P|441:120|461:64,1,95
254,78,128562,1,0,0:0:0:0:
299,194,128796,1,0,0:0:0:0:
135,166,129031,1,0,0:0:0:0:
178,293,129265,1,0,0:0:0:0:
455,147,129500,6,0,P|431:199|384:240,1,95
335,70,129968,1,0,0:0:0:0:
199,233,130203,1,0,0:0:0:0:
235,244,130671,1,0,0:0:0:0:
365,132,130906,1,0,0:0:0:0:
100,130,131375,2,0,P|46:136|-15:121,1,95
358,230,131843,2,0,P|426:233|474:220,1,95
247,63,132312,1,0,0:0:0:0:
242,94,132781,1,0,0:0:0:0:
56,304,133015,5,0,0:0:0:0:
213,235,133250,1,0,0:0:0:0:
364,313,133484,2,0,P|397:275|399:212,1,95
262,329,133953,1,0,0:0:0:0:
284,159,134187,1,0,0:0:0:0:
259,183,134656,5,0,0:0:0:0:
119,84,134890,1,0,0:0:0:0:
123,127,135007,1,0,0:0:0:0:
149,158,135125,1,0,0:0:0:0:
322,47,135593,1,0,0:0:0:0:
291,215,135828,1,0,0:0:0:0:
149,158,136062,2,0,P|78:178|37:229,1,95
231,308,136531,1,0,0:0:0:0:
387,120,137000,6,0,P|327:167|317:167,1,71.2500027179719
61,38,137351,2,0,P|129:90|135:92,1,71.2500027179719
257,93,137703,2,0,P|202:142|189:146,1,71.2500027179719
286,275,138171,1,0,0:0:0:0:
166,265,138406,2,0,P|109:214|88:139,1,142.500005435944
366,133,138875,6,0,P|304:168|267:173,1,71.2500027179719
181,77,139226,2,0,P|126:90|86:127,1,71.2500027179719
314,258,139578,2,0,P|271:319|265:322,1,71.2500027179719
109,237,140046,1,0,0:0:0:0:
343,174,140281,2,0,B|401:153|401:153|434:76|486:54,1,142.500005435944
157,132,140750,6,0,P|207:189|218:194,1,71.2500027179719
434,287,141101,2,0,P|446:213|435:184,1,71.2500027179719
179,320,141453,2,0,P|106:305|96:299,1,71.2500027179719
229,229,141687,1,0,0:0:0:0:
359,200,141921,2,0,B|330:158|330:158|243:141|233:119,1,142.500005435944
399,353,142390,1,0,0:0:0:0:
350,344,142625,6,0,P|270:293|263:275,1,71.2500027179719
406,176,142976,2,0,P|361:105|346:95,1,71.2500027179719
89,158,143328,2,0,P|146:204|167:207,1,71.2500027179719
241,59,143679,1,0,0:0:0:0:
307,184,143796,1,0,0:0:0:0:
218,296,143914,1,0,0:0:0:0:
192,161,144031,2,0,B|243:147|243:147|350:176|371:135,1,142.500005435944
392,323,144500,6,0,P|318:358|301:359,1,71.2500027179719
110,102,144851,2,0,P|181:63|190:62,1,71.2500027179719
410,100,145203,2,0,P|353:172|282:187,1,142.500005435944
426,321,145671,1,0,0:0:0:0:
306,61,145906,1,0,0:0:0:0:
187,272,146140,1,0,0:0:0:0:
343,208,146375,6,0,P|405:153|432:146,1,71.2500027179719
436,319,146726,2,0,P|368:342|348:343,1,71.2500027179719
168,204,147078,2,0,P|241:169|259:171,1,71.2500027179719
150,315,147429,1,0,0:0:0:0:
267,288,147546,2,0,P|350:262|376:208,1,142.500005435944
370,98,148015,5,0,0:0:0:0:
131,52,148250,2,0,P|61:37|41:37,1,71.2500027179719
346,251,148601,2,0,P|425:270|435:270,1,71.2500027179719
86,193,148953,2,0,P|158:159|184:157,1,71.2500027179719
139,338,149421,1,0,0:0:0:0:
153,317,149539,1,0,0:0:0:0:
175,298,149656,1,0,0:0:0:0:
369,131,149890,5,0,0:0:0:0:
461,345,150125,1,0,0:0:0:0:
424,343,150242,1,0,0:0:0:0:
272,178,150476,1,0,0:0:0:0:
251,210,150593,1,0,0:0:0:0:
213,57,150828,1,0,0:0:0:0:
203,88,150945,1,0,0:0:0:0:
101,184,151296,1,0,0:0:0:0:
120,173,151414,1,0,0:0:0:0:
138,164,151531,1,0,0:0:0:0:
355,298,151765,1,0,0:0:0:0:
336,188,152000,6,0,P|413:213|423:213,1,71.2500027179719
197,243,152351,2,0,P|128:272|113:273,1,71.2500027179719
296,73,152703,1,0,0:0:0:0:
157,149,152937,1,0,0:0:0:0:
195,178,153171,2,0,P|267:213|345:203,1,142.500005435944
237,116,153640,1,0,0:0:0:0:
381,115,153875,6,0,P|442:61|456:56,1,71.2500027179719
153,299,154226,2,0,P|81:330|72:330,1,71.2500027179719
174,58,154578,1,0,0:0:0:0:
304,278,154812,1,0,0:0:0:0:
65,184,155046,1,0,0:0:0:0:
321,159,155281,2,0,P|401:119|439:58,1,142.500005435944
175,109,155750,6,0,P|95:98|85:98,1,71.2500027179719
318,238,156101,2,0,P|391:273|399:275,1,71.2500027179719
124,263,156453,2,0,P|54:294|51:294,1,71.2500027179719
258,130,156804,1,0,0:0:0:0:
235,256,156921,2,0,P|296:313|303:316,1,71.2500027179719
335,188,157156,1,0,0:0:0:0:
79,196,157390,1,0,0:0:0:0:
339,273,157625,6,0,P|350:353|350:363,1,71.2500027179719
210,130,157976,2,0,P|175:57|173:49,1,71.2500027179719
185,324,158328,2,0,P|154:394|154:397,1,71.2500027179719
318,190,158679,1,0,0:0:0:0:
192,213,158796,2,0,P|135:152|132:145,1,71.2500027179719
261,117,159031,2,0,P|326:69|336:69,1,71.2500027179719
397,166,159265,2,0,P|419:247|415:257,1,71.2500027179719
293,234,159500,2,0,P|210:258|143:240,1,142.500005435944
338,66,159968,6,0,P|416:47|486:52,1,142.500005435944
146,188,160437,2,0,P|62:226|-9:232,1,142.500005435944
303,126,160906,2,0,P|390:101|474:97,1,142.500005435944
176,294,161375,2,0,P|101:319|29:322,1,142.500005435944
308,224,161843,2,0,P|385:198|488:181,1,142.500005435944
203,97,162312,2,0,P|138:68|63:55,1,142.500005435944
265,220,162781,2,0,P|343:279|421:300,1,142.500005435944
147,193,163250,2,0,P|77:232|75:232,1,71.2500027179719
212,131,163484,2,0,P|273:87|297:75,1,71.2500027179719
217,250,163718,2,0,P|154:292|143:294,1,71.2500027179719
295,200,163953,2,0,P|369:172|381:169,1,71.2500027179719
314,293,164187,2,0,P|247:338|212:342,1,71.2500027179719
401,242,164421,2,0,P|446:178|347:22,1,285.000010871888
133,117,167000,6,0,P|214:82|307:97,1,142.5
205,185,167468,1,0,0:0:0:0:
454,291,167703,1,0,0:0:0:0:
304,208,167937,1,0,0:0:0:0:
284,243,168406,5,0,0:0:0:0:
130,91,168640,1,0,0:0:0:0:
358,125,168875,1,0,0:0:0:0:
97,273,169109,1,0,0:0:0:0:
226,146,169343,1,0,0:0:0:0:
420,298,169578,1,0,0:0:0:0:
262,306,169812,1,0,0:0:0:0:
427,164,170046,1,0,0:0:0:0:
343,302,170281,1,0,0:0:0:0:
329,268,170750,6,0,L|311:214,1,47.5
237,248,170984,2,0,L|218:196,1,47.5
140,194,171218,1,0,0:0:0:0:
279,111,171453,2,0,P|341:131|383:171,1,95
232,242,171921,1,0,0:0:0:0:
376,314,172156,1,0,0:0:0:0:
402,278,172625,5,0,0:0:0:0:
287,163,172859,1,0,0:0:0:0:
186,288,173093,1,0,0:0:0:0:
143,131,173328,1,0,0:0:0:0:
300,273,173562,1,0,0:0:0:0:
361,120,173796,1,0,0:0:0:0:
146,217,174031,1,0,0:0:0:0:
196,211,174500,6,0,P|251:177|285:100,1,142.5
203,117,174968,1,0,0:0:0:0:
312,273,175203,1,0,0:0:0:0:
377,125,175437,1,0,0:0:0:0:
346,144,175906,1,0,0:0:0:0:
201,215,176140,1,0,0:0:0:0:
350,276,176375,2,0,P|413:308|447:313,1,95
134,85,176843,2,0,P|78:48|46:37,1,95
280,113,177312,1,0,0:0:0:0:
146,167,177546,1,0,0:0:0:0:
341,252,177781,1,0,0:0:0:0:
115,319,178015,1,0,0:0:0:0:
160,311,178250,6,0,L|218:291,1,47.5
238,202,178484,2,0,L|296:178,1,47.5
293,263,178718,1,0,0:0:0:0:
164,225,178953,2,0,P|120:188|47:168,1,95
240,128,179421,1,0,0:0:0:0:
83,258,179656,1,0,0:0:0:0:
229,324,179890,1,0,0:0:0:0:
327,226,180125,2,0,P|383:202|437:154,1,95
90,65,180593,2,0,P|11:45|-20:28,1,95
90,172,181062,1,0,0:0:0:0:
123,182,181531,5,0,0:0:0:0:
217,312,181765,1,0,0:0:0:0:
344,212,182000,1,0,0:0:0:0:
335,175,182468,1,0,0:0:0:0:
201,82,182703,1,0,0:0:0:0:
46,296,182937,1,0,0:0:0:0:
85,266,183406,5,0,0:0:0:0:
244,287,183640,1,0,0:0:0:0:
290,72,183875,1,0,0:0:0:0:
186,137,184109,1,0,0:0:0:0:
396,255,184343,1,0,0:0:0:0:
358,225,184460,1,0,0:0:0:0:
318,207,184578,1,0,0:0:0:0:
316,314,184812,1,0,0:0:0:0:
384,143,185046,1,0,0:0:0:0:
215,286,185281,1,0,0:0:0:0:
238,126,185515,1,0,0:0:0:0:
199,105,185750,6,0,P|144:72|110:68,1,95
256,218,186218,2,0,P|317:241|377:239,1,95
292,90,186687,1,0,0:0:0:0:
261,121,187156,5,0,0:0:0:0:
100,134,187390,1,0,0:0:0:0:
116,167,187507,1,0,0:0:0:0:
136,210,187625,1,0,0:0:0:0:
218,71,187859,1,0,0:0:0:0:
211,220,188093,1,0,0:0:0:0:
326,184,188328,1,0,0:0:0:0:
176,301,188562,1,0,0:0:0:0:
286,273,188679,1,0,0:0:0:0:
259,162,188796,1,0,0:0:0:0:
389,223,188914,1,0,0:0:0:0:
415,121,189031,1,0,0:0:0:0:
361,38,189148,1,0,0:0:0:0:
268,54,189265,1,0,0:0:0:0:
154,279,189500,5,0,0:0:0:0:
427,336,189968,1,0,0:0:0:0:
329,207,190203,1,0,0:0:0:0:
84,260,190437,1,0,0:0:0:0:
110,225,190906,1,0,0:0:0:0:
253,298,191140,1,0,0:0:0:0:
264,136,191375,1,0,0:0:0:0:
382,245,191609,1,0,0:0:0:0:
391,67,191843,1,0,0:0:0:0:
295,209,192078,1,0,0:0:0:0:
163,178,192312,1,0,0:0:0:0:
308,108,192546,1,0,0:0:0:0:
203,279,192781,1,0,0:0:0:0:
121,88,193015,1,0,0:0:0:0:
162,107,193250,6,0,L|216:143,1,47.5
129,210,193484,2,0,L|181:242,1,47.5
245,207,193718,1,0,0:0:0:0:
321,349,193953,1,0,0:0:0:0:
417,219,194187,1,0,0:0:0:0:
301,106,194421,1,0,0:0:0:0:
181,313,194656,1,0,0:0:0:0:
164,270,195125,5,0,0:0:0:0:
456,77,195359,1,0,0:0:0:0:
458,280,195593,1,0,0:0:0:0:
161,95,195828,1,0,0:0:0:0:
186,126,196296,1,0,0:0:0:0:
428,333,196531,1,0,0:0:0:0:
