osu file format v14

[General]
AudioFilename: audio.mp3
AudioLeadIn: 0
PreviewTime: 63295
Countdown: 0
SampleSet: Soft
StackLeniency: 0.2
Mode: 2
LetterboxInBreaks: 0
WidescreenStoryboard: 0

[Editor]
DistanceSpacing: 1.2
BeatDivisor: 3
GridSize: 4
TimelineZoom: 2.5

[Metadata]
Title:Master of Tides
TitleUnicode:Master of Tides
Artist:Lindsey Stirling
ArtistUnicode:Lindsey Stirling
Creator:Benita
Version:Ebb and Flow
Source:
Tags:Shatter Me Violin Electronic Instrumental Benny- BennyBananas Fix XzeniFX
BeatmapID:2526085
BeatmapSetID:1213743

[Difficulty]
HPDrainRate:5
CircleSize:4
OverallDifficulty:9.1
ApproachRate:9.1
SliderMultiplier:2.56
SliderTickRate:1

[Events]
//Background and Video events
0,0,"violin go weeeeeeeeeeeeeeeeeeeeeeeeoooow.jpg",0,0
//Break Periods
//Storyboard Layer 0 (Background)
//Storyboard Layer 1 (Fail)
//Storyboard Layer 2 (Pass)
//Storyboard Layer 3 (Foreground)
//Storyboard Layer 4 (Overlay)
//Storyboard Sound Samples

[TimingPoints]
-3189,468.75,4,1,1,100,1,0
92,-133.333333333333,4,1,1,20,0,0
4076,-133.333333333333,4,1,1,5,0,0
4311,-133.333333333333,4,1,1,40,0,0
19154,-133.333333333333,4,1,1,5,0,0
19311,-100,4,1,1,55,0,0
20717,-100,4,1,1,55,0,0
20873,-100,4,1,1,55,0,0
24467,-100,4,1,1,55,0,0
24623,-100,4,1,1,55,0,0
25404,-100,4,1,1,55,0,0
25561,-100,4,1,1,55,0,0
31498,-100,4,1,1,55,0,0
36146,-100,4,1,1,5,0,0
36186,-100,4,1,1,55,0,0
37084,-100,4,1,1,5,0,0
37124,-100,4,1,1,55,0,0
38021,-100,4,1,1,5,0,0
38061,-100,4,1,1,55,0,0
39896,-100,4,1,1,5,0,0
39936,-100,4,1,1,55,0,0
40365,-100,4,1,1,5,0,0
40405,-100,4,1,1,55,0,0
40834,-100,4,1,1,5,0,0
40874,-100,4,1,1,55,0,0
41303,-100,4,1,1,5,0,0
41343,-100,4,1,1,55,0,0
41771,-100,4,1,1,5,0,0
41811,-100,4,1,1,55,0,0
43646,-100,4,1,1,5,0,0
43686,-100,4,1,1,55,0,0
44115,-100,4,1,1,5,0,0
44155,-100,4,1,1,55,0,0
44584,-100,4,1,1,5,0,0
44624,-100,4,1,1,55,0,0
45053,-100,4,1,1,5,0,0
45093,-100,4,1,1,55,0,0
45521,-100,4,1,1,5,0,0
45561,-100,4,1,1,55,0,0
46459,-100,4,1,1,5,0,0
46499,-100,4,1,1,55,0,0
47396,-100,4,1,1,5,0,0
47436,-100,4,1,1,55,0,0
47865,-100,4,1,1,5,0,0
47904,-100,4,1,1,55,0,0
48334,-100,4,1,1,5,0,0
48373,-100,4,1,1,55,0,0
48803,-100,4,1,1,5,0,0
48842,-50,4,1,1,55,0,0
49271,-100,4,1,1,5,0,0
49311,-133.333333333333,4,1,1,55,0,0
63373,-100,4,1,1,55,0,0
64311,-40,4,1,1,70,0,1
64779,-66.6666666666667,4,1,1,70,0,1
67123,-100,4,1,1,70,0,1
67592,-66.6666666666667,4,1,1,70,0,1
71811,-40,4,1,1,70,0,1
72279,-66.6666666666667,4,1,1,70,0,1
77436,-66.6666666666667,4,1,1,70,0,1
77475,-66.6666666666667,4,1,1,40,0,1
77592,-66.6666666666667,4,1,1,70,0,1
77631,-66.6666666666667,4,1,1,40,0,1
77748,-66.6666666666667,4,1,1,70,0,1
77787,-66.6666666666667,4,1,1,40,0,1
77904,-66.6666666666667,4,1,1,70,0,1
77943,-66.6666666666667,4,1,1,40,0,1
78061,-66.6666666666667,4,1,1,70,0,1
78100,-66.6666666666667,4,1,1,40,0,1
78217,-66.6666666666667,4,1,1,70,0,1
78256,-66.6666666666667,4,1,1,40,0,1
78373,-66.6666666666667,4,1,1,70,0,1
78842,-66.6666666666667,4,1,1,70,0,0
78920,-66.6666666666667,4,1,1,5,0,0
78998,-66.6666666666667,4,1,1,70,0,0
79076,-66.6666666666667,4,1,1,5,0,0
79154,-66.6666666666667,4,1,1,70,0,0
79232,-66.6666666666667,4,1,1,5,0,0
79311,-66.6666666666667,4,1,1,70,0,1
86811,-45.4545454545455,4,1,1,70,0,1
87279,-66.6666666666667,4,1,1,70,0,1
91967,-66.6666666666667,4,1,1,70,0,1
92123,-66.6666666666667,4,1,1,70,0,1
93607,-66.6666666666667,4,1,1,5,0,1
93686,-66.6666666666667,4,1,1,70,0,1
94311,-80,4,1,1,40,0,0
98061,-133.333333333333,4,1,1,50,0,0
113061,-100,4,1,1,55,0,0
114467,-100,4,1,1,55,0,0
114623,-100,4,1,1,55,0,0
119154,-100,4,1,1,55,0,0
119311,-100,4,1,1,55,0,0
121498,-100,4,1,1,55,0,0
121654,-100,4,1,1,55,0,0
122436,-100,4,1,1,55,0,0
122592,-100,4,1,1,55,0,0
128061,-100,4,1,1,50,0,0
129896,-100,4,1,1,5,0,0
129936,-100,4,1,1,55,0,0
130834,-100,4,1,1,5,0,0
130874,-100,4,1,1,55,0,0
131771,-100,4,1,1,5,0,0
131811,-100,4,1,1,55,0,0
133646,-100,4,1,1,5,0,0
133686,-100,4,1,1,55,0,0
134115,-100,4,1,1,5,0,0
134155,-100,4,1,1,55,0,0
134584,-100,4,1,1,5,0,0
134624,-100,4,1,1,55,0,0
135053,-100,4,1,1,5,0,0
135093,-100,4,1,1,55,0,0
135521,-100,4,1,1,5,0,0
135561,-100,4,1,1,55,0,0
137396,-100,4,1,1,5,0,0
137436,-100,4,1,1,55,0,0
137865,-100,4,1,1,5,0,0
137905,-100,4,1,1,55,0,0
138334,-100,4,1,1,5,0,0
138374,-100,4,1,1,55,0,0
138803,-100,4,1,1,5,0,0
138843,-100,4,1,1,55,0,0
139271,-100,4,1,1,5,0,0
139311,-100,4,1,1,55,0,0
140209,-100,4,1,1,5,0,0
140249,-100,4,1,1,55,0,0
141146,-100,4,1,1,5,0,0
141186,-100,4,1,1,55,0,0
141615,-100,4,1,1,5,0,0
141655,-100,4,1,1,55,0,0
142084,-100,4,1,1,5,0,0
142124,-100,4,1,1,55,0,0
142553,-100,4,1,1,5,0,0
142592,-50,4,1,1,55,0,0
143021,-100,4,1,1,5,0,0
143061,-133.333333333333,4,1,1,55,0,0
150560,-133.333333333333,4,1,1,65,0,0
154311,-100,4,1,1,65,0,0
157123,-100,4,1,1,55,0,0
157357,-100,4,1,1,5,0,0
157436,-100,4,1,1,55,0,0
158061,-45.4545454545455,4,1,1,70,0,1
158529,-66.6666666666667,4,1,1,70,0,1
165561,-45.4545454545455,4,1,1,70,0,1
166029,-66.6666666666667,4,1,1,70,0,1
171186,-66.6666666666667,4,1,1,70,0,1
171225,-66.6666666666667,4,1,1,40,0,1
171342,-66.6666666666667,4,1,1,70,0,1
171381,-66.6666666666667,4,1,1,40,0,1
171498,-66.6666666666667,4,1,1,70,0,1
171537,-66.6666666666667,4,1,1,40,0,1
171654,-66.6666666666667,4,1,1,70,0,1
171693,-66.6666666666667,4,1,1,40,0,1
171811,-66.6666666666667,4,1,1,70,0,1
171850,-66.6666666666667,4,1,1,40,0,1
171967,-66.6666666666667,4,1,1,70,0,1
172006,-66.6666666666667,4,1,1,40,0,1
172123,-66.6666666666667,4,1,1,70,0,1
172592,-66.6666666666667,4,1,1,70,0,0
172670,-66.6666666666667,4,1,1,5,0,0
172748,-66.6666666666667,4,1,1,70,0,0
172826,-66.6666666666667,4,1,1,5,0,0
172904,-66.6666666666667,4,1,1,70,0,0
172982,-66.6666666666667,4,1,1,5,0,0
173061,-66.6666666666667,4,1,1,70,0,1
180561,-45.4545454545455,4,1,1,70,0,1
181029,-66.6666666666667,4,1,1,70,0,1
185717,-66.6666666666667,4,1,1,70,0,1
185873,-66.6666666666667,4,1,1,70,0,1
187357,-66.6666666666667,4,1,1,5,0,1
187436,-66.6666666666667,4,1,1,70,0,1
188061,-100,4,1,1,60,0,0
193529,-100,4,1,1,5,0,0
193686,-100,4,2,1,60,0,0
198217,-100,4,1,1,5,0,0
198373,-100,4,2,1,60,0,0
199232,-100,4,1,1,35,0,0
204936,-100,4,1,1,40,0,0
207748,-80,4,1,1,35,0,0
208139,-80,4,1,1,5,0,0
208217,-66.6666666666667,4,1,1,35,0,0
208607,-66.6666666666667,4,1,1,5,0,0
208686,-133.333333333333,4,1,1,70,0,1
208728,-133.333333333333,4,1,1,40,0,1
208842,-133.333333333333,4,1,1,70,0,1
208884,-133.333333333333,4,1,1,40,0,1
208998,-133.333333333333,4,1,1,70,0,1
209040,-133.333333333333,4,1,1,40,0,1
209154,-133.333333333333,4,1,1,70,0,1
209196,-133.333333333333,4,1,1,40,0,1
209311,-133.333333333333,4,1,1,70,0,1
209353,-133.333333333333,4,1,1,40,0,1
209467,-133.333333333333,4,1,1,70,0,1
209509,-133.333333333333,4,1,1,40,0,1
209623,-133.333333333333,4,1,1,70,0,1
209665,-133.333333333333,4,1,1,40,0,1
209779,-133.333333333333,4,1,1,70,0,1
209821,-133.333333333333,4,1,1,40,0,1
209936,-133.333333333333,4,1,1,70,0,1
209978,-133.333333333333,4,1,1,40,0,1
210092,-133.333333333333,4,1,1,70,0,1
210134,-133.333333333333,4,1,1,40,0,1
210248,-133.333333333333,4,1,1,70,0,1
210290,-133.333333333333,4,1,1,40,0,1
210404,-133.333333333333,4,1,1,70,0,1
210446,-133.333333333333,4,1,1,40,0,1
210561,-133.333333333333,4,1,1,70,0,1
210603,-133.333333333333,4,1,1,40,0,1
210717,-133.333333333333,4,1,1,70,0,1
210759,-133.333333333333,4,1,1,40,0,1
210873,-133.333333333333,4,1,1,70,0,1
210915,-133.333333333333,4,1,1,40,0,1
211029,-133.333333333333,4,1,1,70,0,1
211071,-133.333333333333,4,1,1,40,0,1
211186,-133.333333333333,4,1,1,70,0,1
211228,-133.333333333333,4,1,1,40,0,1
211342,-133.333333333333,4,1,1,70,0,1
211384,-133.333333333333,4,1,1,40,0,1
211498,-133.333333333333,4,1,1,70,0,1
211540,-133.333333333333,4,1,1,40,0,1
211654,-133.333333333333,4,1,1,70,0,1
211696,-133.333333333333,4,1,1,40,0,1
211811,-133.333333333333,4,1,1,70,0,1
211853,-133.333333333333,4,1,1,40,0,1
211967,-133.333333333333,4,1,1,70,0,1
212009,-133.333333333333,4,1,1,40,0,1
212123,-133.333333333333,4,1,1,70,0,1
212165,-133.333333333333,4,1,1,40,0,1
212279,-133.333333333333,4,1,1,70,0,1
212321,-133.333333333333,4,1,1,40,0,1
212436,-133.333333333333,4,1,1,70,0,1
212478,-133.333333333333,4,1,1,40,0,1
212592,-133.333333333333,4,1,1,70,0,1
212634,-133.333333333333,4,1,1,40,0,1
212748,-133.333333333333,4,1,1,70,0,1
212790,-133.333333333333,4,1,1,40,0,1
212904,-133.333333333333,4,1,1,70,0,1
212946,-133.333333333333,4,1,1,40,0,1
213061,-133.333333333333,4,1,1,70,0,1
213103,-133.333333333333,4,1,1,40,0,1
213217,-133.333333333333,4,1,1,70,0,1
213259,-133.333333333333,4,1,1,40,0,1
213373,-133.333333333333,4,1,1,70,0,1
213415,-133.333333333333,4,1,1,40,0,1
213529,-133.333333333333,4,1,1,70,0,1
213571,-133.333333333333,4,1,1,40,0,1
213686,-133.333333333333,4,1,1,70,0,1
213728,-133.333333333333,4,1,1,40,0,1
213842,-133.333333333333,4,1,1,70,0,1
213884,-133.333333333333,4,1,1,40,0,1
213998,-133.333333333333,4,1,1,70,0,1
214040,-133.333333333333,4,1,1,40,0,1
214154,-133.333333333333,4,1,1,70,0,1
214196,-133.333333333333,4,1,1,40,0,1
214311,-80,4,1,1,70,0,0
216186,-133.333333333333,4,1,1,70,0,1
216228,-133.333333333333,4,1,1,40,0,1
216342,-133.333333333333,4,1,1,70,0,1
216384,-133.333333333333,4,1,1,40,0,1
216498,-133.333333333333,4,1,1,70,0,1
216540,-133.333333333333,4,1,1,40,0,1
216654,-133.333333333333,4,1,1,70,0,1
216696,-133.333333333333,4,1,1,40,0,1
216811,-133.333333333333,4,1,1,70,0,1
216853,-133.333333333333,4,1,1,40,0,1
216967,-133.333333333333,4,1,1,70,0,1
217009,-133.333333333333,4,1,1,40,0,1
217123,-133.333333333333,4,1,1,70,0,1
217165,-133.333333333333,4,1,1,40,0,1
217279,-133.333333333333,4,1,1,70,0,1
217321,-133.333333333333,4,1,1,40,0,1
217436,-133.333333333333,4,1,1,70,0,1
217478,-133.333333333333,4,1,1,40,0,1
217592,-133.333333333333,4,1,1,70,0,1
217634,-133.333333333333,4,1,1,40,0,1
217748,-133.333333333333,4,1,1,70,0,1
217790,-133.333333333333,4,1,1,40,0,1
217904,-133.333333333333,4,1,1,70,0,1
217946,-133.333333333333,4,1,1,40,0,1
218061,-133.333333333333,4,1,1,70,0,1
218103,-133.333333333333,4,1,1,40,0,1
218217,-133.333333333333,4,1,1,70,0,1
218259,-133.333333333333,4,1,1,40,0,1
218373,-133.333333333333,4,1,1,70,0,1
218415,-133.333333333333,4,1,1,40,0,1
218529,-133.333333333333,4,1,1,70,0,1
218571,-133.333333333333,4,1,1,40,0,1
218686,-133.333333333333,4,1,1,70,0,1
218728,-133.333333333333,4,1,1,40,0,1
218842,-133.333333333333,4,1,1,70,0,1
218884,-133.333333333333,4,1,1,40,0,1
218998,-133.333333333333,4,1,1,70,0,1
219040,-133.333333333333,4,1,1,40,0,1
219154,-133.333333333333,4,1,1,70,0,1
219196,-133.333333333333,4,1,1,40,0,1
219311,-133.333333333333,4,1,1,70,0,1
219353,-133.333333333333,4,1,1,40,0,1
219467,-133.333333333333,4,1,1,70,0,1
219509,-133.333333333333,4,1,1,40,0,1
219623,-133.333333333333,4,1,1,70,0,1
219665,-133.333333333333,4,1,1,40,0,1
219779,-133.333333333333,4,1,1,70,0,1
219821,-133.333333333333,4,1,1,40,0,1
219936,-80,4,1,1,70,0,0
221811,-80,4,1,1,70,0,0
221850,-80,4,1,1,40,0,0
221967,-80,4,1,1,70,0,0
222006,-80,4,1,1,40,0,0
222123,-80,4,1,1,70,0,0
222162,-80,4,1,1,40,0,0
222279,-80,4,1,1,70,0,0
222318,-80,4,1,1,40,0,0
222436,-80,4,1,1,70,0,0
222475,-80,4,1,1,40,0,0
222592,-80,4,1,1,70,0,0
222631,-80,4,1,1,40,0,0
222748,-80,4,1,1,70,0,0
222787,-80,4,1,1,40,0,0
222904,-80,4,1,1,70,0,0
222943,-80,4,1,1,40,0,0
223061,-80,4,1,1,70,0,0
223100,-80,4,1,1,40,0,0
223217,-80,4,1,1,65,0,0
223256,-80,4,1,1,40,0,0
223373,-80,4,1,1,65,0,0
223686,-45.4545454545455,4,1,1,70,0,1
224154,-66.6666666666667,4,1,1,70,0,1
231186,-45.4545454545455,4,1,1,70,0,1
231654,-66.6666666666667,4,1,1,70,0,1
236811,-66.6666666666667,4,1,1,70,0,1
236850,-66.6666666666667,4,1,1,40,0,1
236967,-66.6666666666667,4,1,1,70,0,1
237006,-66.6666666666667,4,1,1,40,0,1
237123,-66.6666666666667,4,1,1,70,0,1
237162,-66.6666666666667,4,1,1,40,0,1
237279,-66.6666666666667,4,1,1,70,0,1
237318,-66.6666666666667,4,1,1,40,0,1
237436,-66.6666666666667,4,1,1,70,0,1
237475,-66.6666666666667,4,1,1,40,0,1
237592,-66.6666666666667,4,1,1,70,0,1
238217,-66.6666666666667,4,1,1,70,0,0
238295,-66.6666666666667,4,1,1,5,0,0
238373,-66.6666666666667,4,1,1,70,0,0
238451,-66.6666666666667,4,1,1,5,0,0
238529,-66.6666666666667,4,1,1,70,0,0
238607,-66.6666666666667,4,1,1,5,0,0
238686,-66.6666666666667,4,1,1,70,0,1
246186,-45.4545454545455,4,1,1,70,0,1
246654,-66.6666666666667,4,1,1,70,0,1
251342,-66.6666666666667,4,1,1,70,0,1
251498,-66.6666666666667,4,1,1,70,0,1
252982,-66.6666666666667,4,1,1,5,0,1
253061,-66.6666666666667,4,1,1,70,0,1
253686,-100,4,1,1,35,0,0
254389,-100,4,1,1,30,0,0
254623,-100,4,1,1,25,0,0
254857,-100,4,1,1,20,0,0
255092,-100,4,1,1,15,0,0
255326,-100,4,1,1,10,0,0
255561,-100,4,1,1,5,0,0

[Colours]
Combo1 : 203,151,255
Combo2 : 128,255,255
Combo3 : 255,187,255
Combo4 : 255,193,193
Combo5 : 255,255,128

[HitObjects]
256,192,92,12,0,4076,0:0:0:0:
120,221,4311,6,4,L|324:206,3,192.000007324219,4|4|4|4,0:1|0:1|0:1|0:1,0:1:0:0:
249,228,5834,1,0,0:0:0:0:
207,257,5912,1,0,0:0:0:0:
165,280,5990,1,0,0:0:0:0:
469,218,6186,6,4,L|267:208,2,192.000007324219,4|4|4,0:1|0:1|0:1,0:1:0:0:
333,206,7279,2,0,L|339:131,1,64.0000024414063,0|0,1:0|1:0,0:0:0:0:
426,132,7592,2,0,L|512:127,2,64.0000024414063,4|0|0,0:1|1:2|1:0,0:0:0:0:
68,247,8061,6,4,L|280:231,3,192.000007324219,4|4|4|4,0:1|0:1|0:1|0:1,0:1:0:0:
49,310,9936,6,0,P|18:241|46:194,1,128.000004882813,4|0,0:1|1:0,0:0:0:0:
186,198,10404,2,0,L|40:171,1,128.000004882813,4|0,0:1|1:0,0:0:0:0:
176,156,10873,2,0,L|340:139,1,128.000004882813,4|0,0:1|1:0,0:0:0:0:
182,160,11342,2,0,P|141:216|174:293,1,128.000004882813,4|0,0:1|1:0,0:0:0:0:
460,275,11811,6,4,L|255:261,3,192.000007324219,4|4|4|4,0:1|0:1|0:1|0:1,0:1:0:0:
158,272,13373,2,0,L|134:185,1,64.0000024414063,0|0,1:2|1:0,0:0:0:0:
453,273,13686,6,0,P|483:214|429:129,1,128.000004882813,4|0,0:1|1:0,0:0:0:0:
330,154,14154,2,0,L|489:138,1,128.000004882813,4|0,0:1|1:0,0:0:0:0:
218,124,14623,2,0,P|177:181|194:253,1,128.000004882813,4|0,0:1|1:0,0:0:0:0:
482,279,15092,2,0,P|494:208|439:152,1,128.000004882813,4|0,0:1|1:0,0:0:0:0:
160,155,15561,6,0,L|51:152,2,64.0000024414063,4|4|4,1:0|1:0|1:0,0:0:0:0:
286,179,16029,2,0,L|302:256,1,64.0000024414063,4|4,1:0|1:0,0:0:0:0:
212,278,16342,1,4,1:0:0:0:
360,299,16498,2,0,L|461:296,2,64.0000024414063,4|4|4,1:0|1:0|1:0,0:0:0:0:
207,304,16967,2,0,L|131:298,2,64.0000024414063,4|4|4,1:0|1:0|1:0,0:0:0:0:
477,220,17436,5,4,1:3:0:0:
256,192,17670,12,8,18842,1:0:0:0:
64,195,19311,6,0,L|198:179,1,128,4|0,0:3|0:0,0:0:0:0:
148,135,19623,1,0,0:2:0:0:
106,126,19701,1,0,0:0:0:0:
282,121,19779,2,0,L|400:121,2,85.3333333333333,8|0|0,0:0|0:2|0:2,0:0:0:0:
134,169,20248,2,0,L|133:263,1,85.3333333333333,4|0,0:0|0:0,0:0:0:0:
429,296,20561,2,0,P|482:268|432:168,1,170.666666666667,0|0,0:2|0:0,0:0:0:0:
352,154,21029,1,0,0:2:0:0:
34,170,21186,6,0,L|30:260,1,85.3333333333333,4|0,0:0|0:0,0:0:0:0:
74,282,21420,1,0,0:0:0:0:
132,280,21498,1,0,0:2:0:0:
359,264,21654,2,0,L|475:260,1,85.3333333333333,8|0,0:0|0:0,0:0:0:0:
480,223,21889,1,0,0:0:0:0:
475,166,21967,1,0,0:2:0:0:
308,134,22123,2,0,L|481:122,1,170.666666666667,4|0,0:0|0:2,0:0:0:0:
126,175,22592,2,0,L|121:264,1,85.3333333333333,8|0,0:0|0:2,0:0:0:0:
217,297,22904,1,0,0:0:0:0:
478,214,23061,6,0,L|476:122,1,85.3333333333333,4|0,0:0|0:0,0:0:0:0:
412,81,23295,1,0,0:0:0:0:
354,83,23373,1,0,0:0:0:0:
63,237,23529,2,0,L|168:197,2,85.3333333333333,8|0|0,0:0|0:2|0:2,0:0:0:0:
204,285,23998,2,0,L|310:287,1,85.3333333333333,4|0,0:0|0:0,0:0:0:0:
41,261,24311,2,0,P|17:190|96:133,1,170.666666666667,0|0,0:2|0:0,0:0:0:0:
181,137,24779,1,0,0:0:0:0:
448,260,24936,5,4,0:0:0:0:
314,206,25092,1,0,0:2:0:0:
447,164,25248,2,0,P|476:123|394:39,1,170.666666666667,0|0,0:2|0:0,0:0:0:0:
313,49,25717,1,0,0:0:0:0:
31,238,25873,2,0,L|224:218,1,170.666666666667,4|0,0:0|0:2,0:0:0:0:
352,181,26342,2,0,L|254:167,2,85.3333333333333,8|0|0,0:0|0:2|0:0,0:0:0:0:
67,267,26811,6,0,P|18:218|20:167,1,85.3333333333333,4|0,0:3|0:0,0:0:0:0:
52,168,27045,1,0,0:0:0:0:
104,155,27123,1,0,0:2:0:0:
246,155,27279,2,0,P|259:85|248:60,1,85.3333333333333,8|0,0:0|0:2,0:0:0:0:
156,56,27592,1,0,0:2:0:0:
463,109,27748,2,0,L|466:194,1,85.3333333333333,4|0,0:0|0:0,0:0:0:0:
423,221,27982,1,0,0:0:0:0:
365,219,28060,1,0,0:2:0:0:
129,211,28217,1,8,0:0:0:0:
42,185,28373,2,0,L|39:93,1,85.3333333333333,0|0,0:2|0:2,0:0:0:0:
308,210,28686,6,0,L|424:206,1,85.3333333333333,4|0,0:0|0:0,0:0:0:0:
350,164,28921,1,0,0:0:0:0:
297,142,28999,1,0,0:2:0:0:
159,128,29154,2,0,L|245:103,2,85.3333333333333,8|0|0,0:0|0:2|0:2,0:0:0:0:
458,179,29623,2,0,L|453:267,1,85.3333333333333,4|0,0:0|0:2,0:0:0:0:
347,303,29936,1,0,0:2:0:0:
188,274,30092,2,0,L|282:263,2,85.3333333333333,8|0|0,0:0|0:2|0:2,0:0:0:0:
454,263,30561,6,0,P|477:207|402:117,1,170.666666666667,4|0,0:0|0:0,0:0:0:0:
264,123,31029,2,0,L|167:118,1,85.3333333333333,8|0,0:0|0:2,0:0:0:0:
470,176,31342,2,0,L|277:159,1,170.666666666667,0|0,0:2|0:0,0:0:0:0:
388,100,31811,1,0,0:2:0:0:
133,100,31967,2,0,L|39:102,2,85.3333333333333,8|0|0,0:0|0:2|0:2,0:0:0:0:
448,260,32436,5,4,0:0:0:0:
314,206,32592,1,0,0:2:0:0:
448,260,32748,1,0,0:0:0:0:
172,180,32904,1,8,0:0:0:0:
30,142,33061,1,0,0:2:0:0:
172,180,33217,1,0,0:0:0:0:
481,238,33373,2,0,L|311:220,1,170.666666666667,4|0,0:0|0:0,0:0:0:0:
173,214,33842,2,0,L|175:122,1,85.3333333333333,8|0,0:0|0:0,0:0:0:0:
232,121,34076,1,0,0:0:0:0:
284,117,34154,1,0,0:0:0:0:
31,108,34311,6,0,P|26:183|110:3,1,1002.66666666667,4|0,0:3|0:0,0:0:0:0:
138,23,36186,6,0,P|222:44|86:273,1,490.666666666667,4|0,0:3|0:0,0:0:0:0:
55,256,37123,2,0,P|31:196|246:243,1,490.666666666667
203,286,38061,6,0,P|126:266|372:199,1,1002.66666666667,4|0,0:3|0:0,0:0:0:0:
338,206,39936,6,0,L|104:197,1,234.666666666667,4|0,0:3|0:0,0:0:0:0:
71,165,40404,2,0,L|320:156,1,234.666666666667
312,96,40873,2,0,L|77:113,1,234.666666666667,4|0,0:3|0:0,0:0:0:0:
67,99,41342,2,0,P|40:146|135:278,1,234.666666666667
155,280,41811,6,0,P|316:283|53:144,1,1002.66666666667,4|0,0:3|0:0,0:0:0:0:
87,176,43686,2,0,L|331:187,1,234.666666666667,4|0,0:3|0:0,0:0:0:0:
302,213,44154,2,0,P|244:203|284:71,1,234.666666666667
311,70,44623,2,0,P|412:113|356:208,1,234.666666666667,4|0,0:3|0:0,0:0:0:0:
331,189,45092,2,0,L|78:178,1,234.666666666667
130,185,45561,6,0,P|170:172|74:171,1,490.666666666667,4|0,0:3|0:0,0:0:0:0:
91,178,46498,2,0,P|165:231|457:52,1,490.666666666667
425,45,47436,6,0,L|185:32,1,234.666666666667,4|0,0:3|0:0,0:0:0:0:
172,92,47904,2,0,L|414:111,1,234.666666666667
375,145,48373,2,0,P|318:195|395:319,1,234.666666666667,4|0,0:3|0:0,0:0:0:0:
416,320,48842,2,0,B|416:192|416:192|416:224|416:224|416:84|416:84|228:84,1,469.333333333333
184,84,49311,6,0,L|114:84,2,64.0000024414063,4|0|0,0:3|0:0|0:2,0:0:0:0:
311,291,49779,1,4,0:0:0:0:
410,276,49936,1,0,0:0:0:0:
310,261,50092,1,0,0:2:0:0:
188,137,50248,2,0,P|180:174|185:215,1,64.0000024414063,4|0,0:0|0:0,0:0:0:0:
328,278,50561,2,0,L|331:238,1,32.0000012207032,0|0,0:2|0:0,0:0:0:0:
268,223,50717,2,0,L|175:220,2,64.0000024414063,4|0|0,0:0|0:0|0:2,0:0:0:0:
488,227,51186,6,0,P|496:195|480:155,1,64.0000024414063,4|0,0:0|0:0,0:0:0:0:
399,142,51498,1,0,0:2:0:0:
261,184,51654,2,0,L|183:176,2,64.0000024414063,4|0|0,0:0|0:0|0:2,0:0:0:0:
398,193,52123,2,0,P|411:157|410:125,1,64.0000024414063,4|0,0:0|0:0,0:0:0:0:
316,88,52436,1,0,0:2:0:0:
157,143,52592,2,0,L|229:137,2,64.0000024414063,4|0|0,0:0|0:0|0:2,0:0:0:0:
437,268,53061,6,0,P|444:229|439:187,1,64.0000024414063,4|0,0:3|0:0,0:0:0:0:
345,171,53373,1,0,0:2:0:0:
225,156,53529,1,4,0:0:0:0:
106,147,53686,1,0,0:0:0:0:
234,135,53842,1,0,0:2:0:0:
118,97,53998,1,4,0:0:0:0:
18,66,54154,2,0,P|14:28|33:-17,1,64.0000024414063,0|0,0:0|0:2,0:0:0:0:
93,30,54389,1,0,0:0:0:0:
268,84,54467,2,0,P|284:124|281:165,1,64.0000024414063,4|0,0:0|0:0,0:0:0:0:
190,195,54779,1,0,0:2:0:0:
459,196,54936,6,0,L|483:136,2,64.0000024414063,4|0|0,0:0|0:0|0:2,0:0:0:0:
187,248,55404,2,0,L|259:227,2,64.0000024414063,4|0|0,0:0|0:2|0:2,0:0:0:0:
453,244,55873,2,0,P|465:206|447:167,1,64.0000024414063,4|0,0:0|0:0,0:0:0:0:
351,154,56186,1,0,0:2:0:0:
133,156,56342,2,0,L|47:150,2,64.0000024414063,4|0|0,0:0|0:0|0:2,0:0:0:0:
182,162,56732,1,0,0:0:0:0:
411,169,56811,6,0,L|496:164,2,64.0000024414063,4|0|0,0:3|0:3|0:3,0:0:0:0:
291,178,57279,1,8,0:3:0:0:
186,184,57436,1,0,0:3:0:0:
288,144,57592,1,0,0:3:0:0:
410,105,57748,2,0,L|399:192,1,64.0000024414063,8|0,0:3|0:3,0:0:0:0:
303,205,58061,1,0,0:3:0:0:
182,199,58217,2,0,L|274:194,2,64.0000024414063,8|0|0,0:3|0:3|0:3,0:0:0:0:
467,215,58686,6,0,P|481:176|478:140,1,64.0000024414063,4|0,0:3|0:3,0:0:0:0:
393,118,58998,1,0,0:3:0:0:
167,156,59154,2,0,P|161:210|167:231,1,64.0000024414063,8|0,0:3|0:3,0:0:0:0:
287,264,59467,1,0,0:3:0:0:
53,261,59623,2,0,P|35:227|46:180,1,64.0000024414063,8|0,0:3|0:3,0:0:0:0:
154,142,59936,1,0,0:3:0:0:
392,147,60092,2,0,L|476:147,2,64.0000024414063,8|0|0,0:3|0:3|0:3,0:0:0:0:
119,268,60561,6,0,P|98:226|101:185,1,64.0000024414063,4|0,0:3|0:0,0:0:0:0:
234,198,60873,1,0,0:2:0:0:
234,198,60951,1,0,0:2:0:0:
234,198,61029,1,4,0:0:0:0:
136,149,61186,1,0,0:0:0:0:
258,114,61342,2,0,L|265:78,1,32.0000012207032,0|0,0:2|0:0,0:0:0:0:
180,111,61498,2,0,L|179:179,1,64.0000024414063,4|0,0:0|0:0,0:0:0:0:
311,262,61811,1,0,0:2:0:0:
293,245,61889,1,0,0:2:0:0:
273,229,61967,1,4,0:0:0:0:
366,180,62123,1,0,0:0:0:0:
467,141,62279,2,0,L|478:92,1,32.0000012207032,0|0,0:2|0:0,0:0:0:0:
391,100,62436,6,0,L|386:21,1,64.0000024414063,4|0,0:0|0:0,0:0:0:0:
261,145,62748,1,0,0:2:0:0:
290,140,62826,1,0,0:0:0:0:
316,135,62904,1,4,0:0:0:0:
211,78,63061,1,0,0:0:0:0:
305,73,63217,2,0,L|312:121,1,32.0000012207032,0|0,0:2|0:0,0:0:0:0:
78,258,63373,6,0,P|47:216|54:178,1,85.3333333333333,4|0,0:0|0:0,0:0:0:0:
145,149,63686,1,0,0:0:0:0:
224,200,63842,1,0,0:0:0:0:
235,278,63998,1,0,0:0:0:0:
185,342,64154,1,0,0:2:0:0:
466,346,64311,6,0,L|1:344,1,426.666666666667,4|0,0:2|0:0,0:0:0:0:
180,308,64779,1,8,0:0:0:0:
279,262,64936,1,0,0:3:0:0:
371,215,65092,1,0,0:3:0:0:
29,242,65248,2,0,P|36:160|199:89,1,256.000009765625,4|0,0:0|0:3,0:0:0:0:
304,91,65717,2,0,P|322:157|298:215,1,128.000004882813,8|0,0:0|0:0,0:0:0:0:
155,222,66029,1,0,0:3:0:0:
418,291,66186,6,0,P|444:220|297:129,1,256.000009765625,4|0,0:0|0:2,0:0:0:0:
67,224,66654,2,0,P|31:155|161:46,1,256.000009765625,8|0,0:0|0:2,0:0:0:0:
379,201,67123,2,0,L|188:194,1,170.666666666667,4|0,0:0|0:2,0:0:0:0:
451,312,67592,2,0,P|489:252|385:117,1,256.000009765625,8|0,0:0|0:2,0:0:0:0:
115,139,68061,5,4,0:3:0:0:
234,127,68217,1,0,0:0:0:0:
107,102,68373,2,0,L|95:241,1,128.000004882813,0|8,0:2|0:0,0:0:0:0:
339,252,68686,1,0,0:0:0:0:
241,208,68842,1,0,0:2:0:0:
461,107,68998,1,4,0:0:0:0:
342,95,69154,1,0,0:0:0:0:
469,70,69311,2,0,L|481:209,1,128.000004882813,0|8,0:2|0:0,0:0:0:0:
221,277,69623,1,0,0:0:0:0:
336,228,69779,1,0,0:2:0:0:
66,253,69936,6,0,P|14:192|86:98,1,192.000007324219,4|0,0:0|0:3,0:0:0:0:
111,97,70248,1,0,0:2:0:0:
150,93,70326,1,0,0:2:0:0:
332,100,70404,2,0,P|352:178|334:232,1,128.000004882813,8|0,0:0|0:3,0:0:0:0:
212,238,70717,1,0,0:2:0:0:
383,262,70873,2,0,P|448:221|351:94,1,256.000009765625,4|0,0:0|0:2,0:0:0:0:
218,88,71342,2,0,L|221:159,2,48.0000018310548,8|0|0,0:0|0:0|0:0,0:0:0:0:
285,155,71518,2,0,L|289:227,2,48.0000018310548
220,227,71693,1,0,0:0:0:0:
447,301,71811,6,0,L|19:301,1,426.666666666667,4|0,0:3|0:2,0:0:0:0:
168,216,72279,2,0,L|294:234,2,128.000004882813,8|0|0,0:0|0:2|0:3,0:0:0:0:
482,242,72748,2,0,P|475:160|312:89,1,256.000009765625,4|0,0:0|0:2,0:0:0:0:
207,91,73217,2,0,P|189:157|213:215,1,128.000004882813,8|0,0:0|0:3,0:0:0:0:
356,222,73529,1,0,0:2:0:0:
93,291,73686,6,0,P|67:220|214:129,1,256.000009765625,4|0,0:0|0:2,0:0:0:0:
444,224,74154,2,0,P|480:155|350:46,1,256.000009765625,8|0,0:0|0:2,0:0:0:0:
141,192,74623,2,0,P|197:126|346:174,1,256.000009765625,4|0,0:0|0:2,0:0:0:0:
60,312,75092,2,0,P|22:252|126:117,1,256.000009765625,8|0,0:0|0:2,0:0:0:0:
396,139,75561,5,4,0:3:0:0:
277,127,75717,1,0,0:0:0:0:
404,102,75873,2,0,L|416:241,1,128.000004882813,0|8,0:2|0:0,0:0:0:0:
172,252,76186,1,0,0:0:0:0:
270,208,76342,1,0,0:2:0:0:
50,107,76498,1,4,0:0:0:0:
169,95,76654,1,0,0:0:0:0:
42,70,76810,2,0,L|30:209,1,128.000004882813,0|8,0:2|0:0,0:0:0:0:
290,276,77123,1,0,0:0:0:0:
175,228,77279,1,0,0:2:0:0:
471,200,77436,6,0,L|467:167,1,32.0000012207032,4|0,0:0|0:0,0:0:0:0:
358,136,77592,2,0,L|360:101,1,32.0000012207032,0|0,0:2|0:0,0:0:0:0:
233,100,77748,2,0,L|237:56,1,32.0000012207032,0|0,0:3|0:0,0:0:0:0:
104,188,77904,2,0,L|100:155,1,32.0000012207032,8|0,0:0|0:0,0:0:0:0:
200,115,78060,2,0,L|202:80,1,32.0000012207032,0|0,0:2|0:0,0:0:0:0:
320,49,78216,2,0,L|324:5,1,32.0000012207032,0|0,0:2|0:0,0:0:0:0:
46,133,78373,6,0,L|90:278,1,128.000004882813,4|0,0:0|0:0,0:0:0:0:
240,267,78686,2,0,L|245:197,1,64.0000024414063,0|0,0:2|0:0,0:0:0:0:
40,174,78842,1,8,0:0:0:0:
257,154,78998,1,8,0:0:0:0:
44,169,79154,1,8,0:0:0:0:
448,302,79311,6,0,P|488:235|367:107,1,240.000009155274,4|0,0:3|0:0,0:0:0:0:
365,100,79662,1,0,0:0:0:0:
309,95,79721,1,0,0:0:0:0:
144,173,79779,2,0,P|81:220|73:279,2,128.000004882813,8|0|0,0:0|0:3|0:2,0:0:0:0:
288,175,80248,1,4,0:0:0:0:
186,136,80404,1,0,0:3:0:0:
85,105,80561,1,0,0:2:0:0:
247,150,80717,1,8,0:0:0:0:
349,189,80873,1,0,0:2:0:0:
442,227,81029,1,0,0:0:0:0:
58,281,81186,6,0,P|22:205|118:83,1,240.000009155274,4|0,0:0|0:0,0:0:0:0:
157,85,81537,1,0,0:0:0:0:
207,93,81596,1,0,0:0:0:0:
396,143,81654,2,0,P|461:128|478:65,2,128.000004882813,8|0|0,0:0|0:3|0:2,0:0:0:0:
253,133,82123,1,4,0:0:0:0:
339,107,82279,1,0,0:3:0:0:
425,83,82436,1,0,0:2:0:0:
272,277,82592,2,0,P|223:222|321:87,1,256.000009765625,8|0,0:0|0:2,0:0:0:0:
29,92,83061,6,0,P|20:174|35:221,1,128.000004882813,4|0,0:3|0:0,0:0:0:0:
358,237,83373,2,0,P|397:187|363:132,1,128.000004882813,0|8,0:3|0:0,0:0:0:0:
220,124,83686,1,0,0:0:0:0:
331,77,83842,1,0,0:2:0:0:
32,165,83998,5,4,0:0:0:0:
141,126,84154,1,0,0:2:0:0:
23,200,84311,2,0,P|28:275|81:322,1,128.000004882813,0|8,0:3|0:0,0:0:0:0:
208,273,84623,2,0,L|211:191,2,64.0000024414063,0|0|0,0:0|0:0|0:2,0:0:0:0:
471,269,84936,6,0,P|436:203|263:191,1,256.000009765625,4|0,0:0|0:2,0:0:0:0:
48,232,85404,2,0,P|109:287|286:282,1,256.000009765625,8|0,0:0|0:2,0:0:0:0:
44,310,85873,2,0,P|27:247|49:176,1,128.000004882813,4|0,0:0|0:3,0:0:0:0:
176,166,86186,1,0,0:2:0:0:
313,238,86342,2,0,L|319:186,1,48.0000018310548,8|0,0:0|0:0,0:0:0:0:
275,175,86459,2,0,L|217:172,1,48.0000018310548
208,149,86576,1,0,0:0:0:0:
227,124,86635,2,0,L|287:122,1,48.0000018310548,0|0,0:2|0:0,0:0:0:0:
458,249,86811,6,0,L|71:253,1,375.466678125,4|0,0:3|0:2,0:0:0:0:
216,218,87279,1,8,0:0:0:0:
303,187,87436,1,0,0:2:0:0:
387,158,87592,1,0,0:3:0:0:
29,248,87748,2,0,P|61:129|177:89,1,256.000009765625,4|0,0:0|0:0,0:0:0:0:
355,106,88217,2,0,P|363:177|341:232,1,128.000004882813,8|0,0:0|0:0,0:0:0:0:
232,246,88529,1,0,0:2:0:0:
456,282,88686,6,0,P|452:220|297:129,1,256.000009765625,4|0,0:0|0:3,0:0:0:0:
67,224,89154,2,0,P|31:155|161:46,1,256.000009765625,8|0,0:0|0:2,0:0:0:0:
370,192,89623,2,0,P|314:126|165:174,1,256.000009765625,4|0,0:0|0:0,0:0:0:0:
451,312,90092,2,0,P|489:252|385:117,1,256.000009765625,8|0,0:0|0:2,0:0:0:0:
115,139,90561,5,4,0:3:0:0:
234,127,90717,1,0,0:0:0:0:
107,102,90873,2,0,L|95:241,1,128.000004882813,0|8,0:2|0:0,0:0:0:0:
339,252,91186,1,0,0:0:0:0:
241,208,91342,1,0,0:2:0:0:
461,107,91498,1,4,0:0:0:0:
342,95,91654,1,0,0:0:0:0:
472,87,91811,2,0,P|499:131|396:287,1,256.000009765625,0|0,0:2|0:0,0:0:0:0:
307,280,92279,1,0,0:2:0:0:
160,255,92436,6,0,P|150:185|170:125,1,128.000004882813,4|0,0:0|0:0,0:0:0:0:
273,113,92748,1,0,0:2:0:0:
375,90,92904,1,8,0:0:0:0:
130,279,93061,1,0,0:3:0:0:
353,253,93217,1,0,0:2:0:0:
60,250,93373,2,0,P|35:188|44:126,1,128.000004882813,4|0,0:0|0:0,0:0:0:0:
372,237,93686,2,0,P|387:175|368:115,1,128.000004882813,8|0,0:0|0:0,0:0:0:0:
216,109,93998,1,0,0:2:0:0:
465,62,94154,1,0,0:2:0:0:
186,4,94311,5,4,0:3:0:0:
256,192,94467,12,8,97592,0:0:0:0:
436,89,98061,6,0,L|504:95,2,64.0000024414063,4|0|0,0:0|0:3|0:3,0:0:0:0:
280,74,98529,1,8,0:0:0:0:
181,59,98686,1,0,0:3:0:0:
281,44,98842,1,0,0:3:0:0:
122,143,98998,2,0,L|53:189,2,64.0000024414063,4|0|0,0:0|0:3|0:3,0:0:0:0:
303,129,99467,1,8,0:0:0:0:
218,95,99623,1,0,0:3:0:0:
130,60,99779,1,0,0:3:0:0:
488,227,99936,6,0,P|496:195|480:155,1,64.0000024414063,4|0,0:0|0:3,0:0:0:0:
399,142,100248,1,0,0:3:0:0:
261,184,100404,2,0,L|254:116,2,64.0000024414063,8|0|0,0:0|0:0|0:3,0:0:0:0:
379,110,100873,2,0,P|392:74|391:42,2,64.0000024414063,4|0|0,0:0|0:0|0:3,0:0:0:0:
274,24,101342,2,0,L|346:18,2,64.0000024414063,8|0|0,0:0|0:0|0:3,0:0:0:0:
38,271,101811,6,0,P|31:232|36:190,1,64.0000024414063,4|0,0:0|0:3,0:0:0:0:
130,174,102123,1,0,0:3:0:0:
285,188,102279,1,8,0:0:0:0:
382,169,102436,2,0,L|388:97,1,64.0000024414063,0|0,0:3|0:3,0:0:0:0:
241,96,102748,1,4,0:0:0:0:
344,88,102904,2,0,L|333:19,1,64.0000024414063,0|0,0:3|0:3,0:0:0:0:
211,243,103217,2,0,P|195:283|198:324,1,64.0000024414063,8|0,0:0|0:3,0:0:0:0:
293,326,103529,1,0,0:3:0:0:
45,310,103686,5,4,0:0:0:0:
166,283,103842,1,0,0:0:0:0:
67,253,103998,1,0,0:3:0:0:
184,257,104154,2,0,L|69:186,1,128.000004882813,8|0,0:0|0:3,0:0:0:0:
212,150,104623,2,0,P|224:112|206:73,1,64.0000024414063,4|0,0:0|0:0,0:0:0:0:
165,64,104857,1,0,0:0:0:0:
110,60,104936,1,0,0:3:0:0:
247,117,105092,2,0,L|247:207,1,64.0000024414063,8|0,0:0|0:3,0:0:0:0:
142,227,105404,1,0,0:0:0:0:
411,169,105561,6,0,L|446:244,2,64.0000024414063,4|0|0,0:0|0:3|0:3,0:0:0:0:
308,128,106029,2,0,L|377:151,2,64.0000024414063,8|0|0,0:0|0:3|0:3,0:0:0:0:
157,139,106498,2,0,L|146:226,1,64.0000024414063,4|0,0:0|0:3,0:0:0:0:
255,239,106811,1,0,0:3:0:0:
407,240,106967,2,0,L|499:235,2,64.0000024414063,8|0|0,0:0|0:3|0:3,0:0:0:0:
126,251,107436,6,0,P|112:212|115:176,1,64.0000024414063,4|0,0:0|0:3,0:0:0:0:
200,154,107748,1,0,0:3:0:0:
414,136,107904,2,0,L|506:137,2,64.0000024414063,8|0|0,0:0|0:3|0:3,0:0:0:0:
38,235,108373,2,0,L|27:148,1,64.0000024414063,4|0,0:0|0:3,0:0:0:0:
116,128,108686,1,0,0:3:0:0:
421,127,108842,2,0,L|505:127,2,64.0000024414063,8|0|0,0:0|0:3|0:3,0:0:0:0:
144,140,109311,5,4,0:0:0:0:
278,100,109467,1,0,0:3:0:0:
415,61,109623,1,0,0:3:0:0:
104,211,109779,1,8,0:0:0:0:
227,183,109936,1,0,0:3:0:0:
104,211,110092,1,0,0:3:0:0:
440,219,110248,1,4,0:0:0:0:
317,191,110405,1,0,0:3:0:0:
194,161,110561,1,0,0:3:0:0:
412,163,110717,2,0,L|479:161,2,64.0000024414063,8|0|0,0:0|0:3|0:3,0:0:0:0:
159,115,111186,5,4,0:0:0:0:
96,146,111342,1,0,0:0:0:0:
49,200,111498,1,0,0:3:0:0:
44,263,111654,1,8,0:0:0:0:
69,321,111811,1,0,0:0:0:0:
131,361,111967,1,0,0:3:0:0:
203,373,112123,1,0,3:0:0:0:
302,344,112279,1,0,0:0:0:0:
158,308,112436,2,0,L|154:220,1,64.0000024414063,0|8,0:0|0:0,0:0:0:0:
249,209,112748,1,0,0:3:0:0:
334,205,112904,1,0,0:3:0:0:
67,267,113061,6,0,L|227:229,1,128,4|0,0:3|0:0,0:0:0:0:
149,214,113373,1,0,0:2:0:0:
106,186,113451,1,0,0:0:0:0:
282,121,113529,2,0,L|327:210,2,85.3333333333333,8|0|0,0:0|0:2|0:3,0:0:0:0:
158,123,113998,1,4,0:0:0:0:
290,152,114154,1,0,0:0:0:0:
25,167,114311,2,0,L|213:145,1,170.666666666667,0|0,0:2|0:3,0:0:0:0:
313,134,114779,1,0,0:2:0:0:
34,170,114936,6,0,L|30:260,1,85.3333333333333,4|0,0:0|0:0,0:0:0:0:
83,282,115170,1,0,0:0:0:0:
141,279,115248,1,0,0:2:0:0:
359,264,115404,2,0,L|361:174,1,85.3333333333333,8|0,0:0|0:0,0:0:0:0:
293,168,115639,1,0,0:0:0:0:
226,158,115717,1,0,0:2:0:0:
376,150,115873,2,0,P|392:202|394:236,1,85.3333333333333,4|0,0:0|0:0,0:0:0:0:
138,268,116186,1,0,0:2:0:0:
259,248,116342,2,0,L|254:337,1,85.3333333333333,8|0,0:0|0:2,0:0:0:0:
129,356,116654,1,0,0:3:0:0:
387,261,116811,6,0,L|481:253,1,85.3333333333333,4|0,0:0|0:0,0:0:0:0:
429,222,117045,1,0,0:0:0:0:
386,211,117123,1,0,0:0:0:0:
243,195,117279,2,0,L|215:110,2,85.3333333333333,8|0|0,0:0|0:0|0:2,0:0:0:0:
118,215,117748,1,4,0:0:0:0:
250,249,117904,1,0,0:0:0:0:
472,260,118061,2,0,P|482:207|481:167,1,85.3333333333333,0|8,0:2|0:0,0:0:0:0:
371,147,118373,1,0,0:0:0:0:
488,119,118529,1,0,0:0:0:0:
207,286,118686,5,4,0:0:0:0:
359,240,118842,1,0,0:2:0:0:
206,190,118998,2,0,L|382:171,1,170.666666666667,0|0,0:3|0:0,0:0:0:0:
294,76,119467,1,0,0:2:0:0:
36,156,119623,2,0,L|153:154,2,85.3333333333333,4|0|0,0:0|0:2|0:2,0:0:0:0:
352,181,120092,2,0,L|440:166,2,85.3333333333333,8|0|0,0:0|0:2|0:0,0:0:0:0:
67,267,120561,6,0,P|18:218|20:167,1,85.3333333333333,4|0,0:3|0:0,0:0:0:0:
52,168,120795,1,0,0:0:0:0:
104,155,120873,1,0,0:2:0:0:
246,155,121029,2,0,P|259:85|248:60,1,85.3333333333333,8|0,0:0|0:2,0:0:0:0:
7,78,121342,2,0,L|207:62,1,170.666666666667,0|0,0:2|0:2,0:0:0:0:
293,55,121811,1,0,0:3:0:0:
169,117,121967,2,0,P|149:173|159:216,1,85.3333333333333,8|0,0:0|0:0,0:0:0:0:
472,296,122279,6,0,L|261:283,1,170.666666666667,0|0,0:2|0:0,0:0:0:0:
334,247,122671,1,0,0:0:0:0:
372,230,122749,1,0,0:2:0:0:
155,183,122904,2,0,L|69:158,2,85.3333333333333,8|0|0,0:0|0:2|0:3,0:0:0:0:
458,179,123373,2,0,L|453:267,1,85.3333333333333,4|0,0:0|0:3,0:0:0:0:
347,303,123686,1,0,0:2:0:0:
34,296,123842,2,0,L|233:277,1,170.666666666667,8|0,0:0|0:2,0:0:0:0:
33,196,124311,5,4,0:0:0:0:
125,167,124467,1,0,0:3:0:0:
219,134,124623,1,0,0:2:0:0:
470,157,124779,2,0,L|373:152,2,85.3333333333333,8|0|0,0:0|0:3|0:2,0:0:0:0:
251,279,125248,2,0,P|242:226|251:186,1,85.3333333333333,4|0,0:0|0:2,0:0:0:0:
368,162,125561,1,0,0:3:0:0:
223,143,125717,2,0,L|196:52,2,85.3333333333333,8|0|0,0:0|0:2|0:2,0:0:0:0:
448,260,126186,5,4,0:0:0:0:
314,206,126342,1,0,0:2:0:0:
448,260,126498,1,0,0:2:0:0:
172,180,126654,1,8,0:0:0:0:
30,142,126811,1,0,0:0:0:0:
172,180,126967,1,0,0:0:0:0:
481,238,127123,2,0,L|311:220,1,170.666666666667,4|0,0:0|0:2,0:0:0:0:
173,214,127592,2,0,L|175:122,1,85.3333333333333,8|0,0:0|0:2,0:0:0:0:
232,121,127826,1,0,0:0:0:0:
284,117,127904,1,0,0:0:0:0:
31,108,128061,6,0,P|26:183|110:3,1,1002.66666666667,4|0,0:3|0:0,0:0:0:0:
138,23,129936,6,0,P|222:44|86:273,1,490.666666666667,4|0,0:3|0:0,0:0:0:0:
55,256,130873,2,0,P|31:196|246:243,1,490.666666666667
203,286,131811,6,0,P|126:266|372:199,1,1002.66666666667,4|0,0:3|0:0,0:0:0:0:
338,206,133686,6,0,L|104:197,1,234.666666666667,4|0,0:3|0:0,0:0:0:0:
71,165,134154,2,0,L|320:156,1,234.666666666667
312,96,134623,2,0,L|77:113,1,234.666666666667,4|0,0:3|0:0,0:0:0:0:
67,99,135092,2,0,P|40:146|135:278,1,234.666666666667
155,280,135561,6,0,P|316:283|53:144,1,1002.66666666667,4|0,0:3|0:0,0:0:0:0:
87,176,137436,6,0,L|331:187,1,234.666666666667,4|0,0:3|0:0,0:0:0:0:
368,207,137904,2,0,P|426:197|386:65,1,234.666666666667
359,64,138373,2,0,P|246:95|286:179,1,234.666666666667,4|0,0:3|0:0,0:0:0:0:
331,189,138842,2,0,L|78:178,1,234.666666666667
130,185,139311,6,0,P|170:172|74:171,1,490.666666666667,4|0,0:3|0:0,0:0:0:0:
91,178,140248,2,0,P|165:231|457:52,1,490.666666666667
425,45,141186,6,0,L|185:32,1,234.666666666667,4|0,0:3|0:0,0:0:0:0:
172,92,141654,2,0,L|414:111,1,234.666666666667
370,124,142123,2,0,P|327:177|382:319,1,234.666666666667,4|0,0:3|0:0,0:0:0:0:
416,320,142592,2,0,B|416:192|416:192|416:224|416:224|416:84|416:84|228:84,1,469.333333333333
194,84,143061,5,4,0:3:0:0:
68,98,143217,1,0,0:0:0:0:
192,161,143373,1,0,0:2:0:0:
275,202,143529,1,4,0:0:0:0:
192,203,143686,1,0,0:2:0:0:
101,183,143842,1,0,0:0:0:0:
232,206,143998,2,0,L|248:273,1,64.0000024414063,4|0,0:0|0:2,0:0:0:0:
177,312,144311,2,0,L|172:272,1,32.0000012207032,0|0,0:2|0:0,0:0:0:0:
246,269,144467,2,0,L|339:266,2,64.0000024414063,4|0|0,0:0|0:0|0:0,0:0:0:0:
488,227,144936,6,0,P|496:195|480:155,1,64.0000024414063,4|0,0:0|0:0,0:0:0:0:
343,142,145248,1,0,0:2:0:0:
299,143,145326,1,0,0:0:0:0:
254,144,145404,2,0,L|251:70,1,64.0000024414063,4|0,0:0|0:2,0:0:0:0:
346,50,145717,1,0,0:2:0:0:
454,162,145873,2,0,P|467:126|466:94,1,64.0000024414063,4|0,0:0|0:2,0:0:0:0:
375,76,146186,1,0,0:2:0:0:
193,113,146342,2,0,L|117:127,2,64.0000024414063,4|0|0,0:0|0:2|0:2,0:0:0:0:
437,268,146811,6,0,P|444:229|439:187,1,64.0000024414063,4|0,0:3|0:0,0:0:0:0:
345,171,147123,1,0,0:2:0:0:
214,144,147279,2,0,L|194:65,2,64.0000024414063,4|0|0,0:0|0:2|0:2,0:0:0:0:
327,171,147748,1,4,0:0:0:0:
199,270,147904,2,0,P|195:232|214:187,1,64.0000024414063,0|0,0:2|0:2,0:0:0:0:
264,202,148139,1,0,0:0:0:0:
426,215,148217,2,0,P|442:255|439:296,1,64.0000024414063,4|0,0:0|0:0,0:0:0:0:
344,311,148529,2,0,L|283:308,1,32.0000012207032,0|0,0:2|0:0,0:0:0:0:
459,196,148686,6,0,L|483:136,2,64.0000024414063,4|0|0,0:0|0:0|0:2,0:0:0:0:
401,217,149076,1,0,0:0:0:0:
208,220,149154,2,0,L|136:199,2,64.0000024414063,4|0|0,0:0|0:2|0:2,0:0:0:0:
453,244,149623,2,0,P|465:206|447:167,1,64.0000024414063,4|0,0:0|0:2,0:0:0:0:
351,154,149936,1,0,0:2:0:0:
133,156,150092,2,0,L|47:150,2,64.0000024414063,4|0|0,0:0|0:2|0:2,0:0:0:0:
182,162,150482,1,0,0:2:0:0:
411,169,150561,6,0,L|496:164,2,64.0000024414063,4|0|0,0:3|0:3|0:3,0:0:0:0:
291,178,151029,1,8,0:3:0:0:
186,184,151186,1,0,0:3:0:0:
288,144,151342,1,0,0:3:0:0:
410,105,151498,2,0,L|399:192,1,64.0000024414063,8|0,0:3|0:3,0:0:0:0:
303,205,151811,1,0,0:3:0:0:
182,199,151967,2,0,L|274:194,2,64.0000024414063,8|0|0,0:3|0:3|0:3,0:0:0:0:
467,215,152436,6,0,P|481:176|478:140,1,64.0000024414063,4|0,0:3|0:3,0:0:0:0:
393,118,152748,1,0,0:3:0:0:
167,156,152904,2,0,P|161:210|167:231,1,64.0000024414063,8|0,0:3|0:3,0:0:0:0:
287,264,153217,1,0,0:3:0:0:
53,261,153373,2,0,P|35:227|46:180,1,64.0000024414063,8|0,0:3|0:3,0:0:0:0:
154,142,153686,1,0,0:3:0:0:
392,147,153842,2,0,L|476:147,2,64.0000024414063,8|0|0,0:3|0:3|0:3,0:0:0:0:
108,235,154311,6,0,L|111:192,1,42.6666666666667,4|0,0:3|0:0,0:0:0:0:
173,186,154467,2,0,L|173:141,1,42.6666666666667
238,144,154623,2,0,L|241:100,1,42.6666666666667
158,107,154779,2,0,L|113:108,1,42.6666666666667,8|0,0:3|0:0,0:0:0:0:
158,107,154936,2,0,L|205:106,1,42.6666666666667
158,107,155092,2,0,L|115:105,1,42.6666666666667
339,188,155248,6,0,L|341:243,1,42.6666666666667,8|0,0:3|0:0,0:0:0:0:
271,258,155404,2,0,L|266:306,1,42.6666666666667
191,308,155561,2,0,L|162:348,1,42.6666666666667
265,364,155717,2,0,L|308:363,1,42.6666666666667,8|0,0:3|0:0,0:0:0:0:
265,364,155873,2,0,L|214:365,1,42.6666666666667
265,364,156029,2,0,L|316:361,1,42.6666666666667,0|0,0:0|0:0,0:0:0:0:
96,342,156186,5,0,0:3:0:0:
73,335,156225,1,0,0:0:0:0:
53,323,156264,1,0,0:0:0:0:
35,307,156303,1,0,0:0:0:0:
22,287,156342,1,0,0:0:0:0:
14,264,156381,1,0,0:0:0:0:
11,241,156420,1,0,0:0:0:0:
14,217,156459,1,0,0:0:0:0:
22,194,156498,1,0,0:0:0:0:
36,175,156537,1,0,0:0:0:0:
53,158,156576,1,0,0:0:0:0:
345,301,156654,5,0,0:3:0:0:
369,294,156693,1,0,0:0:0:0:
389,282,156732,1,0,0:0:0:0:
407,266,156771,1,0,0:0:0:0:
420,246,156810,1,0,0:0:0:0:
428,223,156849,1,0,0:0:0:0:
431,200,156888,1,0,0:0:0:0:
428,176,156927,1,0,0:0:0:0:
420,153,156966,1,0,0:0:0:0:
406,134,157005,1,0,0:0:0:0:
389,117,157044,1,0,0:0:0:0:
78,258,157123,6,0,L|125:169,1,85.3333333333333,4|0,0:3|0:0,0:0:0:0:
361,166,157436,2,0,L|464:157,2,85.3333333333333,4|0|0,0:0|0:0|0:0,0:0:0:0:
128,177,157904,1,4,0:0:0:0:
496,327,158061,6,0,L|114:278,1,375.466678125,4|0,0:2|0:2,0:0:0:0:
277,164,158529,2,0,L|398:101,2,128.000004882813,8|0|0,0:0|0:2|0:3,0:0:0:0:
29,242,158998,2,0,L|308:227,1,256.000009765625,4|0,0:0|0:3,0:0:0:0:
148,182,159467,2,0,L|53:67,2,128.000004882813,8|0|0,0:0|0:2|0:3,0:0:0:0:
393,278,159936,6,0,L|126:260,1,256.000009765625,4|0,0:0|0:2,0:0:0:0:
429,193,160404,2,0,P|463:109|365:-27,1,256.000009765625,8|0,0:0|0:2,0:0:0:0:
140,291,160873,2,0,P|74:263|75:79,1,256.000009765625,4|0,0:0|0:2,0:0:0:0:
333,249,161342,2,0,L|73:205,1,256.000009765625,8|0,0:0|0:2,0:0:0:0:
322,169,161811,5,4,0:3:0:0:
200,136,161967,1,0,0:0:0:0:
76,102,162123,2,0,L|64:241,1,128.000004882813,0|8,0:2|0:0,0:0:0:0:
355,268,162436,2,0,P|368:221|375:126,1,128.000004882813,0|0,0:0|0:2,0:0:0:0:
114,122,162748,1,4,0:0:0:0:
233,110,162904,1,0,0:0:0:0:
358,99,163060,2,0,L|347:226,1,128.000004882813,0|8,0:2|0:0,0:0:0:0:
61,266,163373,2,0,P|48:210|63:140,1,128.000004882813,0|0,0:0|0:2,0:0:0:0:
363,248,163686,6,0,L|157:195,1,192.000007324219,4|0,0:0|0:0,0:0:0:0:
228,178,163998,1,0,0:2:0:0:
279,150,164076,1,0,0:0:0:0:
457,144,164154,2,0,L|357:249,2,128.000004882813,8|0|0,0:0|0:2|0:3,0:0:0:0:
296,167,164623,2,0,P|301:107|470:22,1,256.000009765625,4|0,0:0|0:2,0:0:0:0:
241,42,165092,1,8,0:0:0:0:
200,65,165150,1,0,0:0:0:0:
172,103,165209,1,0,0:0:0:0:
160,150,165267,1,0,0:0:0:0:
169,197,165326,1,0,0:0:0:0:
195,236,165384,1,0,0:0:0:0:
234,263,165443,1,0,0:0:0:0:
417,305,165561,6,0,L|24:301,1,375.466678125,4|0,0:3|0:2,0:0:0:0:
168,236,166029,1,8,0:0:0:0:
41,213,166186,2,0,P|21:163|52:92,1,128.000004882813,0|0,0:2|0:3,0:0:0:0:
317,200,166498,2,0,L|48:165,1,256.000009765625,4|0,0:0|0:2,0:0:0:0:
213,338,166967,1,8,0:0:0:0:
67,326,167123,2,0,P|47:266|65:206,1,128.000004882813,0|0,0:3|0:2,0:0:0:0:
328,244,167436,6,0,L|58:222,1,256.000009765625,4|0,0:0|0:2,0:0:0:0:
319,293,167904,2,0,P|397:284|498:148,1,256.000009765625,8|0,0:0|0:2,0:0:0:0:
237,172,168373,2,0,P|235:113|396:35,1,256.000009765625,4|0,0:0|0:3,0:0:0:0:
60,312,168842,2,0,P|22:252|126:117,1,256.000009765625,8|0,0:0|0:3,0:0:0:0:
412,207,169311,6,0,P|419:147|404:79,1,128.000004882813,4|0,0:3|0:2,0:0:0:0:
263,97,169623,2,0,L|409:80,1,128.000004882813,0|8,0:2|0:0,0:0:0:0:
133,170,169936,2,0,P|119:222|132:293,1,128.000004882813,0|0,0:0|0:0,0:0:0:0:
401,258,170248,1,4,0:0:0:0:
282,246,170404,1,0,0:2:0:0:
409,221,170560,2,0,L|421:360,1,128.000004882813,0|8,0:2|0:0,0:0:0:0:
280,320,170873,1,0,0:0:0:0:
136,281,171029,1,0,0:0:0:0:
396,207,171186,6,0,L|392:174,1,32.0000012207032,4|0,0:0|0:0,0:0:0:0:
283,143,171342,2,0,L|285:108,1,32.0000012207032,0|0,0:2|0:0,0:0:0:0:
399,103,171498,2,0,L|403:59,1,32.0000012207032,0|0,0:3|0:0,0:0:0:0:
78,200,171654,2,0,L|74:167,1,32.0000012207032,8|0,0:0|0:0,0:0:0:0:
174,127,171810,2,0,L|176:92,1,32.0000012207032,0|0,0:2|0:0,0:0:0:0:
53,95,171966,2,0,L|57:51,1,32.0000012207032,0|0,0:3|0:0,0:0:0:0:
320,99,172123,6,0,L|471:82,1,128.000004882813,4|0,0:0|0:3,0:0:0:0:
289,172,172436,2,0,L|291:99,1,64.0000024414063,0|0,0:2|0:0,0:0:0:0:
486,97,172592,1,8,0:0:0:0:
239,103,172748,1,8,0:0:0:0:
486,97,172904,1,8,0:0:0:0:
76,217,173061,6,0,L|314:184,1,224.000008544922,4|0,0:3|0:0,0:0:0:0:
311,162,173412,1,0,0:0:0:0:
294,135,173471,1,0,0:0:0:0:
142,132,173529,2,0,P|79:179|71:238,2,128.000004882813,8|0|0,0:0|0:2|0:3,0:0:0:0:
298,115,173998,1,4,0:0:0:0:
400,76,174154,1,0,0:2:0:0:
501,45,174311,1,0,0:3:0:0:
352,86,174467,1,8,0:0:0:0:
250,125,174623,1,0,0:2:0:0:
157,163,174779,1,0,0:0:0:0:
466,280,174936,6,0,L|218:253,1,224.000008544922,4|0,0:0|0:0,0:0:0:0:
213,229,175287,1,0,0:0:0:0:
245,191,175346,1,0,0:0:0:0:
396,143,175404,2,0,P|461:128|478:65,2,128.000004882813,8|0|0,0:0|0:2|0:3,0:0:0:0:
253,133,175873,1,4,0:0:0:0:
365,95,176029,1,0,0:2:0:0:
251,61,176186,1,0,0:0:0:0:
402,262,176342,2,0,P|451:207|353:72,1,256.000009765625,8|0,0:0|0:2,0:0:0:0:
114,142,176811,6,0,L|182:254,1,128.000004882813,4|0,0:3|0:2,0:0:0:0:
472,237,177123,2,0,L|345:165,1,128.000004882813,0|8,0:3|0:0,0:0:0:0:
472,140,177436,1,0,0:0:0:0:
474,47,177592,1,0,0:2:0:0:
164,113,177748,5,4,0:0:0:0:
273,74,177904,1,0,0:2:0:0:
155,148,178061,2,0,P|160:223|213:270,1,128.000004882813,0|8,0:0|0:0,0:0:0:0:
327,261,178373,2,0,L|330:179,2,64.0000024414063,0|0|0,0:0|0:0|0:2,0:0:0:0:
41,269,178686,6,0,P|76:203|249:191,1,256.000009765625,4|0,0:0|0:2,0:0:0:0:
498,232,179154,2,0,P|437:287|260:282,1,256.000009765625,8|0,0:0|0:2,0:0:0:0:
27,318,179623,2,0,P|24:260|56:177,1,128.000004882813,4|0,0:0|0:2,0:0:0:0:
154,156,179936,1,0,0:3:0:0:
329,222,180092,2,0,L|333:162,1,48.0000018310548,8|0,0:0|0:0,0:0:0:0:
257,160,180209,2,0,L|191:160,1,48.0000018310548
192,125,180326,1,0,0:0:0:0:
214,83,180385,2,0,L|279:82,1,48.0000018310548,0|0,0:2|0:0,0:0:0:0:
438,75,180561,6,0,L|41:77,1,375.466678125,4|0,0:3|0:2,0:0:0:0:
206,223,181029,1,8,0:0:0:0:
323,198,181186,2,0,P|334:134|310:60,1,128.000004882813,0|0,0:2|0:3,0:0:0:0:
29,248,181498,2,0,P|61:129|177:89,1,256.000009765625,4|0,0:0|0:2,0:0:0:0:
355,106,181967,2,0,P|363:177|341:232,1,128.000004882813,8|0,0:0|0:0,0:0:0:0:
232,246,182279,1,0,0:2:0:0:
474,285,182436,6,0,P|468:214|297:129,1,256.000009765625,4|0,0:0|0:2,0:0:0:0:
67,224,182904,2,0,P|31:155|161:46,1,256.000009765625,8|0,0:0|0:2,0:0:0:0:
370,192,183373,2,0,P|314:126|165:174,1,256.000009765625,4|0,0:0|0:2,0:0:0:0:
451,312,183842,2,0,P|489:252|385:117,1,256.000009765625,8|0,0:0|0:2,0:0:0:0:
115,139,184311,5,4,0:3:0:0:
234,127,184467,1,0,0:2:0:0:
107,102,184623,2,0,L|95:241,1,128.000004882813,0|8,0:2|0:0,0:0:0:0:
339,252,184936,1,0,0:2:0:0:
241,208,185092,1,0,0:3:0:0:
461,107,185248,1,4,0:0:0:0:
342,95,185404,1,0,0:3:0:0:
468,85,185561,2,0,L|206:64,1,256.000009765625,0|0,0:2|0:3,0:0:0:0:
318,35,186029,1,0,0:2:0:0:
183,97,186186,6,0,P|173:166|194:248,1,128.000004882813,4|0,0:0|0:0,0:0:0:0:
286,248,186498,1,0,0:2:0:0:
387,266,186654,1,8,0:0:0:0:
74,301,186811,1,0,0:3:0:0:
294,278,186967,1,0,0:3:0:0:
48,274,187123,2,0,P|23:212|32:150,1,128.000004882813,4|0,0:0|0:0,0:0:0:0:
301,166,187436,2,0,P|316:104|297:44,1,128.000004882813,8|0,0:0|0:0,0:0:0:0:
39,124,187748,1,0,0:2:0:0:
305,88,187904,1,0,0:2:0:0:
64,48,188061,5,4,0:2:0:0:
256,192,188217,12,0,191342,0:0:0:0:
203,200,191811,5,4,0:3:0:0:
256,192,192045,12,0,193529,0:0:0:0:
480,288,193686,5,2,0:0:0:0:
320,288,194154,1,0,0:0:0:0:
192,288,194623,1,0,0:0:0:0:
32,288,195092,1,0,0:0:0:0:
288,288,195561,1,2,0:0:0:0:
256,192,195795,12,0,198217,0:0:0:0:
256,192,198373,5,2,0:0:0:0:
256,192,199311,12,0,206811,0:0:0:0:
121,296,208217,5,8,0:1:0:0:
391,253,208686,6,0,L|393:226,1,16.0000006103516,4|0,0:2|0:0,0:0:0:0:
294,204,208842,2,0,L|295:177,1,16.0000006103516,0|0,0:3|0:0,0:0:0:0:
195,148,208998,2,0,L|194:120,1,16.0000006103516,0|0,0:3|0:0,0:0:0:0:
452,109,209154,2,0,L|456:135,1,16.0000006103516,8|0,0:3|0:0,0:0:0:0:
344,166,209311,2,0,L|343:194,1,16.0000006103516,0|0,0:3|0:0,0:0:0:0:
445,225,209467,2,0,L|444:251,1,16.0000006103516,0|0,0:3|0:0,0:0:0:0:
198,286,209623,6,0,L|175:284,1,16.0000006103516,4|0,0:0|0:0,0:0:0:0:
280,244,209779,2,0,L|307:241,1,16.0000006103516,0|0,0:3|0:0,0:0:0:0:
185,210,209936,2,0,L|159:211,1,16.0000006103516,0|0,0:3|0:0,0:0:0:0:
347,39,210092,2,0,L|349:63,1,16.0000006103516,8|0,0:3|0:0,0:0:0:0:
241,117,210248,2,0,L|225:119,1,16.0000006103516,0|0,0:3|0:0,0:0:0:0:
100,75,210404,2,0,L|94:50,1,16.0000006103516,0|0,0:3|0:0,0:0:0:0:
476,140,210561,6,0,L|479:165,1,16.0000006103516,4|0,0:0|0:0,0:0:0:0:
365,198,210717,2,0,L|364:225,1,16.0000006103516,0|0,0:3|0:0,0:0:0:0:
250,273,210873,2,0,L|238:292,1,16.0000006103516,0|0,0:3|0:0,0:0:0:0:
38,310,211029,2,0,L|35:288,1,16.0000006103516,8|0,0:3|0:0,0:0:0:0:
151,263,211186,2,0,L|170:261,1,16.0000006103516,0|0,0:3|0:0,0:0:0:0:
66,202,211342,2,0,L|65:181,1,16.0000006103516,0|0,0:3|0:0,0:0:0:0:
270,159,211498,6,0,L|293:159,1,16.0000006103516,4|0,0:0|0:0,0:0:0:0:
166,119,211654,2,0,L|139:118,1,16.0000006103516,0|0,0:3|0:0,0:0:0:0:
264,82,211811,2,0,L|287:82,1,16.0000006103516,0|0,0:3|0:0,0:0:0:0:
39,72,211967,2,0,L|39:100,1,16.0000006103516,8|0,0:3|0:0,0:0:0:0:
146,157,212123,2,0,L|146:179,1,16.0000006103516,0|0,0:3|0:0,0:0:0:0:
268,201,212279,2,0,L|269:224,1,16.0000006103516,0|0,0:3|0:0,0:0:0:0:
476,205,212436,6,0,L|481:185,1,16.0000006103516,4|0,0:0|0:0,0:0:0:0:
399,164,212592,2,0,L|396:141,1,16.0000006103516,0|0,0:3|0:0,0:0:0:0:
478,100,212748,2,0,L|484:77,1,16.0000006103516,0|0,0:3|0:0,0:0:0:0:
287,76,212904,2,0,L|285:101,1,16.0000006103516,8|0,0:3|0:0,0:0:0:0:
370,138,213061,2,0,L|372:167,1,16.0000006103516,0|0,0:3|0:0,0:0:0:0:
277,200,213217,2,0,L|276:223,1,16.0000006103516,0|0,0:3|0:0,0:0:0:0:
474,256,213373,6,0,L|477:274,1,16.0000006103516,4|0,0:0|0:0,0:0:0:0:
349,326,213529,2,0,L|323:328,1,16.0000006103516,0|0,0:3|0:0,0:0:0:0:
432,269,213686,2,0,L|433:244,1,16.0000006103516,0|0,0:3|0:0,0:0:0:0:
235,238,213842,2,0,L|214:238,1,16.0000006103516,8|0,0:3|0:0,0:0:0:0:
84,202,213998,2,0,L|83:176,1,16.0000006103516,0|0,0:3|0:0,0:0:0:0:
211,128,214154,2,0,L|236:128,1,16.0000006103516,0|0,0:3|0:0,0:0:0:0:
456,231,214311,5,4,0:0:0:0:
328,172,214467,1,0,0:0:0:0:
471,145,214623,1,0,0:3:0:0:
223,142,214779,2,0,P|210:187|226:246,1,106.666666666667,8|0,0:3|0:0,0:0:0:0:
360,280,215092,1,0,0:3:0:0:
90,288,215248,5,4,0:0:0:0:
217,224,215404,1,0,0:2:0:0:
90,187,215561,1,0,0:3:0:0:
363,219,215717,2,0,P|408:179|373:87,1,160,8|0,0:3|0:0,0:0:0:0:
340,75,216010,1,0,0:0:0:0:
288,60,216068,1,0,0:0:0:0:
79,265,216186,6,0,L|78:249,1,16.0000006103516,4|0,0:2|0:0,0:0:0:0:
78,206,216342,2,0,L|78:190,1,16.0000006103516,0|0,0:3|0:0,0:0:0:0:
74,150,216498,2,0,L|75:134,1,16.0000006103516,0|0,0:3|0:0,0:0:0:0:
265,189,216654,2,0,L|264:173,1,16.0000006103516,8|0,0:3|0:0,0:0:0:0:
264,130,216810,2,0,L|264:114,1,16.0000006103516,0|0,0:3|0:0,0:0:0:0:
260,74,216966,2,0,L|261:58,1,16.0000006103516,0|0,0:3|0:0,0:0:0:0:
473,95,217123,6,0,L|477:123,1,16.0000006103516,4|0,0:0|0:0,0:0:0:0:
371,150,217279,2,0,L|371:169,1,16.0000006103516,0|0,0:3|0:0,0:0:0:0:
480,210,217436,2,0,L|481:234,1,16.0000006103516,0|0,0:3|0:0,0:0:0:0:
165,185,217592,2,0,L|164:200,1,16.0000006103516,8|0,0:3|0:0,0:0:0:0:
236,264,217748,2,0,L|252:266,1,16.0000006103516,0|0,0:3|0:0,0:0:0:0:
158,305,217904,2,0,L|162:289,1,16.0000006103516,0|0,0:3|0:0,0:0:0:0:
444,268,218061,6,0,L|446:252,1,16.0000006103516,4|0,0:0|0:0,0:0:0:0:
445,209,218217,2,0,L|446:193,1,16.0000006103516,0|0,0:3|0:0,0:0:0:0:
449,153,218373,2,0,L|449:137,1,16.0000006103516,0|0,0:3|0:0,0:0:0:0:
227,191,218529,2,0,L|226:175,1,16.0000006103516,8|0,0:3|0:0,0:0:0:0:
226,132,218685,2,0,L|226:116,1,16.0000006103516,0|0,0:3|0:0,0:0:0:0:
222,76,218841,2,0,L|223:60,1,16.0000006103516,0|0,0:3|0:0,0:0:0:0:
36,171,218998,6,0,L|33:146,1,16.0000006103516,4|0,0:0|0:0,0:0:0:0:
117,137,219154,2,0,L|133:136,1,16.0000006103516,0|0,0:3|0:0,0:0:0:0:
56,81,219311,2,0,L|33:83,1,16.0000006103516,0|0,0:3|0:0,0:0:0:0:
273,106,219467,2,0,L|273:122,1,16.0000006103516,8|0,0:3|0:0,0:0:0:0:
206,164,219623,2,0,L|206:180,1,16.0000006103516,0|0,0:3|0:0,0:0:0:0:
130,210,219779,2,0,L|130:225,1,16.0000006103516,0|0,0:3|0:0,0:0:0:0:
393,293,219936,6,0,L|508:269,1,106.666666666667,4|0,0:0|0:3,0:0:0:0:
363,228,220248,2,0,P|311:197|363:77,1,213.333333333333,0|0,0:2|0:0,0:0:0:0:
484,80,220717,1,0,0:0:0:0:
181,117,220873,2,0,L|177:241,1,106.666666666667,4|0,0:0|0:3,0:0:0:0:
312,276,221186,2,0,L|86:298,1,213.333333333333,0|0,0:2|0:0,0:0:0:0:
152,187,221654,1,0,0:0:0:0:
475,205,221811,6,0,L|475:163,1,26.6666666666667,4|0,0:0|0:0,0:0:0:0:
353,172,221967,2,0,L|350:132,1,26.6666666666667,0|0,0:3|0:0,0:0:0:0:
472,114,222123,2,0,L|468:75,1,26.6666666666667,0|0,0:3|0:0,0:0:0:0:
190,163,222279,2,0,L|190:121,1,26.6666666666667,8|0,0:3|0:0,0:0:0:0:
294,118,222435,2,0,L|297:78,1,26.6666666666667,0|0,0:3|0:0,0:0:0:0:
405,78,222591,2,0,L|409:39,1,26.6666666666667,0|0,0:3|0:0,0:0:0:0:
125,69,222748,6,0,L|124:111,1,26.6666666666667,4|0,0:0|0:0,0:0:0:0:
250,146,222904,2,0,L|254:193,1,26.6666666666667,0|0,0:3|0:0,0:0:0:0:
134,249,223061,2,0,L|132:283,1,26.6666666666667,0|0,0:3|0:0,0:0:0:0:
328,300,223217,2,0,L|334:264,1,26.6666666666667,8|0,0:3|0:0,0:0:0:0:
138,207,223393,1,0,0:0:0:0:
160,187,223451,1,0,0:0:0:0:
185,180,223510,1,0,0:0:0:0:
214,174,223568,1,0,0:0:0:0:
389,198,223686,6,0,L|-3:182,1,375.466678125,4|0,0:2|0:2,0:0:0:0:
152,131,224154,1,8,0:0:0:0:
36,50,224311,2,0,P|20:138|23:187,1,128.000004882813,0|0,0:3|0:2,0:0:0:0:
299,298,224623,6,0,P|381:274|292:175,1,256.000009765625,4|0,0:0|0:0,0:0:0:0:
173,184,225092,1,8,0:0:0:0:
306,225,225248,2,0,P|324:285|303:344,1,128.000004882813,0|0,0:2|0:0,0:0:0:0:
33,332,225561,6,0,P|73:261|242:249,1,256.000009765625,4|0,0:0|0:2,0:0:0:0:
453,232,226029,2,0,P|489:163|359:54,1,256.000009765625,8|0,0:0|0:2,0:0:0:0:
143,229,226498,2,0,L|419:205,1,256.000009765625,4|0,0:0|0:2,0:0:0:0:
61,312,226967,2,0,P|23:252|127:117,1,256.000009765625,8|0,0:0|0:2,0:0:0:0:
397,139,227436,5,4,0:3:0:0:
278,127,227592,1,0,0:0:0:0:
150,121,227748,2,0,L|162:260,1,128.000004882813,0|8,0:2|0:0,0:0:0:0:
394,266,228061,2,0,P|365:197|317:159,1,128.000004882813,0|0,0:0|0:2,0:0:0:0:
51,107,228373,1,4,0:0:0:0:
170,95,228529,1,0,0:0:0:0:
300,81,228685,2,0,L|288:220,1,128.000004882813,0|8,0:2|0:0,0:0:0:0:
51,297,228998,2,0,P|61:231|113:186,1,128.000004882813,0|0,0:0|0:2,0:0:0:0:
322,214,229311,6,0,L|98:157,1,192.000007324219,4|0,0:0|0:0,0:0:0:0:
94,154,229623,1,0,0:2:0:0:
57,144,229701,1,0,0:2:0:0:
209,167,229779,2,0,P|221:106|201:45,1,128.000004882813,8|0,0:0|0:2,0:0:0:0:
60,39,230092,1,0,0:0:0:0:
402,285,230248,2,0,P|481:243|361:154,1,256.000009765625,4|0,0:0|0:2,0:0:0:0:
230,149,230717,2,0,L|226:217,2,48.0000018310548,8|0|0,0:0|0:0|0:0,0:0:0:0:
294,207,230893,2,0,L|286:276,2,48.0000018310548
220,276,231068,1,0,0:0:0:0:
430,342,231186,6,0,L|54:359,1,375.466678125,4|0,0:3|0:2,0:0:0:0:
223,310,231654,1,8,0:0:0:0:
296,302,231811,2,8,P|311:237|288:174,1,128.000004882813,0|0,0:0|0:0,0:0:0:0:
30,242,232123,6,0,P|37:160|200:89,1,256.000009765625,4|0,0:0|0:2,0:0:0:0:
305,91,232592,2,0,P|323:157|299:215,1,128.000004882813,8|0,0:0|0:3,0:0:0:0:
156,222,232904,1,0,0:2:0:0:
419,291,233061,6,0,P|445:220|298:129,1,256.000009765625,4|0,0:0|0:2,0:0:0:0:
68,224,233529,2,0,P|32:155|162:46,1,256.000009765625,8|0,0:0|0:2,0:0:0:0:
371,192,233998,2,0,P|315:126|166:174,1,256.000009765625,4|0,0:0|0:2,0:0:0:0:
452,312,234467,2,0,P|490:252|386:117,1,256.000009765625,8|0,0:0|0:2,0:0:0:0:
116,139,234936,5,4,0:3:0:0:
235,127,235092,1,0,0:0:0:0:
108,102,235248,2,0,L|96:241,1,128.000004882813,0|8,0:2|0:0,0:0:0:0:
340,252,235561,1,0,0:0:0:0:
242,208,235717,1,0,0:2:0:0:
462,107,235873,1,4,0:0:0:0:
343,95,236029,1,0,0:0:0:0:
470,70,236185,2,0,L|482:209,1,128.000004882813,0|8,0:2|0:0,0:0:0:0:
222,276,236498,1,0,0:0:0:0:
337,228,236654,1,0,0:2:0:0:
41,200,236811,6,0,L|45:167,1,32.0000012207032,4|0,0:0|0:0,0:0:0:0:
154,136,236967,2,0,L|152:101,1,32.0000012207032,0|0,0:3|0:0,0:0:0:0:
279,100,237123,2,0,L|275:56,1,32.0000012207032,0|0,0:2|0:0,0:0:0:0:
41,138,237279,2,0,L|45:105,1,32.0000012207032,8|0,0:0|0:0,0:0:0:0:
146,88,237435,2,0,L|144:53,1,32.0000012207032,0|0,0:3|0:0,0:0:0:0:
276,62,237591,2,0,L|273:-1,1,64.0000024414063,0|0,0:2|0:0,0:0:0:0:
186,19,237748,6,0,L|24:27,1,128.000004882813,4|8,0:0|0:0,0:0:0:0:
199,250,238061,2,0,L|271:245,1,64.0000024414063,8|0,0:0|0:0,0:0:0:0:
424,222,238217,1,8,0:0:0:0:
208,192,238373,1,8,0:0:0:0:
424,222,238529,1,8,0:0:0:0:
64,302,238686,6,0,P|24:235|145:107,1,240.000009155274,4|0,0:2|0:0,0:0:0:0:
147,100,239037,1,0,0:0:0:0:
203,95,239096,1,0,0:0:0:0:
368,173,239154,2,0,P|431:220|439:279,2,128.000004882813,8|0|0,0:0|0:2|0:3,0:0:0:0:
224,175,239623,1,4,0:0:0:0:
326,136,239779,1,0,0:2:0:0:
427,105,239936,1,0,0:3:0:0:
326,136,240092,1,8,0:0:0:0:
224,175,240248,1,0,0:2:0:0:
131,213,240404,1,0,0:3:0:0:
454,281,240561,6,0,P|490:205|394:83,1,240.000009155274,4|0,0:0|0:0,0:0:0:0:
355,85,240912,1,0,0:0:0:0:
305,93,240971,1,0,0:0:0:0:
116,143,241029,2,0,P|51:128|34:65,2,128.000004882813,8|0|0,0:0|0:2|0:3,0:0:0:0:
259,133,241498,1,4,0:0:0:0:
173,107,241654,1,0,0:2:0:0:
87,83,241811,1,0,0:3:0:0:
240,277,241967,2,0,P|289:222|191:87,1,256.000009765625,8|0,0:0|0:2,0:0:0:0:
483,92,242436,6,0,P|492:174|477:221,1,128.000004882813,4|0,0:3|0:2,0:0:0:0:
154,237,242748,2,0,P|115:187|149:132,1,128.000004882813,0|8,0:3|0:0,0:0:0:0:
292,124,243061,1,0,0:0:0:0:
181,77,243217,1,0,0:2:0:0:
480,165,243373,5,4,0:0:0:0:
371,126,243529,1,0,0:2:0:0:
489,200,243686,2,0,P|484:275|431:322,1,128.000004882813,0|8,0:3|0:0,0:0:0:0:
304,273,243998,2,0,L|301:191,2,64.0000024414063,0|0|0,0:0|0:0|0:2,0:0:0:0:
471,269,244311,6,0,P|436:203|263:191,1,256.000009765625,4|0,0:0|0:2,0:0:0:0:
39,226,244779,2,0,P|100:281|277:276,1,256.000009765625,8|0,0:0|0:2,0:0:0:0:
37,332,245248,2,0,L|181:319,2,128.000004882813,4|0|0,0:0|0:3|0:2,0:0:0:0:
286,324,245717,2,0,L|296:258,2,48.0000018310548,8|0|0,0:0|0:0|0:0,0:0:0:0:
228,247,245893,2,0,L|216:177,2,48.0000018310548
301,240,246068,1,0,0:0:0:0:
97,109,246186,6,0,L|476:104,1,375.466678125,4|0,0:3|0:0,0:0:0:0:
329,146,246654,2,0,L|242:43,2,128.000004882813,8|0|0,0:0|0:3|0:2,0:0:0:0:
29,248,247123,6,0,P|61:129|177:89,1,256.000009765625,4|0,0:0|0:2,0:0:0:0:
355,106,247592,2,0,P|346:179|318:227,1,128.000004882813,8|0,0:0|0:3,0:0:0:0:
203,242,247904,1,0,0:2:0:0:
418,291,248061,6,0,P|444:220|297:129,1,256.000009765625,4|0,0:0|0:2,0:0:0:0:
67,224,248529,2,0,P|31:155|161:46,1,256.000009765625,8|0,0:0|0:2,0:0:0:0:
370,192,248998,2,0,P|314:126|165:174,1,256.000009765625,4|0,0:0|0:2,0:0:0:0:
451,312,249467,2,0,P|489:252|385:117,1,256.000009765625,8|0,0:0|0:2,0:0:0:0:
115,139,249936,5,4,0:3:0:0:
234,127,250092,1,0,0:0:0:0:
107,102,250248,2,0,L|95:241,1,128.000004882813,0|8,0:2|0:0,0:0:0:0:
339,252,250561,1,0,0:0:0:0:
241,208,250717,1,0,0:2:0:0:
461,107,250873,1,4,0:0:0:0:
342,95,251029,1,0,0:0:0:0:
472,87,251186,2,0,P|499:131|396:287,1,256.000009765625,0|0,0:2|0:0,0:0:0:0:
307,280,251654,1,0,0:2:0:0:
160,255,251811,6,0,P|150:185|170:125,1,128.000004882813,4|0,0:0|0:0,0:0:0:0:
261,97,252123,1,0,0:0:0:0:
368,115,252279,1,8,0:0:0:0:
127,277,252436,1,0,0:3:0:0:
351,268,252592,1,0,0:2:0:0:
51,246,252748,2,0,P|26:184|35:122,1,128.000004882813,4|0,0:0|0:0,0:0:0:0:
372,237,253061,2,0,P|387:175|368:115,1,128.000004882813,8|0,0:0|0:0,0:0:0:0:
75,108,253373,1,0,0:2:0:0:
343,61,253529,1,0,0:2:0:0:
220,9,253686,5,4,2:3:0:0:
256,192,253920,12,0,255561,0:0:0:0:
