osu file format v14

[General]
AudioFilename: Electric Daisy Violin- Lindsey Stirling.mp3
AudioLeadIn: 0
PreviewTime: 33799
Countdown: 0
SampleSet: Soft
StackLeniency: 0.2
Mode: 0
LetterboxInBreaks: 1
WidescreenStoryboard: 1

[Editor]
DistanceSpacing: 1.6
BeatDivisor: 4
GridSize: 4
TimelineZoom: 2.2

[Metadata]
Title:Electric Daisy Violin
TitleUnicode:Electric Daisy Violin
Artist:Lindsey Stirling
ArtistUnicode:Lindsey Stirling
Creator:SaD
Version:Normal
Source:
Tags:Lindsay Stirling Electric Daisy Violin SaD_Olution
BeatmapID:567645
BeatmapSetID:67341

[Difficulty]
HPDrainRate:3
CircleSize:3.5
OverallDifficulty:4
ApproachRate:6
SliderMultiplier:1.00000000596046
SliderTickRate:2

[Events]
//Background and Video events
0,0,"831918__wallpaper-instrument-music-violin_p.jpg",0,0
//Break Periods
2,65170,70249
2,123998,133999
//Storyboard Layer 0 (Background)
//Storyboard Layer 1 (Fail)
//Storyboard Layer 2 (Pass)
//Storyboard Layer 3 (Foreground)
//Storyboard Sound Samples

[TimingPoints]
49,468.75,4,2,0,55,1,0
33799,-100,4,1,0,45,0,1
63799,-100,4,2,0,55,0,0
93799,-100,4,1,0,55,0,1
123799,-100,4,2,0,55,0,0
138799,-100,4,2,0,30,0,0
157549,-100,4,1,0,55,0,1
172314,-100,4,1,0,55,0,0

[Colours]
Combo1 : 190,150,41
Combo2 : 134,69,45
Combo3 : 192,203,165

[HitObjects]
164,48,3799,6,0,L|100:140,1,100.000000596046
92,176,4502,1,0,0:0:0:0:
104,224,4736,2,0,L|160:320,1,100.000000596046
357,310,5674,6,0,L|408:224,1,100.000000596046
420,176,6376,1,0,0:0:0:0:
405,130,6611,2,0,L|348:48,1,100.000000596046
300,68,7314,6,0,P|220:60|196:92,1,100.000000596046
256,124,8017,1,0,0:0:0:0:
256,136,8252,2,0,L|256:244,1,100.000000596046
256,232,8955,1,0,0:0:0:0:
192,280,9189,6,0,P|256:312|328:268,1,150.000000894069
256,240,10127,1,0,0:0:0:0:
256,224,10361,2,0,L|256:116,1,100.000000596046
382,62,11299,5,0,0:0:0:0:
373,111,11533,1,0,0:0:0:0:
346,153,11767,1,0,0:0:0:0:
304,180,12002,2,0,P|228:188|176:156,1,100.000000596046
176,144,12705,5,0,0:0:0:0:
184,96,12939,2,0,P|246:52|307:54,1,100.000000596046
320,52,13642,1,0,0:0:0:0:
364,72,13877,2,0,P|408:128|412:168,1,100.000000596046
408,204,14580,1,0,0:0:0:0:
388,248,14814,1,0,0:0:0:0:
352,284,15049,6,0,B|290:341|290:341|234:285|234:285|146:285|146:285,1,250.000001490115
128,240,16455,1,0,0:0:0:0:
144,192,16689,2,0,B|180:148|180:148|232:124|300:156,1,150.000000894069
220,232,17861,1,0,0:0:0:0:
270,144,18330,1,0,0:0:0:0:
192,80,18799,5,0,0:0:0:0:
140,84,19033,2,0,B|100:128|100:128|100:200|100:200,1,100.000000596046
100,268,19970,1,0,0:0:0:0:
144,240,20205,2,0,B|188:200|188:200|188:156|188:156,1,100.000000596046
188,108,20908,1,0,0:0:0:0:
188,60,21142,6,0,L|300:60,1,100.000000596046
337,65,21845,1,0,0:0:0:0:
380,89,22080,1,0,0:0:0:0:
403,133,22314,1,0,0:0:0:0:
400,308,22783,5,0,0:0:0:0:
368,268,23017,2,0,L|292:168,1,100.000000596046
268,244,23720,1,0,0:0:0:0:
236,204,23955,2,0,L|168:112,1,100.000000596046
134,185,24657,1,0,0:0:0:0:
84,189,24892,2,0,P|38:166|31:99,1,100.000000596046
41,75,25595,1,0,0:0:0:0:
82,46,25830,1,0,0:0:0:0:
131,46,26064,1,0,0:0:0:0:
348,79,26533,5,0,0:0:0:0:
371,126,26767,2,0,B|363:166|418:166|423:207,1,100.000000596046
428,256,27470,1,0,0:0:0:0:
424,304,27705,2,0,P|328:308|304:280,1,100.000000596046
304,272,28408,5,0,0:0:0:0:
300,224,28642,2,0,B|236:224|236:276|236:276|156:276,1,150.000000894069
132,276,29580,1,0,0:0:0:0:
104,236,29814,1,0,0:0:0:0:
132,192,30049,6,0,B|180:140|180:140|272:140,1,150.000000894069
308,140,30986,1,0,0:0:0:0:
344,176,31220,1,0,0:0:0:0:
324,224,31455,1,0,0:0:0:0:
256,192,31924,12,0,33330,0:0:0:0:
90,60,33799,6,0,P|155:71|183:115,1,100.000000596046
105,138,34502,1,0,0:0:0:0:
37,182,34736,2,0,P|90:220|141:208,1,100.000000596046
196,187,35439,2,0,P|291:182|330:235,1,150.000000894069
249,249,36377,1,0,0:0:0:0:
312,296,36611,2,0,P|385:271|399:218,1,100.000000596046
323,217,37314,1,0,0:0:0:0:
249,249,37549,6,0,L|184:236,1,50.000000298023
202,159,38017,2,0,B|177:95,1,50.000000298023
249,66,38486,1,0,0:0:0:0:
321,99,38720,1,0,0:0:0:0:
321,179,38955,1,0,0:0:0:0:
254,135,39189,2,0,P|249:66|295:28,2,100.000000596046
316,188,40361,2,0,L|368:232,1,50.000000298023
296,272,40830,2,0,L|278:342,1,50.000000298023
208,344,41299,2,0,P|151:340|114:300,1,100.000000596046
76,248,42002,5,0,0:0:0:0:
24,188,42236,2,0,P|83:167|139:207,1,100.000000596046
150,252,42939,2,0,P|233:224|246:156,1,150.000000894069,0|0,0:3|0:3,0:3:0:0:
166,170,43877,1,0,0:0:0:0:
199,94,44111,2,0,P|247:77|301:97,1,100.000000596046
352,143,44814,1,0,0:0:0:0:
402,205,45049,6,0,L|432:258,1,50.000000298023
364,299,45517,2,0,L|333:361,1,50.000000298023
261,344,45986,1,0,0:0:0:0:
181,342,46220,1,0,0:0:0:0:
108,307,46455,1,0,0:0:0:0:
66,238,46689,2,0,P|55:185|105:123,2,100.000000596046
134,196,47861,1,0,0:0:0:0:
161,121,48095,6,0,P|228:85|306:133,2,150.000000894069
134,196,49736,1,0,0:0:0:0:
213,197,49970,2,0,L|290:197,1,50.000000298023
325,147,50439,1,0,0:0:0:0:
385,199,50674,2,0,L|406:260,1,50.000000298023
342,300,51142,2,0,L|298:360,1,50.000000298023
232,340,51611,5,0,0:0:0:0:
228,332,51845,1,0,0:0:0:0:
232,259,52080,1,0,0:0:0:0:
228,252,52314,1,0,0:0:0:0:
184,194,52549,6,0,L|126:123,1,50.000000298023
199,90,53017,2,0,L|228:26,1,50.000000298023
299,45,53486,1,0,0:0:0:0:
378,48,53720,2,0,P|419:72|440:148,2,100.000000596046
368,52,54892,1,0,0:0:0:0:
364,60,55127,1,0,0:0:0:0:
364,127,55361,2,0,L|306:177,1,50.000000298023
251,138,55830,2,0,L|179:138,1,50.000000298023
137,88,56299,6,0,P|120:140|143:195,1,100.000000596046
195,231,57002,1,0,0:0:0:0:
274,232,57236,2,0,P|258:284|181:305,1,100.000000596046
195,231,57939,1,0,0:0:0:0:
194,150,58174,2,0,L|194:71,1,50.000000298023
273,102,58642,2,0,L|316:43,1,50.000000298023
369,105,59111,2,0,P|414:148|413:208,1,100.000000596046
339,179,59814,1,0,0:0:0:0:
281,122,60049,2,0,L|236:64,1,50.000000298023
187,131,60517,2,0,L|115:131,1,50.000000298023
120,209,60986,1,0,0:0:0:0:
49,171,61220,1,0,0:0:0:0:
47,90,61455,1,0,0:0:0:0:
116,50,61689,2,0,P|173:37|234:58,2,100.000000596046
188,192,63095,1,0,0:0:0:0:
256,192,63799,12,0,64970,0:0:0:0:
81,69,71299,6,0,B|111:131|111:131|166:131,1,100.000000596046
192,129,72002,1,0,0:0:0:0:
228,95,72236,2,0,B|267:57|267:57|345:57,1,100.000000596046
411,60,73174,6,0,B|411:111|411:111|366:158,1,100.000000596046
340,180,73877,1,0,0:0:0:0:
290,182,74111,2,0,B|230:182|230:182|167:233,1,100.000000596046
125,276,75049,6,0,L|167:316,1,50.000000298023
204,334,75517,2,0,L|283:334,1,50.000000298023
304,334,75986,2,0,L|380:334,1,50.000000298023
404,330,76455,2,0,P|452:294|452:235,1,100.000000596046
446,208,77158,1,0,0:0:0:0:
412,170,77392,2,0,L|356:101,1,50.000000298023
337,157,77861,2,0,L|267:157,1,50.000000298023
259,198,78330,1,0,0:0:0:0:
214,221,78564,1,0,0:0:0:0:
118,189,79033,6,0,L|82:102,1,50.000000298023
133,106,79502,2,0,L|166:23,1,50.000000298023
200,51,79970,1,0,0:0:0:0:
248,38,80205,2,0,L|359:38,1,100.000000596046
398,41,80908,6,0,L|444:95,1,50.000000298023
416,127,81377,1,0,0:0:0:0:
372,151,81611,2,0,L|296:151,1,50.000000298023
298,106,82080,2,0,L|224:60,1,50.000000298023
216,110,82549,6,0,L|144:138,1,50.000000298023
160,132,83017,1,0,0:0:0:0:
179,176,83252,2,0,L|142:221,1,50.000000298023
140,224,83720,1,0,0:0:0:0:
182,249,83955,2,0,L|196:315,1,50.000000298023
196,308,84424,1,0,0:0:0:0:
241,296,84658,6,0,L|322:296,1,50.000000298023
305,247,85127,2,0,L|346:176,1,50.000000298023
371,228,85595,2,0,L|452:228,1,50.000000298023
432,228,86064,1,0,0:0:0:0:
421,328,86533,6,0,L|279:328,1,100.000000596046
270,326,87236,1,0,0:0:0:0:
269,276,87470,1,0,0:0:0:0:
269,225,87705,2,0,L|269:99,1,100.000000596046
296,80,88408,5,0,0:0:0:0:
344,68,88642,2,0,P|391:80|414:139,1,100.000000596046
416,172,89345,1,0,0:0:0:0:
384,212,89580,1,0,0:0:0:0:
336,216,89814,1,0,0:0:0:0:
284,216,90049,6,0,L|159:217,1,100.000000596046
160,172,90752,2,0,L|124:124,1,50.000000298023
156,88,91220,1,0,0:0:0:0:
208,92,91455,1,0,0:0:0:0:
256,192,91924,12,4,93330,0:0:0:0:
324,148,93799,6,0,P|339:212|309:255,1,100.000000596046
258,192,94502,1,0,0:0:0:0:
190,146,94736,2,0,P|175:209|206:251,1,100.000000596046
258,192,95439,2,0,P|353:187|392:240,1,150.000000894069
312,252,96377,1,0,0:0:0:0:
236,272,96611,2,0,P|286:330|340:323,1,100.000000596046
384,320,97314,1,0,0:0:0:0:
424,252,97549,6,0,L|444:204,1,50.000000298023
368,180,98017,2,0,B|343:116,1,50.000000298023
288,80,98486,1,0,0:0:0:0:
240,144,98720,1,0,0:0:0:0:
300,196,98955,1,0,0:0:0:0:
349,133,99189,2,0,P|315:72|251:62,2,100.000000596046
292,192,100361,2,0,L|228:192,1,50.000000298023
192,128,100830,2,0,L|140:104,1,50.000000298023
204,52,101299,2,0,P|152:27|100:44,1,100.000000596046
64,100,102002,5,0,0:0:0:0:
60,180,102236,2,0,P|85:236|153:250,1,100.000000596046
96,328,102939,2,0,P|179:300|192:232,1,150.000000894069,0|0,0:3|0:3,0:3:0:0:
160,172,103877,1,0,0:0:0:0:
208,108,104111,2,0,P|257:105|304:140,1,100.000000596046
332,204,104814,1,0,0:0:0:0:
288,272,105049,6,0,L|196:300,1,50.000000298023
200,216,105517,2,0,L|156:180,1,50.000000298023
172,104,105986,1,0,0:0:0:0:
252,108,106220,1,0,0:0:0:0:
284,184,106455,1,0,0:0:0:0:
204,176,106689,2,0,P|172:132|192:55,2,100.000000596046
284,184,107861,1,0,0:0:0:0:
328,116,108095,6,0,P|395:80|473:128,2,150.000000894069
396,160,109736,1,0,0:0:0:0:
460,208,109970,2,0,L|460:280,1,50.000000298023
396,308,110439,1,0,0:0:0:0:
332,260,110674,2,0,L|332:208,1,50.000000298023
380,148,111142,2,0,L|420:108,1,50.000000298023
424,104,111611,5,0,0:0:0:0:
432,96,111845,1,0,0:0:0:0:
364,56,112080,1,0,0:0:0:0:
356,56,112314,1,0,0:0:0:0:
276,56,112549,6,0,L|196:56,1,50.000000298023
148,60,113017,2,0,L|68:60,1,50.000000298023
72,136,113486,1,0,0:0:0:0:
152,136,113720,2,0,P|193:160|214:236,2,100.000000596046
128,212,114892,1,0,0:0:0:0:
136,216,115127,1,0,0:0:0:0:
204,256,115361,2,0,L|276:256,1,50.000000298023
256,176,115830,2,0,L|184:176,1,50.000000298023
132,208,116299,6,0,P|115:260|138:315,1,100.000000596046
196,256,117002,1,0,0:0:0:0:
260,208,117236,2,0,P|277:259|227:321,1,100.000000596046
192,340,117939,1,0,0:0:0:0:
196,256,118174,2,0,L|196:177,1,50.000000298023
172,128,118642,2,0,L|215:69,1,50.000000298023
272,48,119111,2,0,P|331:65|357:119,1,100.000000596046
280,128,119814,1,0,0:0:0:0:
204,104,120049,2,0,L|156:144,1,50.000000298023
184,216,120517,2,0,L|112:216,1,50.000000298023
80,156,120986,1,0,0:0:0:0:
100,80,121220,1,0,0:0:0:0:
176,52,121455,1,0,0:0:0:0:
240,100,121689,2,0,P|248:152|208:204,2,100.000000596046
112,196,123095,2,0,P|150:258|231:306,1,150.000000894069
256,192,135049,12,0,138330,0:0:0:0:
351,138,138799,6,0,L|380:105,2,25.0000001490115
276,112,139267,2,0,L|305:79,2,25.0000001490115
200,92,139736,2,0,L|229:59,2,25.0000001490115
124,64,140205,2,0,L|153:31,2,25.0000001490115
124,144,140674,6,0,L|107:162,2,25.0000001490115
156,217,141142,2,0,L|140:236,2,25.0000001490115
192,288,141611,2,0,L|175:306,2,25.0000001490115
272,284,142080,2,0,L|305:313,2,25.0000001490115
352,280,142549,6,0,L|385:309,2,25.0000001490115
352,200,143017,2,0,L|381:167,2,25.0000001490115
272,200,143486,2,0,L|239:171,2,25.0000001490115
308,128,143955,2,0,L|337:95,2,25.0000001490115
232,108,144424,6,0,L|261:75,2,25.0000001490115
152,108,144892,2,0,L|119:79,2,25.0000001490115
112,176,145361,2,0,L|79:147,2,25.0000001490115
112,256,145830,2,0,L|83:289,2,25.0000001490115
192,256,146299,5,0,0:0:0:0:
228,288,146533,1,0,0:0:0:0:
276,300,146767,2,0,L|356:300,1,50.000000298023
328,248,147236,2,0,L|368:200,1,50.000000298023
324,176,147705,2,0,L|324:100,1,50.000000298023
296,84,148174,5,0,0:0:0:0:
248,96,148408,1,0,0:0:0:0:
228,140,148642,2,0,L|256:196,1,50.000000298023
296,208,149111,2,0,L|264:268,1,50.000000298023
264,300,149580,2,0,L|200:300,1,50.000000298023
172,272,150049,5,0,0:0:0:0:
140,176,150517,1,0,0:0:0:0:
236,204,150986,1,0,0:0:0:0:
268,108,151455,1,0,0:0:0:0:
364,140,151924,6,0,L|424:168,1,50.000000298023
408,212,152392,2,0,L|352:240,1,50.000000298023
340,276,152861,2,0,L|280:240,1,50.000000298023
280,204,153330,2,0,L|216:232,1,50.000000298023
256,192,154736,12,0,157080,0:0:0:0:
188,236,157549,6,0,P|173:172|203:129,1,100.000000596046
254,192,158252,1,0,0:0:0:0:
322,238,158486,2,0,P|337:175|306:133,1,100.000000596046
254,192,159189,2,0,P|159:197|120:144,1,150.000000894069
200,132,160127,1,0,0:0:0:0:
276,112,160361,2,0,P|226:54|172:61,1,100.000000596046
128,64,161064,1,0,0:0:0:0:
88,132,161299,6,0,L|68:180,1,50.000000298023
144,204,161767,2,0,B|169:268,1,50.000000298023
236,284,162236,1,0,0:0:0:0:
316,288,162470,1,0,0:0:0:0:
376,236,162705,1,0,0:0:0:0:
372,156,162939,2,0,P|338:95|274:85,2,100.000000596046
300,192,164111,2,0,L|300:252,1,50.000000298023
220,240,164580,2,0,L|196:304,1,50.000000298023
276,316,165049,2,0,P|333:312|370:272,1,100.000000596046
424,333,165752,5,0,0:0:0:0:
424,333,165986,2,0,P|441:273|398:219,1,100.000000596046
368,188,166689,1,0,0:0:0:0:
320,252,166924,6,0,L|288:252,2,25.0000001490115
400,268,167392,1,0,0:0:0:0:
344,324,167627,1,0,0:0:0:0:
264,324,167861,2,0,P|219:303|194:250,1,100.000000596046
180,180,168564,1,0,0:0:0:0:
224,112,168799,6,0,L|316:84,1,50.000000298023
348,116,169267,2,0,L|320:172,1,50.000000298023
292,232,169736,1,0,0:0:0:0:
220,264,169970,1,0,0:0:0:0:
168,204,170205,1,0,0:0:0:0:
180,124,170439,2,0,P|138:88|60:101,2,100.000000596046
220,196,171611,1,0,0:0:0:0:
184,268,171845,6,0,P|117:304|39:256,2,150.000000894069
116,224,173486,1,0,0:0:0:0:
52,176,173720,2,0,L|52:104,1,50.000000298023
116,76,174189,1,0,0:0:0:0:
180,124,174424,2,0,L|180:176,1,50.000000298023
132,236,174892,2,0,L|92:276,1,50.000000298023
88,280,175361,5,0,0:0:0:0:
80,288,175595,1,0,0:0:0:0:
148,328,175830,1,0,0:0:0:0:
156,328,176064,1,0,0:0:0:0:
236,328,176299,6,0,L|316:328,1,50.000000298023
364,324,176767,2,0,L|444:324,1,50.000000298023
440,248,177236,1,0,0:0:0:0:
360,248,177470,2,0,P|319:224|298:148,2,100.000000596046
380,172,178642,1,0,0:0:0:0:
380,160,178877,1,0,0:0:0:0:
308,128,179111,2,0,L|236:128,1,50.000000298023
256,208,179580,2,0,L|328:208,1,50.000000298023
380,176,180049,6,0,P|397:124|374:69,1,100.000000596046
316,128,180752,1,0,0:0:0:0:
252,176,180986,2,0,P|235:125|285:63,1,100.000000596046
320,44,181689,1,0,0:0:0:0:
316,128,181924,2,0,L|316:207,1,50.000000298023
340,256,182392,2,0,L|297:315,1,50.000000298023
240,336,182861,2,0,P|181:319|155:265,1,100.000000596046
232,256,183564,1,0,0:0:0:0:
308,280,183799,2,0,L|356:240,1,50.000000298023
328,168,184267,2,0,L|400:168,1,50.000000298023
432,228,184736,1,0,0:0:0:0:
412,304,184970,1,0,0:0:0:0:
336,332,185205,1,0,0:0:0:0:
272,284,185439,2,0,P|264:232|304:180,2,100.000000596046
428,256,186845,1,0,0:0:0:0:
256,192,187549,12,0,189892,0:0:0:0:
