osu file format v14

[General]
AudioFilename: Electric Daisy Violin- Lindsey Stirling.mp3
AudioLeadIn: 0
PreviewTime: 33799
Countdown: 0
SampleSet: Soft
StackLeniency: 0.2
Mode: 0
LetterboxInBreaks: 1
SkinPreference:lindsey
WidescreenStoryboard: 0

[Editor]
DistanceSpacing: 0.4
BeatDivisor: 4
GridSize: 4
TimelineZoom: 3.499999

[Metadata]
Title:Electric Daisy Violin
TitleUnicode:Electric Daisy Violin
Artist:Lindsey Stirling
ArtistUnicode:Lindsey Stirling
Creator:SaD
Version:Insane
Source:
Tags:Lindsay Stirling Electric Daisy Violin SaD_Olution
BeatmapID:784585
BeatmapSetID:67341

[Difficulty]
HPDrainRate:6
CircleSize:4
OverallDifficulty:7.5
ApproachRate:8
SliderMultiplier:2
SliderTickRate:1

[Events]
//Background and Video events
0,0,"831918__wallpaper-instrument-music-violin_p.jpg",0,0
//Break Periods
2,131029,136174
//Storyboard Layer 0 (Background)
//Storyboard Layer 1 (Fail)
//Storyboard Layer 2 (Pass)
//Storyboard Layer 3 (Foreground)
//Storyboard Sound Samples

[TimingPoints]
49,468.75,4,2,0,55,1,0
4267,-100,4,1,0,55,0,0
4384,-100,4,2,0,55,0,0
5205,-100,4,1,0,55,0,0
5305,-100,4,2,0,55,0,0
6142,-100,4,1,0,55,0,0
6242,-100,4,2,0,55,0,0
7080,-100,4,1,0,55,0,0
7180,-100,4,2,0,55,0,0
8017,-100,4,1,0,55,0,0
8117,-100,4,2,0,55,0,0
8955,-100,4,1,0,55,0,0
9055,-100,4,2,0,55,0,0
10830,-100,4,1,0,55,0,0
10930,-100,4,2,0,55,0,0
11767,-100,4,1,0,55,0,0
11867,-100,4,2,0,55,0,0
12705,-100,4,1,0,55,0,0
12805,-100,4,2,0,55,0,0
13642,-100,4,1,0,55,0,0
13742,-100,4,2,0,55,0,0
14580,-100,4,1,0,55,0,0
14680,-100,4,2,0,55,0,0
16455,-100,4,1,0,55,0,0
16555,-100,4,2,0,55,0,0
17392,-100,4,1,0,55,0,0
17492,-100,4,2,0,55,0,0
18330,-100,4,1,0,55,0,0
18430,-100,4,2,0,55,0,0
19267,-100,4,1,0,55,0,0
19367,-100,4,2,0,55,0,0
20205,-100,4,1,0,55,0,0
20305,-100,4,2,0,55,0,0
21142,-100,4,1,0,55,0,0
21242,-100,4,2,0,55,0,0
22080,-100,4,1,0,55,0,0
22180,-100,4,2,0,55,0,0
23017,-100,4,1,0,55,0,0
23117,-100,4,2,0,55,0,0
23955,-100,4,1,0,55,0,0
24055,-100,4,2,0,55,0,0
24892,-100,4,1,0,55,0,0
24992,-100,4,2,0,55,0,0
25830,-100,4,2,0,55,0,0
25930,-100,4,2,0,55,0,0
26767,-100,4,1,0,55,0,0
26867,-100,4,2,0,55,0,0
27705,-100,4,1,0,55,0,0
27805,-100,4,2,0,55,0,0
28642,-100,4,1,0,55,0,0
28742,-100,4,2,0,55,0,0
29580,-100,4,1,0,55,0,0
29680,-100,4,2,0,55,0,0
31455,-100,4,1,0,55,0,0
31555,-100,4,2,0,55,0,0
32392,-100,4,1,0,55,0,0
32492,-100,4,2,0,55,0,0
33330,-100,4,1,0,55,0,0
33430,-100,4,2,0,55,0,0
33799,-100,4,2,0,55,0,1
63799,-125,4,2,0,55,0,0
64267,-125,4,1,0,55,0,0
64367,-125,4,2,0,55,0,0
65205,-125,4,1,0,55,0,0
65305,-125,4,2,0,55,0,0
66142,-125,4,1,0,55,0,0
66242,-125,4,2,0,55,0,0
67080,-125,4,1,0,55,0,0
67180,-125,4,2,0,55,0,0
68017,-125,4,1,0,55,0,0
68117,-125,4,2,0,55,0,0
68955,-125,4,1,0,55,0,0
69055,-125,4,2,0,55,0,0
69892,-125,4,1,0,55,0,0
69992,-125,4,2,0,55,0,0
70830,-100,4,1,0,55,0,0
70930,-100,4,2,0,55,0,0
71767,-100,4,1,0,55,0,0
71867,-100,4,2,0,55,0,0
72705,-100,4,1,0,55,0,0
72805,-100,4,2,0,55,0,0
73642,-100,4,1,0,55,0,0
73742,-100,4,2,0,55,0,0
74580,-100,4,1,0,55,0,0
74680,-100,4,2,0,55,0,0
75517,-100,4,1,0,55,0,0
75617,-100,4,2,0,55,0,0
76455,-100,4,1,0,55,0,0
76555,-100,4,2,0,55,0,0
77392,-100,4,1,0,55,0,0
77492,-100,4,2,0,55,0,0
78330,-100,4,1,0,55,0,0
78430,-100,4,2,0,55,0,0
79267,-100,4,1,0,55,0,0
79367,-100,4,2,0,55,0,0
80205,-100,4,1,0,55,0,0
80305,-100,4,2,0,55,0,0
81142,-100,4,1,0,55,0,0
81242,-100,4,2,0,55,0,0
82080,-100,4,1,0,55,0,0
82180,-100,4,2,0,55,0,0
83017,-100,4,2,0,55,0,0
83117,-100,4,2,0,55,0,0
83955,-100,4,1,0,55,0,0
84055,-100,4,2,0,55,0,0
84892,-100,4,1,0,55,0,0
84992,-100,4,2,0,55,0,0
85830,-100,4,1,0,55,0,0
85930,-100,4,2,0,55,0,0
86767,-100,4,1,0,55,0,0
86867,-100,4,2,0,55,0,0
87705,-100,4,1,0,55,0,0
87805,-100,4,2,0,55,0,0
88642,-100,4,1,0,55,0,0
88742,-100,4,2,0,55,0,0
89580,-100,4,1,0,55,0,0
89680,-100,4,2,0,55,0,0
90049,-100,4,2,0,55,0,0
90752,-100,4,2,0,55,0,0
91455,-100,4,1,0,55,0,0
91555,-100,4,2,0,55,0,0
92392,-100,4,1,0,55,0,0
92492,-100,4,2,0,55,0,0
93330,-100,4,1,0,55,0,0
93430,-100,4,2,0,55,0,0
93799,-100,4,2,0,55,0,1
123095,-100,4,2,0,55,0,1
123799,-200,4,2,0,55,0,0
124267,-200,4,2,0,25,0,0
136924,-200,4,2,0,5,0,0
138799,-100,4,2,0,30,0,0
151924,-100,4,2,0,33,0,0
152158,-100,4,2,0,36,0,0
152392,-100,4,2,0,39,0,0
152627,-100,4,2,0,42,0,0
152861,-100,4,2,0,45,0,0
153095,-100,4,2,0,48,0,0
153330,-100,4,2,0,51,0,0
153564,-100,4,2,0,55,0,0
153799,-200,4,2,0,47,0,0
153916,-200,4,2,0,40,0,0
154033,-200,4,2,0,33,0,0
154150,-200,4,2,0,26,0,0
154267,-200,4,2,0,19,0,0
154384,-200,4,2,0,12,0,0
154502,-200,4,2,0,5,0,0
154619,-200,4,2,0,5,0,0
154736,-200,4,2,0,5,0,0
154853,-200,4,2,0,5,0,0
154970,-200,4,2,0,5,0,0
155088,-200,4,2,0,5,0,0
155205,-200,4,2,0,5,0,0
157080,-100,4,2,0,55,0,0
157549,-100,4,2,0,55,0,1
163408,-100,4,2,0,55,0,1
163877,-100,4,2,0,55,0,1
172314,-100,4,2,0,55,0,0
187549,-100,4,2,0,5,0,0

[Colours]
Combo1 : 255,255,0
Combo2 : 0,0,255

[HitObjects]
256,192,2161,12,0,3802,0:0:0:0:
84,68,4033,5,0,0:0:0:0:
122,77,4150,1,0,0:0:0:0:
160,87,4267,1,0,0:0:0:0:
342,125,4502,2,0,L|378:89,2,50,0|0|2,0:0|0:0|0:0,0:0:0:0:
428,316,4970,5,0,0:0:0:0:
390,307,5087,1,0,0:0:0:0:
352,297,5204,1,0,0:0:0:0:
170,259,5439,2,0,L|134:295,2,50,0|0|2,0:0|0:0|0:0,0:0:0:0:
311,138,5908,5,0,0:0:0:0:
340,111,6025,1,0,0:0:0:0:
369,84,6142,1,0,0:0:0:0:
191,74,6377,1,0,0:0:0:0:
152,64,6494,1,0,0:0:0:0:
114,52,6611,1,2,0:0:0:0:
163,230,6845,1,0,0:0:0:0:
174,268,6962,1,0,0:0:0:0:
186,305,7079,1,0,0:0:0:0:
366,259,7314,6,0,P|407:223|417:163,1,100
243,121,7783,1,2,0:0:0:0:
418,181,8017,1,0,0:0:0:0:
185,218,8252,2,0,P|166:305|238:311,1,150,2|0,0:0|0:0,0:0:0:0:
246,322,8720,2,0,P|300:317|365:299,1,100,2|0,0:0|0:0,0:0:0:0:
440,148,9189,2,0,P|264:80|72:152,1,400,2|2,0:0|0:0,0:0:0:0:
164,301,10361,2,0,P|256:338|348:295,1,200,0|4,0:0|0:0,0:0:0:0:
343,299,11299,5,0,0:0:0:0:
222,159,11533,1,2,0:0:0:0:
77,273,11767,1,0,0:0:0:0:
256,320,12002,2,0,P|376:288|408:192,1,200,2|2,0:0|0:0,0:0:0:0:
256,64,12705,1,0,0:0:0:0:
256,64,12939,6,0,P|136:96|104:192,1,200,2|2,0:0|0:0,0:0:0:0:
256,320,13642,1,0,0:0:0:0:
256,320,13877,2,0,P|376:288|408:192,1,200,2|2,0:0|0:0,0:0:0:0:
223,94,14580,1,0,0:0:0:0:
407,228,14814,1,2,0:0:0:0:
223,94,15049,6,0,P|159:205|408:224,1,500
412,188,16338,1,0,0:0:0:0:
398,150,16455,1,0,0:0:0:0:
129,84,16689,2,0,P|50:173|158:316,1,300,2|0,0:0|0:0,0:0:0:0:
450,104,17861,1,2,0:0:0:0:
72,64,18330,1,4,0:0:0:0:
83,310,18799,5,0,0:0:0:0:
290,254,19033,1,2,0:0:0:0:
330,248,19150,1,0,0:0:0:0:
363,270,19267,2,0,B|411:338|411:338|339:338,1,150
302,338,19736,1,2,0:0:0:0:
262,332,19853,1,0,0:0:0:0:
228,309,19970,1,2,0:0:0:0:
217,270,20088,1,0,0:0:0:0:
224,230,20205,6,0,B|242:187|301:165|354:208|354:208|307:168|303:102|374:58,1,300,0|2,0:0|0:0,0:0:0:0:
381,60,21025,1,0,0:0:0:0:
420,59,21142,2,0,B|466:59|466:59|477:113|459:173,1,150
454,201,21611,1,2,0:0:0:0:
444,239,21728,1,0,0:0:0:0:
423,273,21845,1,2,0:0:0:0:
395,302,21963,1,0,0:0:0:0:
359,319,22080,1,0,0:0:0:0:
159,319,22314,1,2,0:0:0:0:
359,319,22549,1,4,0:0:0:0:
159,319,22783,5,0,0:0:0:0:
149,316,22900,1,0,0:0:0:0:
139,312,23017,1,0,0:0:0:0:
369,271,23252,1,0,0:0:0:0:
386,262,23369,1,0,0:0:0:0:
401,248,23486,1,2,0:0:0:0:
134,205,23720,5,0,0:0:0:0:
105,195,23838,1,0,0:0:0:0:
84,173,23955,1,0,0:0:0:0:
367,147,24189,1,0,0:0:0:0:
399,123,24306,1,0,0:0:0:0:
423,90,24424,1,2,0:0:0:0:
97,98,24658,5,0,0:0:0:0:
72,54,24775,1,0,0:0:0:0:
65,4,24892,1,0,0:0:0:0:
286,122,25127,1,0,0:0:0:0:
146,171,25361,5,2,0:0:0:0:
110,190,25479,1,0,0:0:0:0:
89,224,25596,1,2,0:0:0:0:
84,263,25713,1,0,0:0:0:0:
101,298,25830,1,2,0:0:0:0:
285,326,26064,1,4,0:0:0:0:
75,201,26533,5,2,0:0:0:0:
74,161,26650,1,0,0:0:0:0:
98,129,26767,2,0,P|147:112|189:145,1,100
190,177,27119,2,0,B|189:215|124:217|157:284,1,100,2|0,0:0|0:0,0:0:0:0:
167,298,27470,1,2,0:0:0:0:
205,309,27588,1,0,0:0:0:0:
237,285,27705,1,0,0:0:0:0:
224,127,27939,1,2,0:0:0:0:
361,305,28174,1,4,0:0:0:0:
420,112,28408,5,2,0:0:0:0:
404,75,28525,1,0,0:0:0:0:
366,59,28642,2,0,B|298:51|282:115,1,100
277,129,28994,2,0,B|262:163|302:187|290:227,1,100,2|0,0:0|0:0,0:0:0:0:
273,261,29345,5,2,0:0:0:0:
242,288,29463,1,0,0:0:0:0:
203,299,29580,1,0,0:0:0:0:
163,293,29697,1,0,0:0:0:0:
129,271,29814,1,2,0:0:0:0:
105,238,29931,1,0,0:0:0:0:
103,197,30049,6,0,P|168:94|337:156,1,300,2|0,0:0|0:0,0:0:0:0:
339,165,30869,1,0,0:0:0:0:
338,204,30986,1,2,0:0:0:0:
193,350,31220,1,4,0:0:0:0:
190,158,31455,2,0,P|281:78|394:81,1,200,0|2,0:0|0:0,0:0:0:0:
365,71,32041,5,0,0:0:0:0:
374,74,32158,1,2,0:0:0:0:
388,78,32275,1,0,0:0:0:0:
406,86,32392,1,0,0:0:0:0:
425,101,32509,1,0,0:0:0:0:
445,123,32627,1,2,0:0:0:0:
459,154,32744,5,0,0:0:0:0:
463,193,32861,1,2,0:0:0:0:
455,237,32978,1,0,0:0:0:0:
430,280,33095,1,2,0:0:0:0:
383,309,33213,1,0,0:0:0:0:
323,306,33330,1,0,0:0:0:0:
139,211,33564,1,4,0:0:0:0:
52,52,33799,6,0,B|36:183|154:216,1,200,0|8,0:0|0:0,0:0:0:0:
256,52,34502,1,0,0:0:0:0:
460,52,34736,6,0,B|476:183|358:216,1,200,0|8,0:0|0:0,0:0:0:0:
148,173,35439,1,8,0:0:0:0:
51,329,35674,6,0,B|47:202|156:171,1,200,0|8,0:0|0:0,0:0:0:0:
256,332,36377,1,0,0:0:0:0:
460,332,36611,6,0,B|476:201|358:168,1,200,0|8,0:0|0:0,0:0:0:0:
333,161,37197,5,0,0:0:0:0:
294,165,37314,1,10,0:0:0:0:
268,195,37431,1,0,0:0:0:0:
268,235,37549,1,2,0:0:0:0:
299,259,37666,1,0,0:0:0:0:
338,253,37783,1,2,0:0:0:0:
361,220,37900,1,0,0:0:0:0:
384,187,38017,1,10,0:0:0:0:
423,179,38134,1,0,0:0:0:0:
456,201,38252,1,2,0:0:0:0:
457,240,38369,1,0,0:0:0:0:
436,274,38486,6,0,P|372:304|314:291,1,100,2|0,0:0|0:0,0:0:0:0:
220,209,38955,1,8,0:0:0:0:
430,273,39189,1,12,0:0:0:0:
266,353,39424,1,0,0:0:0:0:
88,316,39658,6,0,P|35:218|86:103,1,200,0|2,0:0|0:0,0:0:0:0:
81,105,40244,1,0,0:0:0:0:
114,82,40361,1,2,0:0:0:0:
152,73,40478,1,0,0:0:0:0:
191,77,40595,1,2,0:0:0:0:
224,98,40713,1,0,0:0:0:0:
247,130,40830,1,10,0:0:0:0:
363,319,41064,1,8,0:0:0:0:
162,319,41299,1,6,0:0:0:0:
362,319,41767,5,8,0:0:0:0:
161,319,42002,1,0,0:0:0:0:
361,319,42236,2,0,P|430:240|359:155,1,200,0|8,0:0|0:0,0:0:0:0:
157,83,42939,2,0,P|80:200|186:325,1,300,8|8,0:0|0:0,0:0:0:0:
304,170,43877,1,0,0:0:0:0:
415,321,44111,2,0,P|299:334|226:272,1,200,0|8,0:0|0:0,0:0:0:0:
273,91,44814,1,8,0:0:0:0:
467,141,45049,5,2,0:0:0:0:
465,180,45166,1,0,0:0:0:0:
456,219,45283,1,2,0:0:0:0:
439,254,45400,1,0,0:0:0:0:
411,282,45517,1,10,0:0:0:0:
376,299,45634,1,0,0:0:0:0:
336,307,45752,1,2,0:0:0:0:
296,308,45869,1,0,0:0:0:0:
257,296,45986,1,2,0:0:0:0:
244,111,46220,5,0,0:0:0:0:
366,245,46455,1,8,0:0:0:0:
426,78,46689,2,0,P|318:66|231:129,1,200,8|0,0:0|0:0,0:0:0:0:
78,326,47627,1,0,0:0:0:0:
399,147,48095,2,0,B|466:178|463:264|463:264|391:298,1,200,8|0,0:0|0:0,0:0:0:0:
306,308,48799,6,0,B|238:324|214:268|216:210|291:198|291:198|206:166|173:101|174:50|174:50|235:73|294:44,1,500,4|2,0:0|0:0,0:0:0:0:
307,35,50088,1,0,0:0:0:0:
346,26,50205,1,10,0:0:0:0:
385,29,50322,1,0,0:0:0:0:
421,44,50439,1,10,0:0:0:0:
446,74,50556,1,0,0:0:0:0:
487,166,50674,5,2,0:0:0:0:
450,148,50791,1,0,0:0:0:0:
410,143,50908,1,2,0:0:0:0:
372,155,51025,1,0,0:0:0:0:
282,198,51142,5,10,0:0:0:0:
321,199,51259,1,0,0:0:0:0:
356,217,51377,1,2,0:0:0:0:
372,253,51494,1,0,0:0:0:0:
389,352,51611,5,2,0:0:0:0:
349,352,51728,1,0,0:0:0:0:
309,352,51845,1,2,0:0:0:0:
268,352,51963,1,0,0:0:0:0:
228,352,52080,1,10,0:0:0:0:
56,347,52314,1,12,0:0:0:0:
46,193,52549,5,2,0:0:0:0:
47,152,52666,1,0,0:0:0:0:
56,113,52783,1,2,0:0:0:0:
78,79,52900,1,0,0:0:0:0:
105,50,53017,1,10,0:0:0:0:
103,89,53134,1,0,0:0:0:0:
103,129,53252,1,2,0:0:0:0:
104,168,53369,1,0,0:0:0:0:
104,208,53486,6,0,P|117:264|147:296,1,100,2|0,0:0|0:0,0:0:0:0:
342,296,53955,2,0,B|321:194|321:194,1,100,8|8,0:0|0:0,0:0:0:0:
140,114,54424,1,0,0:0:0:0:
223,296,54658,1,0,0:0:0:0:
421,271,54892,2,0,P|454:221|450:156,1,100,8|0,0:0|0:0,0:0:0:0:
450,142,55244,5,0,0:0:0:0:
429,107,55361,2,0,L|384:50,1,50,2|0,0:0|0:0,0:0:0:0:
269,179,55595,2,0,L|219:213,1,50,2|0,0:0|0:0,0:0:0:0:
136,72,55830,2,0,P|80:120|72:168,1,100,10|8,0:0|0:0,0:0:0:0:
171,318,56299,1,4,0:0:0:0:
361,255,56533,1,0,0:0:0:0:
440,72,56767,6,0,L|336:144,1,100,8|0,0:0|0:0,0:0:0:0:
72,72,57236,2,0,L|176:144,1,100,0|0,0:0|0:0,0:0:0:0:
397,337,57705,2,0,B|337:337|337:337|281:307,1,100,8|8,0:0|0:0,0:0:0:0:
183,157,58173,1,0,0:0:0:0:
191,117,58291,1,0,0:0:0:0:
221,90,58408,1,0,0:0:0:0:
420,72,58642,5,8,0:0:0:0:
354,261,58877,1,0,0:0:0:0:
221,112,59111,1,0,0:0:0:0:
404,192,59345,1,0,0:0:0:0:
236,301,59580,1,8,0:0:0:0:
92,163,59814,1,8,0:0:0:0:
256,48,60049,5,2,0:0:0:0:
288,70,60166,1,0,0:0:0:0:
302,107,60283,1,2,0:0:0:0:
287,144,60400,1,0,0:0:0:0:
259,173,60517,1,2,0:0:0:0:
229,200,60634,1,0,0:0:0:0:
207,234,60752,1,2,0:0:0:0:
206,273,60869,1,0,0:0:0:0:
234,301,60986,1,2,0:0:0:0:
384,288,61220,5,0,0:0:0:0:
258,173,61455,1,0,0:0:0:0:
136,296,61689,2,0,P|232:336|312:320,1,150,4|0,0:0|0:0,0:0:0:0:
316,325,62158,2,0,P|388:289|416:245,1,100,2|0,0:0|0:0,0:0:0:0:
440,97,62627,1,0,0:0:0:0:
256,82,62861,1,0,0:0:0:0:
353,240,63095,2,0,B|397:308|397:308|352:358|263:339,1,200
167,325,63799,6,0,P|107:300|72:246,1,120,4|2,1:0|0:0,0:0:0:0:
65,226,64267,2,0,P|61:165|86:132,1,80
208,226,64736,2,0,P|251:253|299:252,1,80
311,252,65088,1,0,0:0:0:0:
342,246,65205,2,0,P|396:220|427:182,1,80,0|0,1:0|0:0,0:0:0:0:
457,66,65674,5,0,0:0:0:0:
333,146,65908,1,2,0:0:0:0:
333,146,66025,1,0,0:0:0:0:
333,146,66142,2,0,P|282:163|252:128,1,80,0|0,1:0|0:0,0:0:0:0:
249,121,66494,2,0,P|216:76|177:58,1,80,2|0,0:0|0:0,0:0:0:0:
177,90,66845,1,2,0:0:0:0:
160,117,66963,1,0,0:0:0:0:
143,144,67080,2,0,L|93:224,1,80,0|2,1:0|0:0,0:0:0:0:
31,342,67549,6,0,P|106:348|180:333,1,120,2|0,0:0|0:0,0:0:0:0:
181,334,68017,2,0,P|235:307|269:272,1,80
412,156,68486,1,2,0:0:0:0:
288,144,68720,1,0,0:0:0:0:
218,257,68955,6,0,P|149:298|76:229,1,160,0|2,0:0|0:0,0:0:0:0:
279,321,69658,1,0,0:0:0:0:
305,338,69775,1,0,0:0:0:0:
336,344,69892,1,0,0:0:0:0:
367,337,70009,1,0,0:0:0:0:
394,319,70127,1,2,0:0:0:0:
408,290,70244,1,0,0:0:0:0:
409,258,70361,1,0,0:0:0:0:
299,97,70595,1,8,0:2:0:0:
86,142,70830,1,8,1:0:0:0:
86,142,71299,5,0,0:0:0:0:
109,176,71416,2,0,P|160:202|211:180,1,100
234,171,71767,1,0,0:0:0:0:
389,63,72002,5,2,0:0:0:0:
424,38,72119,1,0,0:0:0:0:
429,192,72353,1,0,0:0:0:0:
415,229,72470,1,2,0:0:0:0:
383,254,72588,1,0,0:0:0:0:
343,258,72705,1,0,0:0:0:0:
207,133,72939,1,0,0:0:0:0:
143,307,73174,5,0,0:0:0:0:
127,344,73291,1,2,0:0:0:0:
268,225,73525,1,0,0:0:0:0:
299,200,73642,1,0,0:0:0:0:
116,232,73877,1,0,0:0:0:0:
78,244,73994,1,2,0:0:0:0:
162,80,74228,5,0,0:0:0:0:
192,54,74345,1,2,0:0:0:0:
231,46,74462,1,0,0:0:0:0:
268,58,74579,1,0,0:0:0:0:
443,143,74814,1,2,0:0:0:0:
260,99,75049,5,2,0:0:0:0:
210,99,75166,1,0,0:0:0:0:
162,112,75283,2,0,L|94:146,1,50,2|0,0:0|0:0,0:0:0:0:
385,75,75517,5,0,0:0:0:0:
420,109,75634,1,0,0:0:0:0:
438,155,75752,2,0,L|445:209,1,50,2|0,0:0|0:0,0:0:0:0:
294,321,75986,5,2,0:0:0:0:
244,314,76103,1,0,0:0:0:0:
200,289,76220,1,2,0:0:0:0:
166,251,76338,1,0,0:0:0:0:
148,203,76455,6,0,B|117:76|228:-4|360:55,1,300,0|2,0:0|0:0,0:0:0:0:
370,66,77275,1,0,0:0:0:0:
404,102,77392,1,0,0:0:0:0:
415,150,77509,1,0,0:0:0:0:
406,199,77627,1,2,0:0:0:0:
377,239,77744,1,0,0:0:0:0:
332,263,77861,6,0,P|238:266|205:237,1,100,2|0,0:0|0:0,0:0:0:0:
217,104,78330,1,0,0:0:0:0:
286,276,78564,1,2,0:0:0:0:
415,150,78799,1,4,0:0:0:0:
258,60,79033,5,2,0:0:0:0:
218,51,79150,1,0,0:0:0:0:
178,54,79267,2,0,P|111:80|84:173,1,150,0|0,0:0|0:0,0:0:0:0:
78,188,79736,1,2,0:0:0:0:
86,226,79853,1,0,0:0:0:0:
103,261,79970,1,2,0:0:0:0:
126,293,80088,1,0,0:0:0:0:
155,319,80205,1,0,0:0:0:0:
322,286,80439,1,2,0:0:0:0:
168,214,80674,1,4,0:0:0:0:
256,68,80908,5,2,0:0:0:0:
294,54,81025,1,0,0:0:0:0:
334,54,81142,2,0,P|401:80|428:173,1,150,0|0,0:0|0:0,0:0:0:0:
434,188,81611,1,2,0:0:0:0:
426,226,81728,1,0,0:0:0:0:
409,261,81845,1,2,0:0:0:0:
386,293,81963,1,0,0:0:0:0:
357,319,82080,1,0,0:0:0:0:
180,265,82314,1,2,0:0:0:0:
88,104,82549,5,0,0:0:0:0:
113,70,82666,1,0,0:0:0:0:
152,56,82783,1,0,0:0:0:0:
262,223,83017,1,4,0:0:0:0:
424,104,83252,5,0,0:0:0:0:
400,69,83369,1,0,0:0:0:0:
360,56,83486,1,0,0:0:0:0:
250,223,83720,1,4,0:0:0:0:
88,104,83955,5,0,0:0:0:0:
113,70,84072,1,0,0:0:0:0:
152,56,84189,1,0,0:0:0:0:
353,56,84424,1,4,0:0:0:0:
153,55,84658,5,2,0:0:0:0:
115,69,84775,1,0,0:0:0:0:
90,100,84892,1,0,0:0:0:0:
80,138,85009,1,0,0:0:0:0:
90,176,85127,1,2,0:0:0:0:
113,208,85244,1,0,0:0:0:0:
149,224,85361,1,2,0:0:0:0:
293,109,85595,5,2,0:0:0:0:
114,62,85830,1,4,0:0:0:0:
186,233,86064,1,2,0:0:0:0:
186,233,86533,5,2,0:0:0:0:
206,198,86650,1,0,0:0:0:0:
224,162,86767,2,0,B|260:96|260:96|208:64|160:116,1,150,0|2,0:0|0:0,0:0:0:0:
156,112,87236,1,2,0:0:0:0:
132,144,87354,1,0,0:0:0:0:
132,183,87471,1,2,0:0:0:0:
156,214,87588,1,0,0:0:0:0:
193,227,87705,1,0,0:0:0:0:
432,262,87939,5,2,0:0:0:0:
376,117,88174,1,4,0:0:0:0:
227,253,88408,5,2,0:0:0:0:
184,266,88525,1,0,0:0:0:0:
152,235,88642,2,0,B|126:198|69:197|69:197|70:262,1,150,0|2,0:0|0:0,0:0:0:0:
76,293,89111,1,2,0:0:0:0:
102,323,89229,1,0,0:0:0:0:
141,325,89346,1,2,0:0:0:0:
173,302,89463,1,0,0:0:0:0:
184,263,89580,1,0,0:0:0:0:
197,300,89697,1,0,0:0:0:0:
228,324,89814,1,2,0:0:0:0:
267,323,89931,1,0,0:0:0:0:
300,301,90049,6,0,B|379:246|349:147|254:124|191:162|200:277|271:261|297:217,1,300
306,220,90869,1,0,0:0:0:0:
311,180,90986,1,2,0:0:0:0:
234,42,91220,1,2,0:0:0:0:
427,131,91455,1,4,0:0:0:0:
256,68,91924,5,2,0:0:0:0:
245,67,92041,1,0,0:0:0:0:
230,67,92158,1,2,0:0:0:0:
210,69,92275,1,0,0:0:0:0:
186,74,92392,1,0,0:0:0:0:
159,87,92509,1,0,0:0:0:0:
132,109,92627,1,2,0:0:0:0:
111,143,92744,1,0,0:0:0:0:
107,188,92861,1,2,0:0:0:0:
119,235,92978,1,0,0:0:0:0:
156,274,93095,1,2,0:0:0:0:
213,294,93213,1,0,0:0:0:0:
277,281,93330,1,0,0:0:0:0:
383,186,93564,1,2,0:0:0:0:
452,60,93799,6,0,P|404:48|344:64,1,100,4|0,0:0|0:0,0:0:0:0:
60,60,94267,2,0,P|108:48|168:64,1,100,8|0,0:0|0:0,0:0:0:0:
440,240,94736,2,0,P|403:206|342:192,1,100,0|0,0:0|0:0,0:0:0:0:
72,240,95205,2,0,P|108:206|169:192,1,100,8|8,0:0|0:0,0:0:0:0:
356,192,95674,5,0,0:0:0:0:
156,192,95908,1,0,0:0:0:0:
361,302,96142,2,0,L|440:240,1,100,8|0,0:0|0:0,0:0:0:0:
72,240,96611,2,0,L|160:312,1,100,0|0,0:0|0:0,0:0:0:0:
328,71,97080,6,0,L|285:169,1,100,8|8,0:0|0:0,0:0:0:0:
112,288,97549,1,2,0:0:0:0:
83,256,97666,1,0,0:0:0:0:
72,217,97783,1,2,0:0:0:0:
78,177,97900,1,0,0:0:0:0:
99,143,98017,1,10,0:0:0:0:
132,121,98134,1,0,0:0:0:0:
176,113,98252,1,2,0:0:0:0:
336,272,98486,5,0,0:0:0:0:
176,112,98720,1,0,0:0:0:0:
336,112,98955,1,8,0:0:0:0:
176,272,99189,1,12,0:0:0:0:
369,218,99424,2,0,P|408:171|409:118,1,100,0|0,0:0|0:0,0:0:0:0:
259,290,99892,5,8,0:0:0:0:
212,95,100127,1,2,0:0:0:0:
178,72,100244,1,0,0:0:0:0:
138,76,100361,1,2,0:0:0:0:
106,99,100478,1,0,0:0:0:0:
96,137,100595,1,2,0:0:0:0:
111,174,100713,1,0,0:0:0:0:
144,195,100830,1,10,0:0:0:0:
326,112,101064,1,8,0:0:0:0:
211,276,101299,1,4,0:0:0:0:
380,252,101533,1,0,0:0:0:0:
161,102,101767,5,8,0:0:0:0:
176,272,102002,1,0,0:0:0:0:
336,112,102236,1,0,0:0:0:0:
280,304,102470,5,0,0:0:0:0:
232,80,102705,1,8,0:0:0:0:
144,216,102939,1,8,0:0:0:0:
258,327,103174,1,0,0:0:0:0:
291,348,103291,1,0,0:0:0:0:
330,344,103408,2,0,P|371:307|368:250,1,100,0|8,0:0|0:0,0:0:0:0:
218,123,103877,1,0,0:0:0:0:
151,285,104111,1,0,0:0:0:0:
288,279,104345,1,0,0:0:0:0:
17,224,104580,1,8,0:0:0:0:
125,89,104814,2,0,P|179:60|239:59,1,100,8|2,0:0|0:0,0:0:0:0:
268,62,105166,5,0,0:0:0:0:
316,71,105283,1,2,0:0:0:0:
359,95,105400,1,0,0:0:0:0:
390,135,105517,1,10,0:0:0:0:
400,183,105634,1,0,0:0:0:0:
386,231,105752,1,2,0:0:0:0:
346,261,105869,1,0,0:0:0:0:
300,281,105986,1,2,0:0:0:0:
124,150,106220,5,0,0:0:0:0:
334,82,106455,1,10,0:0:0:0:
216,263,106689,1,12,0:0:0:0:
421,204,106924,1,0,0:0:0:0:
216,74,107158,1,0,0:0:0:0:
292,262,107392,1,10,0:0:0:0:
125,284,107627,1,4,0:0:0:0:
334,82,107861,1,0,0:0:0:0:
375,231,108095,6,0,B|334:333|203:363|116:275,1,300,2|4,0:0|0:0,0:0:0:0:
105,95,109033,1,0,0:0:0:0:
308,143,109267,1,8,0:0:0:0:
125,284,109502,1,0,0:0:0:0:
355,350,109736,1,0,0:0:0:0:
436,218,109970,1,2,0:0:0:0:
407,189,110088,1,0,0:0:0:0:
368,179,110205,1,10,0:0:0:0:
328,187,110322,1,0,0:0:0:0:
291,203,110439,2,0,L|239:230,1,50,10|0,0:0|0:0,0:0:0:0:
64,297,110674,5,2,0:0:0:0:
54,258,110791,1,0,0:0:0:0:
64,219,110908,2,0,L|87:157,1,50,2|0,0:0|0:0,0:0:0:0:
271,281,111142,5,10,0:0:0:0:
299,308,111259,1,0,0:0:0:0:
336,322,111377,2,0,L|405:333,1,50,2|0,0:0|0:0,0:0:0:0:
260,147,111611,5,2,0:0:0:0:
222,160,111728,1,0,0:0:0:0:
192,186,111845,1,2,0:0:0:0:
176,222,111963,1,0,0:0:0:0:
173,261,112080,1,8,0:0:0:0:
357,113,112314,5,12,0:0:0:0:
143,241,112549,5,2,0:0:0:0:
144,280,112666,1,0,0:0:0:0:
163,314,112783,1,2,0:0:0:0:
195,337,112900,1,0,0:0:0:0:
233,346,113017,1,10,0:0:0:0:
272,345,113134,1,0,0:0:0:0:
309,331,113251,1,2,0:0:0:0:
334,299,113369,1,0,0:0:0:0:
345,257,113486,1,2,0:0:0:0:
217,97,113720,5,0,0:0:0:0:
65,218,113955,1,8,0:0:0:0:
323,263,114189,1,8,0:0:0:0:
440,142,114424,1,0,0:0:0:0:
212,274,114658,1,0,0:0:0:0:
178,34,114892,1,8,0:0:0:0:
56,165,115127,5,2,0:0:0:0:
49,205,115244,1,0,0:0:0:0:
61,242,115361,1,2,0:0:0:0:
87,271,115478,1,0,0:0:0:0:
120,293,115595,1,2,0:0:0:0:
334,298,115830,1,8,0:0:0:0:
266,168,116064,1,8,0:0:0:0:
64,289,116299,1,4,0:0:0:0:
136,92,116533,1,8,0:0:0:0:
136,92,116767,6,0,L|36:92,1,100,0|8,0:0|0:0,0:0:0:0:
376,92,117236,2,0,L|476:92,1,100
165,215,117705,2,0,L|68:192,1,100,8|8,0:0|0:0,0:0:0:0:
346,215,118174,2,0,L|444:192,1,100
172,353,118642,6,0,L|88:300,1,100,8|0,0:0|0:0,0:0:0:0:
339,353,119111,2,0,L|424:300,1,100
172,353,119580,2,0,L|83:298,1,100,8|8,0:0|0:0,0:0:0:0:
132,100,120049,5,2,0:0:0:0:
168,84,120166,1,0,0:0:0:0:
205,96,120283,1,2,0:0:0:0:
218,133,120400,1,0,0:0:0:0:
198,167,120517,1,10,0:0:0:0:
188,205,120634,1,0,0:3:0:0:
212,236,120752,1,2,0:0:0:0:
251,237,120868,1,0,0:3:0:0:
281,211,120986,1,6,0:0:0:0:
167,83,121220,5,0,0:0:0:0:
281,211,121455,1,8,0:0:0:0:
82,190,121689,2,0,P|52:89|115:55,1,150,12|0,0:0|0:0,0:0:0:0:
113,56,122158,1,0,0:0:0:0:
396,38,122627,1,0,0:0:0:0:
352,340,123095,2,0,B|226:340|226:340|169:264|250:191,1,250
233,209,123799,6,0,P|261:147|231:71,1,150
218,60,124619,1,0,0:0:0:0:
201,49,124736,2,0,P|153:36|106:52,1,100
80,73,125283,2,0,L|60:89,1,16.6666666666667
78,115,125439,2,0,L|90:130,2,12.5
49,156,125674,1,0,0:0:0:0:
34,203,125791,6,0,P|47:245|82:274,1,75
78,269,126611,1,0,0:0:0:0:
87,269,127080,1,0,0:0:0:0:
96,270,127549,2,0,P|150:268|201:253,1,100
298,212,128486,2,0,P|339:177|370:133,1,100
145,140,129424,2,0,P|175:180|214:212,1,100
255,143,130361,2,0,L|255:43,1,100
256,192,136924,12,4,138330,0:0:0:0:
128,81,138799,5,0,0:0:0:0:
142,94,138916,1,0,0:0:0:0:
159,102,139033,1,2,0:0:0:0:
379,83,139267,1,0,0:0:0:0:
363,70,139384,1,0,0:0:0:0:
344,62,139501,1,2,0:0:0:0:
136,240,139736,5,0,0:0:0:0:
125,257,139853,1,0,0:0:0:0:
125,276,139970,1,2,0:0:0:0:
376,240,140205,1,0,0:0:0:0:
387,256,140322,1,0,0:0:0:0:
388,275,140439,1,2,0:0:0:0:
256,348,140674,5,2,0:0:0:0:
256,348,140791,1,0,0:0:0:0:
256,348,140908,1,0,0:0:0:0:
140,156,141142,1,2,0:0:0:0:
126,140,141259,1,0,0:0:0:0:
108,130,141377,1,0,0:0:0:0:
364,156,141611,5,0,0:0:0:0:
382,147,141729,1,0,0:0:0:0:
395,131,141846,1,2,0:0:0:0:
256,48,142080,1,2,0:0:0:0:
256,48,142197,1,0,0:0:0:0:
256,48,142314,1,0,0:0:0:0:
208,148,142549,6,0,L|164:184,2,50,0|0|2,0:0|0:0|0:0,0:0:0:0:
304,148,143017,2,0,L|348:184,2,50,0|0|2,0:0|0:0|0:0,0:0:0:0:
144,300,143486,6,0,L|100:336,2,50,0|0|2,0:0|0:0|0:0,0:0:0:0:
368,300,143955,2,0,L|412:336,2,50,0|0|2,0:0|0:0|0:0,0:0:0:0:
304,148,144424,5,2,0:0:0:0:
298,128,144541,1,0,0:0:0:0:
298,108,144658,1,0,0:0:0:0:
144,300,144892,1,2,0:0:0:0:
130,315,145009,1,0,0:0:0:0:
110,321,145127,1,0,0:0:0:0:
236,157,145361,5,2,0:0:0:0:
242,137,145478,1,0,0:0:0:0:
238,118,145595,1,0,0:0:0:0:
368,300,145829,1,2,0:0:0:0:
383,312,145946,1,0,0:0:0:0:
403,311,146064,1,0,0:0:0:0:
72,192,146299,5,0,0:0:0:0:
104,328,146533,2,0,L|168:252,1,100
440,192,147002,1,0,0:0:0:0:
408,328,147236,2,0,L|344:252,1,100,0|2,0:0|0:0,0:0:0:0:
120,99,147705,1,2,0:0:0:0:
256,72,147939,2,0,L|256:180,1,100,0|0,0:0|0:0,0:0:0:0:
90,316,148408,5,0,0:0:0:0:
215,126,148642,1,2,0:0:0:0:
77,211,148877,1,0,0:0:0:0:
315,290,149111,1,0,0:0:0:0:
196,290,149345,1,0,0:0:0:0:
434,211,149580,1,2,0:0:0:0:
297,127,149814,1,0,0:0:0:0:
422,315,150049,1,0,0:0:0:0:
422,315,150517,5,2,0:0:0:0:
327,270,150986,1,0,0:0:0:0:
257,191,151455,1,2,0:0:0:0:
292,56,151924,5,0,0:0:0:0:
298,64,152158,1,0,0:0:0:0:
158,179,152392,1,2,0:0:0:0:
151,186,152627,1,0,0:0:0:0:
384,264,152861,1,0,0:3:0:0:
393,269,153095,1,0,0:3:0:0:
88,336,153330,1,2,0:0:0:0:
79,339,153564,1,0,0:3:0:0:
246,175,153799,2,0,L|262:201,5,25
203,133,154502,6,0,L|176:125,5,25
254,119,155205,6,0,P|322:223|186:171,1,350
254,191,157080,5,4,0:0:0:0:
336,256,157549,6,0,P|392:264|432:236,1,100,0|0,0:0|0:0,0:0:0:0:
210,209,158017,2,0,P|177:252|188:307,1,100,8|0,0:0|0:0,0:0:0:0:
316,121,158486,2,0,P|279:76|215:68,1,100,0|0,0:0|0:0,0:0:0:0:
42,159,158955,2,0,P|67:204|133:233,1,100,8|8,0:0|0:0,0:0:0:0:
297,123,159424,5,0,0:0:0:0:
265,78,159541,1,0,0:0:0:0:
214,59,159658,1,0,0:0:0:0:
347,234,159892,1,8,0:0:0:0:
402,229,160009,1,0,0:0:0:0:
443,194,160126,1,0,0:0:0:0:
225,228,160361,5,0,0:0:0:0:
199,276,160478,1,0,0:0:0:0:
203,331,160595,1,0,0:0:0:0:
357,169,160830,1,8,0:0:0:0:
344,117,160947,1,0,0:0:0:0:
301,80,161064,1,8,0:0:0:0:
191,201,161299,5,2,0:0:0:0:
219,242,161417,1,0,0:0:0:0:
268,248,161534,1,2,0:0:0:0:
307,216,161651,1,0,0:0:0:0:
307,166,161767,1,10,0:0:0:0:
268,135,161885,1,0,0:0:0:0:
220,146,162002,1,2,0:0:0:0:
136,320,162236,5,0,0:0:0:0:
384,224,162470,1,0,0:0:0:0:
132,96,162705,1,8,0:0:0:0:
280,280,162939,1,8,0:0:0:0:
432,112,163174,1,0,0:0:0:0:
240,120,163408,6,0,B|196:156|196:215|196:215|304:168,1,200,0|2,0:0|0:0,0:0:0:0:
324,159,163994,1,0,0:0:0:0:
373,161,164111,1,2,0:0:0:0:
415,187,164228,1,0,0:0:0:0:
437,230,164345,1,2,0:0:0:0:
421,277,164463,1,0,0:0:0:0:
384,311,164580,1,8,0:0:0:0:
184,312,164814,1,8,0:0:0:0:
69,175,165049,1,4,0:0:0:0:
218,72,165283,6,0,P|270:54|340:81,1,100,0|8,0:0|0:0,0:0:0:0:
70,215,165752,1,0,0:0:0:0:
218,72,165986,1,0,0:0:0:0:
274,245,166220,2,0,P|258:292|177:320,1,100,0|8,0:0|0:0,0:0:0:0:
70,215,166689,2,0,P|85:158|125:132,1,100,8|0,0:0|0:0,0:0:0:0:
154,123,167041,1,0,0:0:0:0:
195,132,167158,1,0,0:0:0:0:
301,301,167392,5,8,0:0:0:0:
419,124,167627,1,0,0:0:0:0:
174,222,167861,1,0,0:0:0:0:
381,71,168095,1,0,0:0:0:0:
191,64,168330,1,8,0:0:0:0:
227,271,168564,2,0,P|280:299|328:304,1,100,8|2,0:0|0:0,0:0:0:0:
360,303,168916,5,0,0:0:0:0:
400,298,169033,1,2,0:0:0:0:
436,282,169150,1,0,0:0:0:0:
467,256,169267,1,10,0:0:0:0:
489,223,169384,1,0,0:0:0:0:
495,183,169502,1,2,0:0:0:0:
486,144,169619,1,0,0:0:0:0:
458,114,169736,1,2,0:0:0:0:
267,40,169970,5,0,0:0:0:0:
159,209,170205,1,8,0:0:0:0:
319,89,170439,1,8,0:0:0:0:
128,151,170674,1,0,0:0:0:0:
329,154,170909,1,0,0:0:0:0:
141,87,171143,1,8,0:0:0:0:
297,211,171377,6,0,P|297:309|173:309,1,200
203,140,172080,1,8,0:0:0:0:
434,208,172314,1,8,0:0:0:0:
263,285,172549,6,0,B|183:320|132:215|202:172|202:172|104:208|46:292|46:292|42:227|53:171,1,500,4|2,0:0|0:0,0:0:0:0:
52,170,173837,1,0,0:0:0:0:
56,150,173955,1,10,0:0:0:0:
63,131,174072,1,0,0:0:0:0:
76,116,174189,1,10,0:0:0:0:
90,102,174306,1,0,0:0:0:0:
197,71,174424,5,2,0:0:0:0:
226,76,174541,1,0,0:0:0:0:
251,92,174658,1,2,0:0:0:0:
269,115,174775,1,0,0:0:0:0:
275,213,174892,5,0,0:0:0:0:
247,183,175009,1,2,0:0:0:0:
211,165,175126,1,0,0:0:0:0:
171,162,175243,1,2,0:0:0:0:
60,174,175361,5,2,0:0:0:0:
60,213,175478,1,0,0:0:0:0:
80,247,175595,1,2,0:0:0:0:
115,265,175712,1,0,0:0:0:0:
154,272,175830,1,10,0:0:0:0:
330,247,176064,5,10,0:0:0:0:
139,293,176299,1,4,0:0:0:0:
105,271,176416,1,0,0:0:0:0:
100,231,176533,1,2,0:0:0:0:
125,200,176650,1,0,0:0:0:0:
158,177,176767,1,10,0:0:0:0:
188,150,176884,1,0,0:0:0:0:
209,115,177002,1,2,0:0:0:0:
201,75,177119,1,0,0:0:0:0:
166,54,177236,1,0,0:0:0:0:
52,181,177470,5,0,0:0:0:0:
161,284,177705,1,8,0:0:0:0:
262,83,177939,1,8,0:0:0:0:
216,181,178174,1,4,0:0:0:0:
399,175,178408,1,0,0:0:0:0:
333,327,178642,1,8,0:0:0:0:
234,191,178877,5,2,0:0:0:0:
206,161,178994,1,0,0:0:0:0:
166,152,179111,1,2,0:0:0:0:
130,169,179228,1,0,0:0:0:0:
112,205,179345,1,2,0:0:0:0:
122,243,179463,1,0,0:0:0:0:
153,267,179580,1,10,0:0:0:0:
302,267,179814,1,10,0:0:0:0:
225,137,180049,1,4,0:0:0:0:
153,268,180283,5,0,0:0:0:0:
320,204,180517,1,8,0:0:0:0:
132,208,180752,1,0,0:0:0:0:
304,268,180986,1,0,0:0:0:0:
224,136,181220,5,0,0:0:0:0:
224,304,181455,1,8,0:0:0:0:
332,176,181689,1,8,0:0:0:0:
195,81,181924,1,2,0:0:0:0:
155,75,182041,1,0,0:0:0:0:
136,110,182158,1,2,0:0:0:0:
176,272,182392,1,8,0:0:0:0:
332,176,182627,1,0,0:0:0:0:
176,72,182861,5,2,0:0:0:0:
139,87,182978,1,0,0:0:0:0:
108,109,183095,1,2,0:0:0:0:
83,140,183212,1,0,0:0:0:0:
68,177,183329,1,10,0:0:0:0:
64,217,183447,1,0,0:0:0:0:
76,255,183564,1,10,0:0:0:0:
102,284,183681,1,0,0:0:0:0:
132,304,183799,6,0,L|216:344,1,50,2|0,0:0|0:0,0:0:0:0:
352,264,184033,2,0,L|380:220,1,50,2|0,0:0|0:0,0:0:0:0:
216,156,184267,2,0,L|189:202,1,50,10|0,0:0|0:0,0:0:0:0:
256,336,184502,2,0,L|328:336,1,50,2|0,0:0|0:0,0:0:0:0:
352,96,184736,5,6,0:0:0:0:
180,164,184970,1,0,0:0:0:0:
276,284,185205,1,8,0:0:0:0:
292,56,185439,1,12,0:0:0:0:
92,208,185908,5,0,0:0:0:0:
372,132,186377,1,0,0:0:0:0:
272,320,186845,1,0,0:0:0:0:
256,192,187549,12,4,189892,0:0:0:0:
