osu file format v14

[General]
AudioFilename: audio.mp3
AudioLeadIn: 0
PreviewTime: 53794
Countdown: 0
SampleSet: Normal
StackLeniency: 0.2
Mode: 0
LetterboxInBreaks: 0
WidescreenStoryboard: 0

[Editor]
Bookmarks: 3900,19057,34215,44321,54426,74636,79689,89794,104952,115057,125163,145373,165584,178215,198426,218636
DistanceSpacing: 1.8
BeatDivisor: 4
GridSize: 8
TimelineZoom: 1.5

[Metadata]
Title:Artemis
TitleUnicode:Artemis
Artist:Lindsey Stirling
ArtistUnicode:Lindsey Stirling
Creator:SIDLESS
Version:Goddess
Source:
Tags:
BeatmapID:2168443
BeatmapSetID:1037194

[Difficulty]
HPDrainRate:5
CircleSize:4
OverallDifficulty:8
ApproachRate:9
SliderMultiplier:1.5
SliderTickRate:1

[Events]
//Background and Video events
0,0,"bg.jpg",0,0
//Break Periods
2,145573,164984
//Storyboard Layer 0 (Background)
//Storyboard Layer 1 (Fail)
//Storyboard Layer 2 (Pass)
//Storyboard Layer 3 (Foreground)
//Storyboard Layer 4 (Overlay)
//Storyboard Sound Samples

[TimingPoints]
3900,631.578947368421,4,2,0,100,1,0
3900,-200,4,2,1,50,0,0
19057,-133.333333333333,4,2,0,60,0,0
34215,-100,4,3,1,70,0,0
44321,-80,4,3,2,75,0,0
49373,-80,4,3,2,80,0,0
51900,-80,4,3,2,85,0,0
53794,-50,4,3,3,90,0,0
54110,-50,4,3,3,5,0,0
54426,-66.6666666666667,4,1,1,100,0,1
56952,-57.1428571428571,4,1,1,100,0,1
59478,-50,4,1,1,100,0,1
64531,-66.6666666666667,4,1,1,100,0,1
67057,-57.1428571428571,4,1,1,100,0,1
69584,-80,4,1,1,100,0,1
72110,-57.1428571428571,4,1,1,100,0,1
74636,-200,4,2,0,50,0,0
79057,-200,4,2,1,100,0,0
79689,-133.333333333333,4,1,1,70,0,0
89163,-133.333333333333,4,1,2,70,0,0
89321,-133.333333333333,4,1,1,70,0,0
89794,-100,4,1,1,80,0,0
104952,-80,4,3,1,70,0,0
115057,-66.6666666666667,4,3,2,75,0,0
120110,-66.6666666666667,4,3,2,80,0,0
122636,-66.6666666666667,4,3,2,90,0,0
124531,-44.4444444444445,4,3,3,90,0,0
124847,-44.4444444444445,4,3,3,5,0,0
125163,-57.1428571428571,4,1,1,100,0,1
127689,-50,4,1,1,100,0,1
130215,-44.4444444444445,4,1,1,100,0,1
135268,-57.1428571428571,4,1,1,100,0,1
137794,-50,4,1,1,100,0,1
140321,-66.6666666666667,4,1,1,100,0,1
142847,-50,4,1,1,100,0,1
145373,-1000,4,2,0,100,0,0
165584,-57.1428571428571,4,3,2,70,0,0
170636,-57.1428571428571,4,3,2,80,0,0
173163,-57.1428571428571,4,3,2,90,0,0
175057,-33.3333333333333,4,3,2,5,0,0
175689,-33.3333333333333,4,1,0,100,0,0
176952,-33.3333333333333,4,1,0,5,0,0
178215,-50,4,1,1,100,0,1
180742,-44.4444444444445,4,1,1,100,0,1
183268,-40,4,1,1,100,0,1
188321,-50,4,1,1,100,0,1
190847,-44.4444444444445,4,1,1,100,0,1
193373,-57.1428571428571,4,1,1,100,0,1
195899,-44.4444444444445,4,1,1,75,0,0
197163,-100,4,1,1,75,0,0
197321,-100,4,1,1,25,0,0
197478,-100,4,1,1,75,0,0
197636,-100,4,1,1,25,0,0
197794,-100,4,1,1,75,0,0
197952,-100,4,1,1,25,0,0
198110,-100,4,1,1,75,0,0
198268,-100,4,1,1,25,0,0
198426,-44.4444444444445,4,1,1,100,0,1
200952,-40,4,1,1,100,0,1
203478,-36.3636363636364,4,1,1,100,0,1
208531,-44.4444444444445,4,1,1,100,0,1
211057,-40,4,1,1,100,0,1
213584,-50,4,1,1,100,0,1
216110,-40,4,1,1,100,0,1
217531,-40,4,1,1,25,0,1
217689,-40,4,1,1,100,0,1
217847,-40,4,1,1,25,0,1
218005,-40,4,1,1,100,0,1
218163,-40,4,1,1,25,0,1
218321,-40,4,1,1,100,0,1
218478,-40,4,1,1,25,0,1
218636,-250,4,2,0,25,0,0

[Colours]
Combo1 : 128,0,64
Combo2 : 128,128,128
Combo3 : 192,192,192
Combo4 : 0,255,128
Combo5 : 0,255,255
Combo6 : 0,128,64
Combo7 : 0,128,128
Combo8 : 128,0,128

[HitObjects]
155,191,3900,6,0,P|202:227|263:224,1,112.5,4|0,0:0|0:0,0:0:0:0:
350,132,5163,2,0,B|326:194|326:194|336:240,1,112.5
342,266,6268,1,0,0:0:0:0:
350,292,6426,2,0,B|333:314|301:303|301:303|281:339|311:371|351:380|389:369|417:337,1,225
468,264,8952,5,0,0:0:0:0:
261,88,10215,2,0,L|264:140,1,37.5
265,153,10689,1,0,0:0:0:0:
259,180,10847,2,0,P|240:203|218:202,1,37.5
205,207,11321,1,0,0:0:0:0:
177,204,11478,2,0,B|142:194|142:194|126:222|136:259|168:275,1,131.25
193,286,12742,2,0,L|141:278,1,37.5
130,292,13215,1,0,0:0:0:0:
124,264,13373,2,0,B|115:244|115:244|117:225,1,37.5
122,201,13847,1,0,0:0:0:0:
131,174,14005,102,0,B|144:157|142:139|128:130|115:137|109:153|118:165|136:178|166:182|196:176,1,131.25
217,171,15268,2,0,P|217:194|222:209,1,37.5
323,228,15900,2,0,P|323:205|318:190,1,37.5
280,104,16531,2,0,B|310:95|310:95|346:101,1,56.25
406,106,17163,2,0,B|398:136|398:136|375:164,1,56.25
343,214,17794,2,0,B|320:192|320:192|307:158,1,56.25
287,98,18426,1,0,0:0:0:0:
377,118,18584,1,0,0:0:0:0:
410,202,18742,1,0,0:0:0:0:
341,259,18900,1,0,0:0:0:0:
216,305,19057,54,0,P|247:318|273:312,1,56.2500021457673
243,226,19531,1,0,0:0:0:0:
136,263,19689,1,0,0:0:0:0:
153,121,20005,2,0,L|156:161,1,28.1250010728836
161,222,20321,2,0,L|167:279,2,56.2500021457673
303,91,21268,1,0,0:0:0:0:
303,91,21426,1,0,0:0:0:0:
303,91,21584,2,0,P|297:124|309:157,1,56.2500021457673
384,127,22215,2,0,P|397:158|391:187,1,56.2500021457673
326,251,22847,2,0,P|355:267|382:262,1,56.2500021457673
446,222,23321,1,0,0:0:0:0:
369,180,23478,2,0,P|324:160|296:167,1,56.2500021457673
161,222,24110,5,0,0:0:0:0:
161,222,25373,2,0,L|223:232,1,56.2500021457673
291,212,25847,1,0,0:0:0:0:
282,134,26005,2,0,P|267:105|232:93,1,56.2500021457673
174,100,26478,1,0,0:0:0:0:
107,143,26636,2,0,P|153:173|208:167,1,112.500004291535
282,121,27584,1,0,0:0:0:0:
282,121,27900,2,0,P|249:141|220:139,1,56.2500021457673
161,133,28373,1,0,0:0:0:0:
186,203,28531,2,0,P|216:215|247:216,1,56.2500021457673
312,205,29005,1,0,0:0:0:0:
147,266,29163,102,0,P|126:246|112:222,2,56.2500021457673
210,319,30110,1,0,0:0:0:0:
286,282,30426,2,0,B|318:273|318:273|346:279,1,56.2500021457673
419,305,31057,2,0,B|454:319|454:319|488:311,1,56.2500021457673
451,218,31689,2,0,P|512:180|393:105,1,281.250010728836
316,191,33426,1,0,0:0:0:0:
205,227,33584,1,0,0:0:0:0:
274,133,33742,1,0,0:0:0:0:
274,249,33900,1,0,0:0:0:0:
205,155,34057,1,0,0:0:0:0:
397,252,34215,21,4,0:0:0:0:
397,252,34373,1,0,0:0:0:0:
397,252,34531,1,0,0:0:0:0:
397,252,34689,2,0,P|411:227|412:194,1,37.5,0|4,0:0|0:0,0:0:0:0:
351,103,35163,1,0,0:0:0:0:
351,103,35321,1,0,0:0:0:0:
351,103,35479,2,0,P|337:128|336:161,1,37.5,4|0,0:0|0:0,0:0:0:0:
202,184,35952,1,0,0:0:0:0:
202,184,36110,2,0,L|248:179,1,37.5,4|0,0:0|0:0,0:0:0:0:
298,249,36426,2,0,L|260:253,1,37.5
112,282,36742,5,4,0:0:0:0:
112,282,36900,1,0,0:0:0:0:
112,282,37057,1,0,0:0:0:0:
112,282,37215,2,0,B|120:309|120:309|115:331,1,37.5,0|4,0:0|0:0,0:0:0:0:
153,171,37689,1,0,0:0:0:0:
153,171,37846,1,0,0:0:0:0:
153,171,38004,2,0,B|145:144|145:144|150:122,1,37.5,4|0,0:0|0:0,0:0:0:0:
245,52,38478,1,0,0:0:0:0:
234,178,38636,1,4,0:0:0:0:
340,122,38794,1,0,0:0:0:0:
316,222,38952,1,0,0:0:0:0:
402,203,39110,1,0,0:0:0:0:
425,331,39268,101,4,0:0:0:0:
425,331,39426,1,0,0:0:0:0:
425,331,39584,1,0,0:0:0:0:
425,331,39742,2,0,L|375:324,1,37.5,0|4,0:0|0:0,0:0:0:0:
222,296,40215,1,0,0:0:0:0:
222,296,40373,1,0,0:0:0:0:
222,296,40531,2,0,L|272:303,1,37.5,4|0,0:0|0:0,0:0:0:0:
156,140,41005,1,0,0:0:0:0:
156,140,41163,2,0,P|131:142|106:133,1,37.5,4|0,0:0|0:0,0:0:0:0:
213,78,41478,2,0,P|238:76|263:85,1,37.5
238,237,41794,5,4,0:0:0:0:
238,237,41952,1,0,0:0:0:0:
238,237,42110,1,0,0:0:0:0:
238,237,42268,2,0,B|232:217|232:217|237:192,1,37.5,0|4,0:0|0:0,0:0:0:0:
255,61,42742,1,0,0:0:0:0:
255,61,42900,1,0,0:0:0:0:
186,135,43057,1,4,0:0:0:0:
320,121,43215,1,0,0:0:0:0:
241,194,43373,1,0,0:0:0:0:
348,201,43531,1,0,0:0:0:0:
170,220,43689,1,4,0:0:0:0:
294,270,43847,1,0,0:0:0:0:
203,323,44005,2,0,L|207:345,3,18.75
203,323,44321,102,0,P|179:321|155:308,1,46.875,12|0,0:0|0:0,0:0:0:0:
208,231,44636,2,0,P|188:217|161:211,1,46.875,8|0,0:0|0:0,0:0:0:0:
85,256,44952,2,0,P|67:239|57:213,1,46.875,12|0,0:0|0:0,0:0:0:0:
147,188,45267,2,0,P|140:164|123:143,1,46.875,8|0,0:0|0:0,0:0:0:0:
64,72,45584,2,0,P|94:64|120:67,1,46.875,12|0,0:0|0:0,0:0:0:0:
164,138,45900,2,0,P|191:146|217:142,1,46.875,8|0,0:0|0:0,0:0:0:0:
243,51,46215,2,0,P|273:53|297:65,1,46.875,12|0,0:0|0:0,0:0:0:0:
314,147,46531,2,0,P|336:163|362:168,1,46.875,8|0,0:0|0:0,0:0:0:0:
225,188,46847,6,0,L|231:261,1,46.875,12|0,0:0|0:0,0:0:0:0:
270,345,47163,2,0,L|266:298,1,46.875,8|0,0:0|0:0,0:0:0:0:
361,225,47478,2,0,L|311:232,1,46.875,12|0,0:0|0:0,0:0:0:0:
203,276,47794,2,0,L|249:269,1,46.875,8|0,0:0|0:0,0:0:0:0:
208,185,48110,2,0,P|237:167|244:138,1,46.875,12|0,0:0|0:0,0:0:0:0:
351,129,48426,2,0,P|316:122|304:92,1,46.875,8|0,0:0|0:0,0:0:0:0:
219,63,48742,2,0,P|205:40|174:32,1,46.875,12|0,0:0|0:0,0:0:0:0:
298,38,49057,2,0,P|309:16|335:4,1,46.875,8|0,0:0|0:0,0:0:0:0:
165,149,49373,101,12,0:0:0:0:
165,149,49531,1,8,0:0:0:0:
298,101,49689,1,12,0:0:0:0:
298,101,49847,1,8,0:0:0:0:
346,234,50005,1,12,0:0:0:0:
346,234,50163,1,8,0:0:0:0:
213,282,50321,1,12,0:0:0:0:
213,282,50478,1,8,0:0:0:0:
253,148,50636,5,12,0:0:0:0:
355,176,50794,1,8,0:0:0:0:
263,232,50952,101,12,0:0:0:0:
349,293,51110,1,8,0:0:0:0:
201,197,51268,5,12,0:0:0:0:
99,225,51426,1,8,0:0:0:0:
191,281,51584,101,12,0:0:0:0:
105,342,51742,1,8,0:0:0:0:
150,227,51900,6,0,L|126:232,3,23.4375,12|8|12|8,0:0|0:0|0:0|0:0,0:0:0:0:
201,197,52215,2,0,L|225:202,3,23.4375,12|8|12|8,0:0|0:0|0:0|0:0,0:0:0:0:
306,116,52531,102,0,L|314:137,1,23.4375,12|8,0:0|0:0,0:0:0:0:
368,171,52689,2,0,L|360:192,1,23.4375,12|8,0:0|0:0,0:0:0:0:
300,216,52847,2,0,L|308:237,1,23.4375,12|8,0:0|0:0,0:0:0:0:
362,271,53005,2,0,L|354:292,1,23.4375,12|8,0:0|0:0,0:0:0:0:
300,331,53163,5,12,0:0:0:0:
277,337,53241,1,8,0:0:0:0:
254,339,53320,1,12,0:0:0:0:
231,337,53399,1,8,0:0:0:0:
208,330,53478,1,12,0:0:0:0:
188,319,53557,1,8,0:0:0:0:
170,304,53636,1,12,0:0:0:0:
155,286,53715,1,8,0:0:0:0:
141,266,53794,102,0,B|123:232|100:212|71:202|46:199|24:220|34:245,1,150,2|0,0:0|0:0,0:0:0:0:
297,145,54426,53,4,0:0:0:0:
297,145,54584,1,0,0:0:0:0:
297,145,54742,1,0,0:0:0:0:
297,145,54900,1,0,0:0:0:0:
297,145,55057,2,0,P|384:160|473:205,1,168.750006437302,8|0,0:0|0:0,0:0:0:0:
351,43,55689,2,0,P|264:58|175:103,1,168.750006437302,4|0,0:0|0:0,0:0:0:0:
116,156,56321,1,8,0:0:0:0:
256,138,56478,1,0,0:0:0:0:
82,123,56636,1,0,0:0:0:0:
289,170,56793,1,0,0:0:0:0:
65,310,56952,6,0,P|104:259|167:245,1,131.250001251698,4|0,0:0|0:0,0:0:0:0:
353,227,57426,1,0,0:0:0:0:
322,305,57584,2,0,L|296:367,1,65.6250006258488,8|0,0:0|0:0,0:0:0:0:
307,160,57900,2,0,L|267:109,1,65.6250006258488
428,215,58215,2,0,L|493:207,1,65.6250006258488,4|0,0:0|0:0,0:0:0:0:
380,113,58531,1,0,0:0:0:0:
247,229,58689,1,0,0:0:0:0:
167,69,58847,2,0,B|202:67|202:67|236:90,1,65.6250006258488,8|0,0:0|0:0,0:0:0:0:
98,172,59163,1,0,0:0:0:0:
298,122,59321,1,0,0:0:0:0:
232,291,59478,102,0,P|201:233|205:147,1,150,4|0,0:0|0:0,0:0:0:0:
287,172,59952,1,0,0:0:0:0:
125,98,60110,1,8,0:0:0:0:
224,58,60268,2,0,B|143:68|143:68|93:75|86:37,1,150
67,160,60742,2,0,L|76:265,1,75,4|0,0:0|0:0,0:0:0:0:
211,289,61057,2,0,L|204:214,1,75
299,126,61373,2,0,L|292:51,2,75,8|0|0,0:0|0:0|0:0,0:0:0:0:
405,145,62005,6,0,B|288:156|288:156|299:125,1,150,4|0,0:0|0:0,0:0:0:0:
329,38,62478,1,0,0:0:0:0:
303,232,62636,2,0,P|290:273|298:313,1,75,8|0,0:0|0:0,0:0:0:0:
474,246,62952,2,0,P|487:205|479:165,1,75
334,147,63268,2,0,P|322:74|255:46,1,150,4|0,0:0|0:0,0:0:0:0:
225,150,63742,1,0,0:0:0:0:
117,155,63900,2,0,P|128:227|195:255,1,150,8|0,0:0|0:0,0:0:0:0:
256,192,64531,101,4,0:0:0:0:
256,192,64689,1,0,0:0:0:0:
256,192,64847,1,0,0:0:0:0:
256,192,65005,1,0,0:0:0:0:
256,192,65163,2,0,B|231:196|212:217|212:217|166:161|191:94,1,168.750006437302,8|0,0:0|0:0,0:0:0:0:
256,192,65794,2,0,B|281:196|300:217|300:217|346:161|321:94,1,168.750006437302,4|0,0:0|0:0,0:0:0:0:
183,35,66426,1,8,0:0:0:0:
71,107,66584,1,0,0:0:0:0:
229,129,66742,1,0,0:0:0:0:
172,247,66900,1,0,0:0:0:0:
355,213,67057,6,0,P|379:277|365:341,1,131.250001251698,4|0,0:0|0:0,0:0:0:0:
283,353,67531,1,0,0:0:0:0:
458,276,67689,2,0,P|456:240|443:209,1,65.6250006258488,8|0,0:0|0:0,0:0:0:0:
291,158,68005,2,0,P|322:175|356:178,1,65.6250006258488
477,79,68321,2,0,P|446:97|426:125,1,65.6250006258488,4|0,0:0|0:0,0:0:0:0:
362,256,68636,1,0,0:0:0:0:
299,107,68794,1,0,0:0:0:0:
135,184,68952,2,0,L|201:192,1,65.6250006258488,8|0,0:0|0:0,0:0:0:0:
36,74,69268,2,0,L|102:66,1,65.6250006258488
302,72,69584,102,0,B|261:98|261:98|239:86|238:126,1,93.75,4|0,0:0|0:0,0:0:0:0:
239,245,70057,1,0,0:0:0:0:
239,245,70215,1,8,0:0:0:0:
239,245,70373,2,0,P|221:292|225:343,1,93.75
399,198,70847,2,0,B|365:205|365:205|337:195,1,46.875,4|0,0:0|0:0,0:0:0:0:
282,78,71163,2,0,B|316:71|316:71|344:81,1,46.875
137,132,71478,2,0,P|167:122|213:131,1,46.875,8|0,0:0|0:0,0:0:0:0:
197,263,71794,2,0,P|167:273|121:264,1,46.875
116,63,72110,6,0,B|82:146|82:146|101:187,1,131.250001251698,4|0,0:0|0:0,0:0:0:0:
160,264,72584,1,0,0:0:0:0:
243,315,72742,1,8,0:0:0:0:
289,236,72900,1,0,0:0:0:0:
289,236,73215,1,0,0:0:0:0:
289,236,73373,2,0,L|256:174,1,65.6250006258488
155,5,73689,2,0,L|185:62,1,65.6250006258488
106,187,74005,2,0,L|168:154,1,65.6250006258488
337,53,74321,2,0,L|279:84,1,65.6250006258488
218,122,74636,70,0,P|175:139|199:191,1,112.5
276,221,75900,2,0,P|311:233|341:297,1,112.5
343,372,77005,1,0,0:0:0:0:
272,334,77163,2,0,B|230:315|213:247|280:279|280:232|259:197,1,150
220,124,78584,2,0,L|231:146,1,18.75
188,205,78900,1,0,0:0:0:0:
72,59,79057,1,8,0:0:0:0:
335,95,79689,54,0,L|331:144,1,28.1250010728836,4|0,0:0|0:0,0:0:0:0:
449,175,80005,2,0,L|445:224,1,28.1250010728836
336,286,80321,2,0,L|338:257,1,28.1250010728836,8|0,0:0|0:0,0:0:0:0:
227,190,80636,2,0,L|229:161,1,28.1250010728836
167,69,80952,2,0,P|141:93|132:127,1,56.2500021457673,4|0,0:0|0:0,0:0:0:0:
122,196,81426,1,0,0:0:0:0:
206,288,81584,2,0,P|181:305|149:305,1,56.2500021457673,8|0,0:0|0:0,0:0:0:0:
76,276,82057,1,0,0:0:0:0:
220,205,82215,6,0,B|253:215|253:215|286:194|289:146,1,112.500004291535,4|8,0:0|0:0,0:0:0:0:
306,52,83163,1,0,0:0:0:0:
408,88,83478,2,0,P|414:109|407:134,1,28.1250010728836,4|0,0:0|0:0,0:0:0:0:
485,163,83794,2,0,P|483:184|468:205,1,28.1250010728836
347,213,84110,2,0,P|341:234|347:259,1,28.1250010728836,8|0,0:0|0:0,0:0:0:0:
410,292,84426,2,0,P|411:313|426:334,1,28.1250010728836
231,258,84742,102,0,B|186:264|186:264|152:252|152:252|114:258,2,112.500004291535,4|8|4,0:0|0:0|0:0,0:0:0:0:
198,184,86321,2,0,B|160:169|160:169|129:172,1,56.2500021457673,0|8,0:0|0:0,0:0:0:0:
54,181,86952,1,0,0:0:0:0:
105,87,87268,6,0,P|155:65|206:63,1,84.3750032186509,4|0,0:0|0:0,0:0:0:0:
243,0,87900,2,0,P|293:19|331:54,1,84.3750032186509,4|0,0:0|0:0,0:0:0:0:
399,20,88531,2,0,P|420:69|423:121,1,84.3750032186509,4|0,0:0|0:0,0:0:0:0:
430,238,89163,1,8,0:0:0:0:
262,252,89321,1,0,0:0:0:0:
367,121,89478,1,0,0:0:0:0:
204,76,89636,1,0,0:0:0:0:
146,172,89794,102,0,L|93:176,1,37.5,4|0,0:0|0:0,0:0:0:0:
250,254,90110,2,0,L|287:251,1,37.5
105,307,90426,2,0,L|142:304,1,37.5,8|0,0:0|0:0,0:0:0:0:
296,168,90742,2,0,L|258:170,1,37.5
302,60,91057,2,0,L|339:57,1,37.5,4|0,0:0|0:0,0:0:0:0:
188,72,91373,2,0,L|150:74,1,37.5
75,180,91689,2,0,L|176:174,1,75,8|0,0:0|0:0,0:0:0:0:
254,112,92163,1,0,0:0:0:0:
371,179,92321,6,0,P|341:209|298:221,1,75,4|0,0:0|0:0,0:0:0:0:
148,248,92952,2,0,P|176:280|219:294,1,75,8|0,0:0|0:0,0:0:0:0:
292,171,93584,2,0,P|312:209|312:252,1,75,4|0,0:0|0:0,0:0:0:0:
305,325,94057,1,0,0:0:0:0:
230,292,94215,2,0,P|198:267|178:215,1,75,8|0,0:0|0:0,0:0:0:0:
281,162,94847,101,4,0:0:0:0:
281,162,95005,1,0,0:0:0:0:
251,53,95163,1,0,0:0:0:0:
251,53,95321,1,0,0:0:0:0:
360,24,95478,1,8,0:0:0:0:
360,24,95636,1,0,0:0:0:0:
389,132,95794,1,0,0:0:0:0:
389,132,95952,1,0,0:0:0:0:
346,237,96110,2,0,P|336:277|349:323,1,75,4|0,0:0|0:0,0:0:0:0:
272,352,96584,1,0,0:0:0:0:
211,216,96742,2,0,P|228:256|221:295,1,75,8|0,0:0|0:0,0:0:0:0:
289,192,97215,1,0,0:0:0:0:
375,85,97373,6,0,B|315:85|315:85|244:66,1,112.5,4|0,0:0|0:0,0:0:0:0:
187,46,98005,2,0,B|149:34|149:34|109:38,1,75,8|0,0:0|0:0,0:0:0:0:
62,138,98636,2,0,L|120:152,1,37.5,4|0,0:0|0:0,0:0:0:0:
75,247,98952,2,0,L|133:261,1,37.5
283,163,99268,2,0,L|225:177,1,37.5,8|0,0:0|0:0,0:0:0:0:
250,274,99584,2,0,L|192:288,1,37.5
353,268,99900,102,0,B|397:273|397:273|409:315,1,75,4|0,0:0|0:0,0:0:0:0:
475,229,100373,1,0,0:0:0:0:
418,108,100531,2,0,P|404:83|380:66,1,37.5,8|0,0:0|0:0,0:0:0:0:
325,156,100847,2,0,P|301:138|291:122,1,37.5
160,104,101163,2,0,B|161:156|161:156|161:172|142:172,1,75,4|0,0:0|0:0,0:0:0:0:
82,50,101794,2,0,B|82:119|82:119|92:135,1,75,8|0,0:0|0:0,0:0:0:0:
116,227,102426,5,4,0:0:0:0:
263,190,102742,1,0,0:0:0:0:
263,190,102821,1,0,0:0:0:0:
263,190,102900,1,0,0:0:0:0:
244,269,103057,1,8,0:0:0:0:
294,112,103215,1,0,0:0:0:0:
331,249,103373,1,0,0:0:0:0:
429,133,103531,1,0,0:0:0:0:
493,309,103689,1,0,0:0:0:0:
415,335,104005,101,0,0:0:0:0:
415,335,104084,1,0,0:0:0:0:
415,335,104163,1,0,0:0:0:0:
415,335,104242,1,0,0:0:0:0:
415,335,104321,2,0,L|369:327,1,37.5
263,331,104636,2,0,L|215:337,1,37.5
136,229,104952,21,4,0:0:0:0:
136,229,105110,1,0,0:0:0:0:
136,229,105268,1,0,0:0:0:0:
136,229,105426,2,0,L|132:178,1,46.875,0|4,0:0|0:0,0:0:0:0:
191,38,105900,1,0,0:0:0:0:
191,38,106057,1,0,0:0:0:0:
191,38,106215,2,0,L|194:84,1,46.875,4|0,0:0|0:0,0:0:0:0:
322,174,106689,1,0,0:0:0:0:
322,174,106847,2,0,P|291:180|267:174,1,46.875,4|0,0:0|0:0,0:0:0:0:
301,74,107163,2,0,P|332:68|356:74,1,46.875
433,227,107478,5,4,0:0:0:0:
433,227,107636,1,0,0:0:0:0:
433,227,107794,1,0,0:0:0:0:
433,227,107952,2,0,B|442:257|442:257|437:284,1,46.875,0|4,0:0|0:0,0:0:0:0:
319,150,108426,1,0,0:0:0:0:
319,150,108584,1,0,0:0:0:0:
319,150,108742,2,0,B|310:180|310:180|315:207,1,46.875,4|0,0:0|0:0,0:0:0:0:
182,263,109215,1,0,0:0:0:0:
110,203,109373,1,4,0:0:0:0:
247,170,109531,1,0,0:0:0:0:
75,245,109689,1,0,0:0:0:0:
285,268,109847,1,0,0:0:0:0:
413,147,110005,101,4,0:0:0:0:
413,147,110163,1,0,0:0:0:0:
413,147,110321,1,0,0:0:0:0:
413,147,110478,2,0,L|442:110,1,46.875,0|4,0:0|0:0,0:0:0:0:
285,51,110952,1,0,0:0:0:0:
285,51,111110,1,0,0:0:0:0:
285,51,111267,2,0,L|255:87,1,46.875,4|0,0:0|0:0,0:0:0:0:
130,109,111742,1,0,0:0:0:0:
57,93,111900,2,0,L|6:83,1,46.875,4|0,0:0|0:0,0:0:0:0:
202,128,112215,2,0,L|247:137,1,46.875
189,266,112531,5,4,0:0:0:0:
189,266,112689,1,0,0:0:0:0:
189,266,112847,1,0,0:0:0:0:
189,266,113005,2,0,P|175:295|144:306,1,46.875,0|4,0:0|0:0,0:0:0:0:
288,197,113478,1,0,0:0:0:0:
304,274,113636,1,0,0:0:0:0:
304,274,113715,1,0,0:0:0:0:
304,274,113794,1,6,0:0:0:0:
416,245,113952,1,0,0:0:0:0:
368,343,114110,1,0,0:0:0:0:
344,200,114268,1,0,0:0:0:0:
477,156,114426,1,4,0:0:0:0:
366,88,114584,1,0,0:0:0:0:
438,2,114742,1,0,0:0:0:0:
265,49,114900,1,0,0:0:0:0:
167,33,115057,102,0,P|176:69|166:108,1,56.2500021457673,12|0,0:0|0:0,0:0:0:0:
57,77,115373,2,0,P|48:113|58:152,1,56.2500021457673,8|0,0:0|0:0,0:0:0:0:
169,180,115689,2,0,P|189:210|193:250,1,56.2500021457673,12|0,0:0|0:0,0:0:0:0:
80,258,116005,2,0,P|83:294|106:328,1,56.2500021457673,8|0,0:0|0:0,0:0:0:0:
204,322,116321,2,0,P|232:299|272:295,1,56.2500021457673,12|0,0:0|0:0,0:0:0:0:
368,332,116636,2,0,P|342:351|312:356,1,56.2500021457673,8|0,0:0|0:0,0:0:0:0:
329,261,116952,1,12,0:0:0:0:
358,212,117110,1,0,0:0:0:0:
285,166,117268,1,8,0:0:0:0:
371,98,117426,1,0,0:0:0:0:
148,56,117584,6,0,L|211:64,1,56.2500021457673,12|0,0:0|0:0,0:0:0:0:
385,119,117900,2,0,L|329:111,1,56.2500021457673,8|0,0:0|0:0,0:0:0:0:
163,172,118215,2,0,L|226:180,1,56.2500021457673,12|0,0:0|0:0,0:0:0:0:
400,235,118531,2,0,L|344:227,1,56.2500021457673,8|0,0:0|0:0,0:0:0:0:
356,300,118847,1,12,0:0:0:0:
254,356,119005,1,0,0:0:0:0:
380,370,119163,1,8,0:0:0:0:
278,254,119321,1,0,0:0:0:0:
241,126,119478,2,0,P|229:159|238:189,1,56.2500021457673,12|0,0:0|0:0,0:0:0:0:
130,83,119794,2,0,P|142:50|133:20,1,56.2500021457673,8|0,0:0|0:0,0:0:0:0:
151,230,120109,101,12,0:0:0:0:
151,230,120267,1,8,0:0:0:0:
217,87,120425,1,12,0:0:0:0:
217,87,120583,1,8,0:0:0:0:
360,153,120741,1,12,0:0:0:0:
360,153,120899,1,8,0:0:0:0:
294,296,121056,1,12,0:0:0:0:
294,296,121214,1,8,0:0:0:0:
235,121,121372,5,12,0:0:0:0:
97,150,121530,1,8,0:0:0:0:
229,197,121688,101,12,0:0:0:0:
123,291,121846,1,8,0:0:0:0:
296,163,122004,5,12,0:0:0:0:
434,192,122162,1,8,0:0:0:0:
302,239,122320,101,12,0:0:0:0:
408,333,122478,1,8,0:0:0:0:
375,167,122636,6,0,L|402:182,3,28.1250010728836,12|8|12|8,0:0|0:0|0:0|0:0,0:0:0:0:
334,98,122952,2,0,L|361:83,3,28.1250010728836,12|8|12|8,0:0|0:0|0:0|0:0,0:0:0:0:
306,160,123268,102,0,P|288:164|272:157,1,28.1250010728836,12|8,0:0|0:0,0:0:0:0:
214,130,123426,2,0,P|196:126|180:133,1,28.1250010728836,12|8,0:0|0:0,0:0:0:0:
133,175,123584,2,0,P|129:193|136:209,1,28.1250010728836,12|8,0:0|0:0,0:0:0:0:
163,267,123742,2,0,P|167:285|160:301,1,28.1250010728836,12|8,0:0|0:0,0:0:0:0:
127,354,123900,1,12,0:0:0:0:
99,357,123978,1,8,0:0:0:0:
75,343,124057,1,12,0:0:0:0:
64,318,124136,1,8,0:0:0:0:
65,290,124215,1,12,0:0:0:0:
75,263,124294,1,8,0:0:0:0:
90,239,124373,1,12,0:0:0:0:
109,219,124452,1,8,0:0:0:0:
140,190,124531,2,0,B|210:115|142:62|62:110|104:145,1,168.750006437302,2|0,0:0|0:0,0:0:0:0:
264,261,125163,53,4,0:0:0:0:
264,261,125321,1,0,0:0:0:0:
264,261,125478,1,0,0:0:0:0:
264,261,125636,1,0,0:0:0:0:
264,261,125794,2,0,B|331:272|402:301|411:339|389:358|355:348|347:317,1,196.875001877546,8|0,0:0|0:0,0:0:0:0:
195,208,126426,2,0,B|128:219|57:248|48:286|70:305|104:295|112:264,1,196.875001877546,4|0,0:0|0:0,0:0:0:0:
115,147,127057,1,8,0:0:0:0:
273,105,127215,1,0,0:0:0:0:
133,61,127373,1,0,0:0:0:0:
288,187,127531,1,0,0:0:0:0:
386,55,127689,6,0,P|414:119|395:200,1,150,4|0,0:0|0:0,0:0:0:0:
340,295,128163,1,0,0:0:0:0:
227,321,128321,2,0,L|151:339,1,75,8|0,0:0|0:0,0:0:0:0:
237,226,128636,2,0,L|170:184,1,75
326,179,128952,2,0,L|308:103,1,75,4|0,0:0|0:0,0:0:0:0:
198,44,129268,1,0,0:0:0:0:
76,102,129426,1,0,0:0:0:0:
255,188,129584,2,0,P|295:172|332:182,1,75,8|0,0:0|0:0,0:0:0:0:
166,129,129900,1,0,0:0:0:0:
211,296,130057,1,0,0:0:0:0:
96,247,130215,102,0,L|264:185,1,168.750006437302,4|0,0:0|0:0,0:0:0:0:
318,79,130689,1,0,0:0:0:0:
318,79,130847,1,8,0:0:0:0:
318,79,131005,2,0,P|392:127|380:209,1,168.750006437302
291,310,131478,2,0,B|347:331|347:331|383:319,1,84.3750032186509,4|0,0:0|0:0,0:0:0:0:
219,280,131794,2,0,B|163:259|163:259|127:271,1,84.3750032186509
310,194,132110,2,0,B|306:174|306:174|281:237,2,84.3750032186509,8|0|0,0:0|0:0|0:0,0:0:0:0:
106,101,132742,6,0,P|185:141|246:90,1,168.750006437302,4|0,0:0|0:0,0:0:0:0:
285,10,133215,1,0,0:0:0:0:
377,104,133373,2,0,L|365:200,1,84.3750032186509,8|0,0:0|0:0,0:0:0:0:
475,251,133689,2,0,L|487:347,1,84.3750032186509
277,117,134005,2,0,L|252:296,1,168.750006437302
239,367,134478,1,0,0:0:0:0:
143,304,134636,2,0,P|221:274|315:287,1,168.750006437302,8|0,0:0|0:0,0:0:0:0:
383,89,135268,101,4,0:0:0:0:
383,89,135426,1,0,0:0:0:0:
383,89,135584,1,0,0:0:0:0:
383,89,135742,1,0,0:0:0:0:
383,89,135899,2,0,B|344:56|344:56|426:92|500:33,1,196.875001877546,8|0,0:0|0:0,0:0:0:0:
290,115,136531,2,0,P|348:162|476:153,1,196.875001877546,4|0,0:0|0:0,0:0:0:0:
306,231,137163,1,8,0:0:0:0:
452,271,137321,1,0,0:0:0:0:
258,330,137478,1,0,0:0:0:0:
264,165,137636,1,0,0:0:0:0:
116,288,137794,6,0,P|90:327|46:250,1,150,4|0,0:0|0:0,0:0:0:0:
51,164,138268,1,0,0:0:0:0:
110,63,138426,2,0,P|144:42|185:41,1,75,8|0,0:0|0:0,0:0:0:0:
178,154,138742,2,0,P|216:163|246:191,1,75
166,266,139057,2,0,P|187:300|188:341,1,75,4|0,0:0|0:0,0:0:0:0:
83,303,139373,1,0,0:0:0:0:
243,227,139531,1,0,0:0:0:0:
464,217,139689,2,0,L|384:227,1,75,8|0,0:0|0:0,0:0:0:0:
165,201,140005,2,0,L|239:191,1,75
255,86,140321,102,0,P|231:141|248:209,1,112.500004291535,4|0,0:0|0:0,0:0:0:0:
416,122,140794,1,0,0:0:0:0:
416,122,140952,1,8,0:0:0:0:
416,122,141110,2,0,P|440:177|423:245,1,112.500004291535
220,188,141584,2,0,P|261:181|288:191,1,56.2500021457673,4|0,0:0|0:0,0:0:0:0:
364,157,141899,2,0,P|371:198|361:225,1,56.2500021457673
391,307,142215,2,0,P|350:314|323:304,1,56.2500021457673,8|0,0:0|0:0,0:0:0:0:
241,333,142531,2,0,P|234:292|244:265,1,56.2500021457673
300,65,142847,6,0,P|308:117|277:212,1,150,4|0,0:0|0:0,0:0:0:0:
209,69,143321,1,0,0:0:0:0:
162,215,143478,1,8,0:0:0:0:
25,116,143636,1,0,0:0:0:0:
25,116,143952,1,0,0:0:0:0:
25,116,144110,2,0,P|63:140|78:178,1,75
97,271,144426,2,0,P|111:317|146:340,1,75
261,235,144742,2,0,L|254:314,1,75
346,178,145057,2,0,L|339:257,1,75
330,350,145373,1,0,0:0:0:0:
252,263,165584,37,12,0:0:0:0:
252,263,165742,1,0,0:0:0:0:
252,263,165899,1,0,0:0:0:0:
252,263,166057,2,0,B|225:293|225:293|184:301,1,65.6250006258488,8|4,0:0|0:0,0:0:0:0:
108,251,166373,1,0,0:0:0:0:
108,251,166531,2,0,B|135:221|135:221|176:213,1,65.6250006258488,8|0,0:0|0:0,0:0:0:0:
265,182,166847,1,4,0:0:0:0:
265,182,167005,2,0,B|251:159|251:159|204:135,1,65.6250006258488,8|0,0:0|0:0,0:0:0:0:
133,90,167321,1,0,0:0:0:0:
254,42,167478,1,12,0:0:0:0:
384,30,167636,1,0,0:0:0:0:
289,113,167794,1,8,0:0:0:0:
421,154,167952,1,0,0:0:0:0:
321,263,168110,5,12,0:0:0:0:
321,263,168268,1,0,0:0:0:0:
321,263,168426,1,0,0:0:0:0:
321,263,168584,2,0,P|340:293|389:303,1,65.6250006258488,8|4,0:0|0:0,0:0:0:0:
254,318,168899,1,0,0:0:0:0:
254,318,169057,2,0,P|211:327|168:314,1,65.6250006258488,8|0,0:0|0:0,0:0:0:0:
112,257,169373,1,4,0:0:0:0:
112,257,169531,2,0,L|105:333,1,65.6250006258488,8|0,0:0|0:0,0:0:0:0:
196,242,169847,1,0,0:0:0:0:
196,242,170005,2,0,B|229:226|229:226|278:227,1,65.6250006258488,12|0,0:0|0:0,0:0:0:0:
335,149,170321,2,0,B|302:133|302:133|253:134,1,65.6250006258488,8|0,0:0|0:0,0:0:0:0:
256,303,170636,101,12,0:0:0:0:
256,303,170794,1,8,0:0:0:0:
144,191,170952,1,12,0:0:0:0:
144,191,171110,1,8,0:0:0:0:
256,80,171268,1,12,0:0:0:0:
256,80,171426,1,8,0:0:0:0:
367,192,171584,1,12,0:0:0:0:
367,192,171742,1,8,0:0:0:0:
218,161,171899,5,12,0:0:0:0:
234,313,172057,1,8,0:0:0:0:
131,269,172215,1,12,0:0:0:0:
327,247,172373,1,8,0:0:0:0:
143,178,172531,101,12,0:0:0:0:
159,26,172689,1,8,0:0:0:0:
56,70,172847,1,12,0:0:0:0:
252,92,173005,1,8,0:0:0:0:
360,165,173163,6,0,L|355:128,3,32.8125003129244,12|8|12|8,0:0|0:0|0:0|0:0,0:0:0:0:
430,195,173478,2,0,L|435:158,3,32.8125003129244,12|8|12|8,0:0|0:0|0:0|0:0,0:0:0:0:
382,249,173794,102,0,B|356:256|356:256|325:248,1,32.8125003129244,12|8,0:0|0:0,0:0:0:0:
282,233,173952,2,0,B|256:226|256:226|225:234,1,32.8125003129244,12|8,0:0|0:0,0:0:0:0:
182,250,174110,2,0,B|156:257|156:257|125:249,1,32.8125003129244,12|8,0:0|0:0,0:0:0:0:
82,234,174268,2,0,B|56:227|56:227|25:235,1,32.8125003129244,12|8,0:0|0:0,0:0:0:0:
23,293,174426,5,12,0:0:0:0:
26,325,174504,1,8,0:0:0:0:
49,347,174583,1,12,0:0:0:0:
80,356,174662,1,8,0:0:0:0:
113,357,174741,1,12,0:0:0:0:
145,352,174820,1,8,0:0:0:0:
176,341,174899,1,12,0:0:0:0:
204,323,174978,1,8,0:0:0:0:
239,298,175057,2,0,B|265:278|265:278|241:240|255:192|294:146|370:142|416:193|433:244|413:292|384:300|351:293|326:245,1,393.750015020371
328,250,175689,5,0,0:0:0:0:
221,91,175847,1,0,0:0:0:0:
148,210,176636,5,0,0:0:0:0:
360,133,176794,1,0,0:0:0:0:
252,174,176952,2,0,B|346:249|469:216|469:216|427:278|404:143|479:57|479:57|350:-6|283:98|283:98|220:81|180:138,1,787.500030040742
317,305,178215,5,4,0:0:0:0:
317,305,178373,1,0,0:0:0:0:
317,305,178531,1,0,0:0:0:0:
317,305,178689,1,0,0:0:0:0:
317,305,178847,2,0,B|366:296|408:313|408:313|399:341|453:337|477:276|440:233,1,225,8|0,0:0|0:0,0:0:0:0:
258,214,179478,2,0,B|209:205|167:222|167:222|176:250|122:246|98:185|135:142,1,225,4|0,0:0|0:0,0:0:0:0:
199,66,180110,1,8,0:0:0:0:
353,46,180268,1,0,0:0:0:0:
163,30,180426,1,0,0:0:0:0:
388,81,180584,1,0,0:0:0:0:
277,196,180742,6,0,P|276:142|196:65,1,168.750006437302,4|0,0:0|0:0,0:0:0:0:
58,37,181215,1,0,0:0:0:0:
74,151,181373,2,0,P|79:185|52:224,1,84.3750032186509,8|0,0:0|0:0,0:0:0:0:
167,105,181689,2,0,P|194:125|203:172,1,84.3750032186509
245,20,182005,2,0,P|279:15|318:42,1,84.3750032186509,4|0,0:0|0:0,0:0:0:0:
358,181,182321,1,0,0:0:0:0:
404,2,182478,1,0,0:0:0:0:
420,131,182636,2,0,B|465:126|465:126|508:137,1,84.3750032186509,8|0,0:0|0:0,0:0:0:0:
451,28,182952,1,0,0:0:0:0:
490,209,183110,1,0,0:0:0:0:
359,298,183268,102,0,B|267:271|267:271|291:216|252:172,1,187.5,4|0,0:0|0:0,0:0:0:0:
137,145,183742,1,0,0:0:0:0:
231,33,183899,1,8,0:0:0:0:
92,2,184057,2,0,B|62:33|23:16|23:16|42:136,1,187.5
136,240,184531,2,0,L|234:206,1,93.75,4|0,0:0|0:0,0:0:0:0:
316,242,184847,2,0,L|296:343,1,93.75
219,384,185163,2,0,L|140:316,2,93.75,8|0|0,0:0|0:0|0:0,0:0:0:0:
493,226,185794,6,0,P|397:209|307:248,1,187.5,4|0,0:0|0:0,0:0:0:0:
214,318,186268,1,0,0:0:0:0:
83,212,186426,2,0,P|128:223|168:256,1,93.75,8|0,0:0|0:0,0:0:0:0:
273,140,186742,2,0,P|244:176|233:221,1,93.75
163,140,187057,2,0,B|129:131|129:131|197:108|218:8,1,187.5,4|0,0:0|0:0,0:0:0:0:
325,81,187531,1,0,0:0:0:0:
138,0,187689,2,0,B|138:56|99:68|63:48|51:100|49:134|59:157,1,187.5,8|0,0:0|0:0,0:0:0:0:
264,316,188321,101,4,0:0:0:0:
264,316,188478,1,0,0:0:0:0:
264,316,188636,1,0,0:0:0:0:
264,316,188794,1,0,0:0:0:0:
220,196,188952,2,0,P|165:240|178:382,1,225,8|0,0:0|0:0,0:0:0:0:
304,196,189584,2,0,P|359:240|346:382,1,225,4|0,0:0|0:0,0:0:0:0:
322,339,190215,1,8,0:0:0:0:
376,277,190373,1,0,0:0:0:0:
281,205,190531,1,0,0:0:0:0:
420,124,190689,1,0,0:0:0:0:
215,39,190847,6,0,B|178:163|178:163|262:141,1,168.750006437302,4|0,0:0|0:0,0:0:0:0:
335,116,191321,1,0,0:0:0:0:
381,30,191478,2,0,P|431:67|436:130,1,84.3750032186509,8|0,0:0|0:0,0:0:0:0:
296,207,191794,2,0,P|337:228|390:227,1,84.3750032186509
493,292,192110,2,0,P|485:339|448:392,1,84.3750032186509,4|0,0:0|0:0,0:0:0:0:
325,305,192426,1,0,0:0:0:0:
180,364,192584,1,0,0:0:0:0:
98,231,192742,2,0,L|83:329,1,84.3750032186509,8|0,0:0|0:0,0:0:0:0:
24,152,193057,2,0,L|36:68,1,84.3750032186509
275,108,193373,102,0,P|185:142|126:103,1,131.250001251698,4|0,0:0|0:0,0:0:0:0:
324,199,193847,1,0,0:0:0:0:
324,199,194005,1,8,0:0:0:0:
324,199,194163,2,0,B|316:261|316:261|344:346,1,131.250001251698
466,246,194636,2,0,L|393:255,1,65.6250006258488,4|0,0:0|0:0,0:0:0:0:
244,153,194952,2,0,L|309:144,1,65.6250006258488
106,239,195268,2,0,L|171:230,1,65.6250006258488,8|0,0:0|0:0,0:0:0:0:
103,84,195584,2,0,L|37:92,1,65.6250006258488
194,195,195899,37,0,0:0:0:0:
194,195,196215,1,0,0:0:0:0:
283,105,196373,1,0,0:0:0:0:
316,227,196531,2,0,L|382:289,1,84.3750032186509
453,63,197005,1,0,0:0:0:0:
328,36,197163,102,0,L|277:33,1,37.5
347,119,197478,2,0,L|299:137,1,37.5
409,187,197794,2,0,L|373:224,1,37.5
488,225,198110,2,0,L|471:273,1,37.5
304,337,198426,101,4,0:0:0:0:
304,337,198584,1,0,0:0:0:0:
304,337,198742,1,0,0:0:0:0:
304,337,198899,1,0,0:0:0:0:
304,337,199057,2,0,P|351:302|539:307,1,253.125009655953,8|0,0:0|0:0,0:0:0:0:
430,146,199689,2,0,P|474:300|444:392,1,253.125009655953,4|0,0:0|0:0,0:0:0:0:
363,284,200321,1,8,0:0:0:0:
231,339,200478,1,0,0:0:0:0:
278,174,200636,1,0,0:0:0:0:
118,93,200794,1,0,0:0:0:0:
166,241,200952,102,0,B|149:378|149:378|87:382,1,187.5,4|0,0:0|0:0,0:0:0:0:
21,253,201426,1,0,0:0:0:0:
175,71,201584,2,0,P|182:109|152:151,1,93.75,8|0,0:0|0:0,0:0:0:0:
235,252,201899,2,0,P|199:222|154:228,1,93.75
0,140,202215,2,0,P|38:133|80:163,1,93.75,4|0,0:0|0:0,0:0:0:0:
158,296,202531,1,0,0:0:0:0:
205,152,202689,1,0,0:0:0:0:
241,318,202847,2,0,P|187:319|146:260,1,93.75,8|0,0:0|0:0,0:0:0:0:
260,236,203163,1,0,0:0:0:0:
416,309,203321,1,0,0:0:0:0:
371,137,203478,6,0,B|383:156|383:156|276:111|191:158,1,206.250001966953,4|0,0:0|0:0,0:0:0:0:
101,236,203952,1,0,0:0:0:0:
101,236,204110,1,8,0:0:0:0:
101,236,204268,2,0,B|76:248|53:253|27:238|24:210|40:189|72:182|85:201|81:233|70:259|54:284|52:308,1,206.250001966953
183,326,204742,2,0,P|225:343|289:321,1,103.125000983477,4|0,0:0|0:0,0:0:0:0:
402,259,205057,2,0,P|444:242|508:264,1,103.125000983477
316,255,205373,2,0,L|369:343,2,103.125000983477,8|0|0,0:0|0:0|0:0,0:0:0:0:
316,255,206005,102,0,B|294:211|294:211|291:292|374:347,1,206.250001966953,4|0,0:0|0:0,0:0:0:0:
501,362,206478,1,0,0:0:0:0:
397,245,206636,2,0,P|414:298|380:358,1,103.125000983477,8|0,0:0|0:0,0:0:0:0:
485,211,206952,2,0,P|468:158|502:98,1,103.125000983477
355,34,207268,2,0,B|303:73|303:73|254:33|234:78|245:159,1,206.250001966953,4|0,0:0|0:0,0:0:0:0:
257,273,207742,1,0,0:0:0:0:
156,92,207899,2,0,L|261:280,1,206.250001966953,8|0,0:0|0:0,0:0:0:0:
99,224,208531,5,4,0:0:0:0:
99,224,208689,1,0,0:0:0:0:
99,224,208847,1,0,0:0:0:0:
99,224,209005,1,0,0:0:0:0:
99,224,209163,2,0,P|201:185|360:224,1,253.125009655953,8|0,0:0|0:0,0:0:0:0:
492,286,209794,2,0,P|390:325|231:286,1,253.125009655953,4|0,0:0|0:0,0:0:0:0:
320,221,210426,1,8,0:0:0:0:
157,249,210584,1,0,0:0:0:0:
356,278,210742,1,0,0:0:0:0:
179,161,210899,1,0,0:0:0:0:
273,43,211057,102,0,B|245:103|263:157|239:242,1,187.5,4|0,0:0|0:0,0:0:0:0:
417,188,211531,1,0,0:0:0:0:
349,308,211689,2,0,B|306:315|306:315|251:291,1,93.75,8|0,0:0|0:0,0:0:0:0:
152,217,212005,2,0,B|186:194|186:194|268:228,1,93.75
317,114,212321,2,0,B|330:160|330:160|312:219,1,93.75,4|0,0:0|0:0,0:0:0:0:
204,80,212636,1,0,0:0:0:0:
58,48,212794,1,0,0:0:0:0:
135,166,212952,2,0,B|96:187|96:187|99:153|65:128,1,93.75,8|0,0:0|0:0,0:0:0:0:
87,288,213268,2,0,B|126:267|126:267|123:301|157:326,1,93.75
312,171,213584,6,0,P|280:243|297:334,1,150,4|0,0:0|0:0,0:0:0:0:
422,308,214057,1,0,0:0:0:0:
422,308,214215,1,8,0:0:0:0:
422,308,214373,2,0,P|350:283|269:335,1,150
299,133,214847,2,0,L|305:215,1,75,4|0,0:0|0:0,0:0:0:0:
418,44,215163,2,0,L|412:126,1,75
312,321,215478,2,0,L|273:238,1,75,8|0,0:0|0:0,0:0:0:0:
447,246,215794,2,0,L|486:163,1,75
474,370,216110,101,4,0:0:0:0:
139,259,216426,1,0,0:0:0:0:
139,259,216505,1,0,0:0:0:0:
139,259,216584,1,0,0:0:0:0:
139,259,216663,1,0,0:0:0:0:
139,259,216742,1,8,0:0:0:0:
235,229,216899,1,0,0:0:0:0:
120,154,217057,1,0,0:0:0:0:
269,99,217215,1,0,0:0:0:0:
183,222,217373,2,0,B|184:288|184:288|224:289,1,93.75
292,238,217689,2,0,L|292:331,1,93.75
323,137,218005,2,0,B|342:133|354:125|347:111|330:107|314:103|306:87|322:73|344:74,1,93.75
438,163,218321,2,0,B|472:164|472:164|454:164|454:164|454:208,1,93.75
159,129,218636,86,0,L|164:168,1,30
254,169,219268,2,0,L|249:208,1,30
175,252,219899,2,0,L|193:286,1,30
276,307,220531,2,0,L|257:341,1,30
361,275,221084,1,0,0:0:0:0:
361,275,221163,6,0,P|368:259|364:244,1,30
445,203,221794,2,0,P|438:187|442:172,1,30
358,133,222426,2,0,P|353:116|340:107,1,30
421,63,223057,2,0,P|425:46|438:37,1,30
219,109,223531,1,0,0:0:0:0:
219,109,223610,1,0,0:0:0:0:
219,109,223689,102,0,B|207:98|207:98|189:101,1,30
125,159,224321,2,0,B|136:170|136:170|152:173,2,30
44,109,225268,1,0,0:0:0:0:
68,228,225584,1,0,0:0:0:0:
270,324,226057,1,0,0:0:0:0:
256,192,226689,5,0,0:0:0:0:
