osu file format v14

[General]
AudioFilename: audio.mp3
AudioLeadIn: 0
PreviewTime: 59780
Countdown: 0
SampleSet: Normal
StackLeniency: 0.7
Mode: 0
LetterboxInBreaks: 0
EpilepsyWarning: 1
WidescreenStoryboard: 1

[Editor]
DistanceSpacing: 1
BeatDivisor: 4
GridSize: 32
TimelineZoom: 2

[Metadata]
Title:Shatter Me (Nightstep)
TitleUnicode:Shatter Me (Nightstep)
Artist:Lindsey Stirling (feat. Lzzy Hale)
ArtistUnicode:Lindsey Stirling (feat. Lzzy Hale)
Creator:Jojajim
Version:Heart Broken
Source:
Tags:
BeatmapID:2117825
BeatmapSetID:1011882

[Difficulty]
HPDrainRate:5.2
CircleSize:4
OverallDifficulty:7
ApproachRate:10
SliderMultiplier:2
SliderTickRate:1

[Events]
//Background and Video events
0,0,"Shatter Me.jpg",0,0
//Break Periods
2,173665,178600
//Storyboard Layer 0 (Background)
//Storyboard Layer 1 (Fail)
//Storyboard Layer 2 (Pass)
//Storyboard Layer 3 (Foreground)
//Storyboard Sound Samples

[TimingPoints]
2237,350.877192982456,4,2,0,100,1,0
2237,-400,4,2,3,50,0,0
13465,-200,4,2,3,50,0,0
19079,-153.846153846154,4,2,3,50,0,0
21184,-117.647058823529,4,2,3,50,0,0
21886,-100,4,2,3,50,0,0
23991,-133.333333333333,4,2,3,50,0,0
24693,-200,4,2,3,50,0,0
30307,-153.846153846154,4,2,3,50,0,0
32412,-133.333333333333,4,2,3,50,0,0
33114,-117.647058823529,4,2,3,50,0,0
33815,-100,4,2,3,50,0,0
35921,-100,4,2,3,75,0,0
42938,-83.3333333333333,4,2,3,75,0,0
55570,-100,4,2,3,75,0,0
58728,-117.647058823529,4,2,3,75,0,0
59429,-133.333333333333,4,2,3,75,0,0
59780,-200,4,1,2,60,0,1
60658,-100,4,1,2,60,0,1
62061,-66.6666666666667,4,1,2,60,0,1
62587,-200,4,1,2,60,0,1
63465,-100,4,1,2,60,0,1
65394,-66.6666666666667,4,1,2,60,0,1
67500,-80,4,1,2,60,0,1
69605,-66.6666666666667,4,1,2,60,0,1
71008,-200,4,1,2,60,0,1
71886,-100,4,1,2,60,0,1
73289,-66.6666666666667,4,1,2,60,0,1
73815,-200,4,1,2,60,0,1
74693,-100,4,1,2,60,0,1
76622,-66.6666666666667,4,1,2,60,0,1
78552,-80,4,1,2,60,0,1
81886,-80,4,1,2,60,0,0
85044,-200,4,2,3,60,0,0
88026,-133.333333333333,4,2,3,60,0,0
89254,-100,4,2,3,60,0,0
90307,-90.9090909090909,4,2,3,60,0,0
91359,-76.9230769230769,4,2,3,60,0,0
92061,-90.9090909090909,4,2,3,60,0,0
92763,-133.333333333333,4,2,3,60,0,0
93465,-200,4,2,3,60,0,0
96272,-133.333333333333,4,2,3,60,0,0
97149,-200,4,2,3,60,0,0
99079,-100,4,2,3,60,0,0
101886,-83.3333333333333,4,2,3,60,0,0
102587,-71.4285714285714,4,2,3,60,0,0
103991,-66.6666666666667,4,2,3,60,0,0
104693,-100,4,2,3,60,0,0
111710,-83.3333333333333,4,2,3,60,0,0
114517,-66.6666666666667,4,2,3,60,0,0
116798,-83.3333333333333,4,2,3,60,0,0
118552,-66.6666666666667,4,2,3,60,0,0
119780,-83.3333333333333,4,2,3,60,0,0
127500,-117.647058823529,4,2,3,60,0,0
128201,-133.333333333333,4,2,3,60,0,0
128552,-200,4,1,2,60,0,1
129429,-100,4,1,2,60,0,1
130833,-66.6666666666667,4,1,2,60,0,1
131359,-200,4,1,2,60,0,1
132236,-100,4,1,2,60,0,1
134166,-66.6666666666667,4,1,2,60,0,1
136272,-80,4,1,2,60,0,1
138377,-66.6666666666667,4,1,2,60,0,1
139780,-200,4,1,2,60,0,1
140658,-100,4,1,2,60,0,1
142061,-66.6666666666667,4,1,2,60,0,1
142587,-200,4,1,2,60,0,1
143465,-100,4,1,2,60,0,1
145044,-80,4,1,2,60,0,1
145394,-66.6666666666667,4,1,2,60,0,1
147324,-71.4285714285714,4,1,2,60,0,1
151008,-80,4,2,3,70,0,0
151535,-111.111111111111,4,2,3,70,0,0
152236,-125,4,2,3,70,0,0
152587,-142.857142857143,4,2,3,70,0,0
155219,-76.9230769230769,4,2,3,70,0,0
155570,-66.6666666666667,4,2,3,70,0,0
156096,-80,4,2,3,70,0,0
156272,-100,4,2,3,70,0,0
156622,-142.857142857143,4,2,3,70,0,0
162236,-111.111111111111,4,2,3,70,0,0
166447,-76.9230769230769,4,2,3,70,0,0
166798,-83.3333333333333,4,2,3,70,0,0
167149,-90.9090909090909,4,2,3,70,0,0
167500,-100,4,2,3,70,0,0
167851,-111.111111111111,4,2,3,70,0,0
173465,-200,4,2,3,70,0,0
179079,-133.333333333333,4,2,3,70,0,0
182236,-117.647058823529,4,2,3,70,0,0
182587,-105.263157894737,4,2,3,70,0,0
182938,-95.2380952380951,4,2,3,70,0,0
183289,-66.6666666666667,4,2,3,70,0,0
183640,-76.9230769230769,4,2,3,70,0,0
183991,-90.9090909090909,4,2,3,70,0,0
184342,-111.111111111111,4,2,3,70,0,0
185745,-66.6666666666667,4,2,3,70,0,0
186096,-83.3333333333333,4,1,2,70,0,0
195921,-58.8235294117647,4,1,2,70,0,0
198026,-83.3333333333333,4,1,2,70,0,0
207149,-58.8235294117647,4,1,2,70,0,0
208552,-200,4,1,2,70,0,1
209429,-83.3333333333333,4,1,2,70,0,1
210833,-62.5,4,1,2,70,0,1
211359,-200,4,1,2,70,0,1
212236,-83.3333333333333,4,1,2,70,0,1
214166,-58.8235294117647,4,1,2,70,0,1
216272,-71.4285714285714,4,1,2,70,0,1
218377,-58.8235294117647,4,1,2,70,0,1
219780,-200,4,1,2,70,0,1
220658,-83.3333333333333,4,1,2,70,0,1
222061,-62.5,4,1,2,70,0,1
222587,-200,4,1,2,70,0,1
223465,-83.3333333333333,4,1,2,70,0,1
225394,-62.5,4,1,2,70,0,1
227324,-71.4285714285714,4,1,2,70,0,1
229605,-58.8235294117647,4,1,2,70,0,1
230307,-100,4,1,2,70,0,1
232061,-100,4,1,2,70,0,0

[Colours]
Combo1 : 255,255,255
Combo2 : 183,230,255
Combo3 : 108,204,255
Combo4 : 0,79,85
Combo5 : 0,0,0

[HitObjects]
342,99,2236,5,0,0:0:0:0:
115,116,2938,1,0,0:0:0:0:
117,205,3289,1,0,0:0:0:0:
203,156,3640,1,0,0:0:0:0:
88,279,3991,1,0,0:0:0:0:
207,265,4342,1,0,0:0:0:0:
388,234,5044,6,0,P|420:203|432:166,1,75,0|0,0:0|1:0,0:0:0:0:
391,79,5745,2,0,P|359:110|347:147,1,75,0|0,0:0|1:0,0:0:0:0:
305,213,6447,2,0,P|273:182|261:145,1,75,0|0,0:0|1:0,0:0:0:0:
348,137,7149,2,0,P|380:168|392:205,1,75,0|0,0:0|1:0,0:0:0:0:
242,324,7851,5,0,0:0:0:0:
150,120,8552,1,0,0:0:0:0:
54,115,8903,1,0,0:0:0:0:
175,199,9254,1,0,0:0:0:0:
18,51,9605,1,0,0:0:0:0:
13,179,9956,1,0,0:0:0:0:
200,248,10658,38,0,P|173:277|129:287,1,75,0|0,0:0|1:0,0:0:0:0:
183,176,11359,2,0,P|224:182|259:205,1,75,0|0,0:0|1:0,0:0:0:0:
202,103,12061,2,0,P|167:104|128:126,1,75,0|0,0:0|1:0,0:0:0:0:
25,221,12763,2,0,P|61:210|92:190,1,75,0|0,0:0|1:0,0:0:0:0:
202,103,13465,5,0,0:0:0:0:
206,142,13640,1,0,0:0:0:0:
245,146,13815,1,0,0:0:0:0:
257,184,13991,1,0,0:0:0:0:
296,185,14166,1,0,0:0:0:0:
312,221,14342,1,0,0:0:0:0:
281,246,14517,1,0,0:0:0:0:
299,281,14693,1,0,0:0:0:0:
265,303,14868,5,0,0:0:0:0:
181,259,15044,1,0,0:0:0:0:
227,183,15219,1,0,0:0:0:0:
130,337,15394,2,0,P|98:330|53:277,1,100
40,145,15921,1,0,0:0:0:0:
163,203,16096,2,0,B|257:265|305:127|410:203,1,250
443,219,17149,1,0,0:0:0:0:
427,266,17324,1,0,0:0:0:0:
473,285,17500,1,0,0:0:0:0:
489,238,17675,37,0,0:0:0:0:
414,100,17851,1,0,0:0:0:0:
319,183,18026,1,0,0:0:0:0:
387,34,18201,2,0,P|416:31|455:38,1,50
319,65,18552,2,0,P|343:48|380:36,1,50
427,146,18903,1,0,0:0:0:0:
308,141,19079,6,0,B|206:143|219:247|168:368|52:290,1,324.999985122681,0|0,0:0|0:0,0:0:0:0:
124,195,20131,1,0,0:0:0:0:
53,107,20307,1,0,0:0:0:0:
145,37,20482,2,0,P|237:37|328:110,1,194.999991073609,0|0,0:0|0:0,0:0:0:0:
343,220,21184,2,0,P|321:101|209:31,1,255.000004863739,0|0,0:0|0:0,0:0:0:0:
105,80,21886,6,0,B|31:192|192:229|57:364,1,300,0|0,0:0|0:0,0:0:0:0:
22,254,22587,2,0,B|64:198|171:181|205:307|314:212,1,300,0|0,0:0|0:0,0:0:0:0:
401,128,23289,2,0,P|455:130|507:184,1,100,0|0,0:0|0:0,0:0:0:0:
331,298,23640,2,0,P|369:328|437:331,1,100,0|0,0:0|0:0,0:0:0:0:
401,128,23991,2,0,P|382:199|387:230,1,75.0000028610231,0|0,0:0|0:0,0:0:0:0:
418,335,24342,2,0,P|436:263|431:232,1,75.0000028610231,0|0,0:0|0:0,0:0:0:0:
250,177,24693,2,0,B|184:163|109:128|109:128|131:153|131:153|135:178|135:178|150:198|150:198|161:233|161:233|182:259|182:259|195:292|195:292|226:318,1,350,0|0,0:0|0:0,0:0:0:0:
252,330,26096,37,0,0:0:0:0:
327,269,26272,1,0,0:0:0:0:
286,185,26447,1,0,0:0:0:0:
188,256,26622,2,0,L|242:215,1,50
117,308,26973,1,0,0:0:0:0:
49,155,27149,1,0,0:0:0:0:
85,230,27324,2,0,P|166:123|2:80,1,350
27,121,28728,1,0,0:0:0:0:
71,144,28903,5,0,0:0:0:0:
201,95,29079,1,0,0:0:0:0:
169,229,29254,1,0,0:0:0:0:
309,153,29429,2,0,L|369:124,1,50
464,214,29780,1,0,0:0:0:0:
422,283,29956,1,0,0:0:0:0:
447,133,30131,1,0,0:0:0:0:
348,307,30307,2,0,P|191:347|60:251,1,324.999985122681,0|0,0:0|0:0,0:0:0:0:
59,190,31359,1,0,0:0:0:0:
127,218,31535,5,0,0:0:0:0:
179,100,31710,2,0,B|278:16|278:16|304:42|340:44,1,194.999991073609,0|0,0:0|0:0,0:0:0:0:
252,150,32412,2,0,P|287:175|343:185,1,75.0000028610231,0|0,0:0|0:0,0:0:0:0:
382,218,32763,2,0,P|347:193|291:183,1,75.0000028610231,0|0,0:0|0:0,0:0:0:0:
334,314,33114,2,0,P|435:337|482:187,1,255.000004863739,0|0,0:0|0:0,0:0:0:0:
316,183,33815,2,0,B|273:218|224:220|224:220|172:269|83:278|55:185,1,300,0|0,0:0|0:0,0:0:0:0:
207,58,34517,2,0,L|82:366,1,300,0|0,0:0|0:0,0:0:0:0:
229,313,35219,2,0,P|274:272|283:213,1,100,0|0,0:0|0:0,0:0:0:0:
213,136,35570,1,0,0:0:0:0:
349,300,35745,1,0,0:0:0:0:
340,118,35921,2,0,P|301:148|284:195,1,100,0|0,0:0|0:0,0:0:0:0:
469,227,36272,37,0,0:0:0:0:
481,99,36447,1,0,0:0:0:0:
427,142,36622,1,0,0:0:0:0:
287,66,36798,1,0,0:0:0:0:
354,80,36973,1,0,0:0:0:0:
207,165,37149,1,0,0:0:0:0:
130,44,37324,5,0,0:0:0:0:
52,166,37500,1,0,0:0:0:0:
53,50,37675,1,0,0:0:0:0:
131,179,37851,2,0,P|122:235|90:282,1,100
182,313,38201,1,0,0:0:0:0:
55,202,38377,1,0,0:0:0:0:
222,142,38552,2,0,B|302:143|316:79|373:55|430:58|487:86|480:172,1,300
386,317,39254,5,0,0:0:0:0:
397,152,39429,1,0,0:0:0:0:
452,207,39605,1,0,0:0:0:0:
286,215,39780,1,0,0:0:0:0:
286,294,39956,1,0,0:0:0:0:
172,155,40131,37,0,0:0:0:0:
109,308,40307,2,0,P|62:333|11:327,1,100
102,100,40658,2,0,P|154:74|209:77,1,100
172,222,41008,1,0,0:0:0:0:
301,29,41184,1,0,0:0:0:0:
345,121,41359,2,0,P|364:175|354:230,1,100
291,363,41710,2,0,P|271:308|281:253,1,100
439,52,42061,2,0,P|458:106|466:161,2,100
273,41,42587,5,0,0:0:0:0:
326,101,42763,1,0,0:0:0:0:
174,160,42938,2,0,L|312:232,1,119.999996337891
333,312,43289,1,0,0:0:0:0:
193,255,43465,2,0,L|55:183,1,119.999996337891
92,302,43815,5,0,0:0:0:0:
359,166,43991,1,0,0:0:0:0:
486,345,44166,2,0,L|402:223,2,119.999996337891
336,321,44693,1,0,0:0:0:0:
268,163,44868,2,0,L|161:218,1,119.999996337891
116,309,45219,1,0,0:0:0:0:
249,258,45395,2,0,L|355:202,1,119.999996337891
332,60,45745,38,0,B|285:92|241:81|241:81|208:105|201:143|201:143|148:127|90:162,1,239.999992675781
0,39,46272,2,0,B|19:86|2:123|2:123|51:174|51:174|29:218|57:277,1,239.999992675781
143,66,46798,2,0,B|258:19|373:81|373:81|234:74|263:173|180:204|180:204|266:226|319:272|319:272|369:316|442:283,1,719.999978027344,0|0,0:0|0:0,0:0:0:0:
358,185,48026,1,0,0:0:0:0:
478,240,48201,2,0,L|454:117,1,119.999996337891,0|0,0:0|0:0,0:0:0:0:
293,26,48552,1,0,0:0:0:0:
384,54,48728,1,0,0:0:0:0:
193,85,48903,1,0,0:0:0:0:
202,198,49079,2,0,P|222:253|273:301,1,119.999996337891,0|0,0:0|0:0,0:0:0:0:
430,250,49429,5,0,0:0:0:0:
372,352,49605,1,0,0:0:0:0:
313,191,49780,2,0,B|282:127|315:76|315:76|197:59|177:137|81:103|81:103|113:210|49:335|49:335|127:294|181:308|181:308,1,719.999978027344
258,347,51008,1,0,0:0:0:0:
312,252,51184,1,0,0:0:0:0:
389,341,51359,5,0,0:0:0:0:
459,162,51535,1,0,0:0:0:0:
491,282,51710,1,0,0:0:0:0:
348,231,51886,2,0,P|287:202|252:156,1,119.999996337891,0|0,0:0|0:0,0:0:0:0:
273,7,52236,2,0,P|212:36|177:82,1,119.999996337891,0|0,0:0|0:0,0:0:0:0:
358,31,52587,2,0,P|302:10|242:16,1,119.999996337891,0|0,0:0|0:0,0:0:0:0:
412,98,52938,1,0,0:0:0:0:
272,156,53114,1,0,0:0:0:0:
381,240,53289,2,0,P|339:304|250:317,1,119.999996337891,0|0,0:0|0:0,0:0:0:0:
162,234,53640,37,0,0:0:0:0:
318,145,53815,1,0,0:0:0:0:
229,117,53991,1,0,0:0:0:0:
206,295,54166,1,0,0:0:0:0:
265,248,54342,1,0,0:0:0:0:
79,94,54518,5,0,0:0:0:0:
143,240,54693,1,0,0:0:0:0:
228,117,54868,1,0,0:0:0:0:
20,197,55044,1,0,0:0:0:0:
279,230,55219,1,0,0:0:0:0:
165,7,55394,1,0,0:0:0:0:
68,267,55570,5,0,0:0:0:0:
111,291,55657,1,0,0:0:0:0:
160,300,55745,1,0,0:0:0:0:
209,293,55833,1,0,0:0:0:0:
254,271,55920,1,0,0:0:0:0:
293,302,56008,1,0,0:0:0:0:
340,314,56095,1,0,0:0:0:0:
383,291,56183,1,0,0:0:0:0:
399,245,56271,37,0,0:0:0:0:
353,226,56359,5,0,0:0:0:0:
304,215,56446,1,0,0:0:0:0:
261,190,56534,1,0,0:0:0:0:
226,154,56622,1,0,0:0:0:0:
193,117,56709,1,0,0:0:0:0:
155,84,56797,1,0,0:0:0:0:
110,62,56885,1,0,0:0:0:0:
60,71,56973,6,0,L|74:131,3,50
103,241,57324,1,0,0:0:0:0:
147,263,57411,1,0,0:0:0:0:
197,265,57499,2,0,L|279:248,3,50,0|0|0|0,0:0|0:0|0:0|0:0,0:0:0:0:
346,199,57851,1,0,0:0:0:0:
385,168,57938,1,0,0:0:0:0:
403,121,58026,2,0,P|245:58|198:166,1,300
235,216,58728,38,0,L|274:251,2,42.5000008106232
151,210,58991,2,0,L|111:243,2,42.5000008106232
189,295,59254,1,0,0:0:0:0:
205,314,59342,1,0,0:0:0:0:
222,336,59429,2,0,P|251:318|275:312,1,37.5000014305115
365,313,59605,2,0,P|336:331|312:337,1,37.5000014305115
329,215,59780,38,0,B|353:160|353:160|424:154|424:154|448:89,1,200
328,48,60658,1,0,0:0:0:0:
280,63,60745,1,0,0:0:0:0:
233,79,60833,1,0,0:0:0:0:
185,95,60921,1,0,0:0:0:0:
228,118,61008,1,0,0:0:0:0:
273,137,61095,1,0,0:0:0:0:
319,157,61183,1,0,0:0:0:0:
365,176,61271,1,0,0:0:0:0:
325,206,61359,5,0,0:0:0:0:
283,232,61446,1,0,0:0:0:0:
241,260,61534,1,0,0:0:0:0:
199,286,61622,1,0,0:0:0:0:
175,240,61710,1,0,0:0:0:0:
148,197,61797,1,0,0:0:0:0:
122,154,61885,1,0,0:0:0:0:
96,111,61973,1,0,0:0:0:0:
120,56,62061,53,0,0:0:0:0:
184,95,62148,1,0,0:0:0:0:
256,114,62236,1,0,0:0:0:0:
330,125,62324,1,0,0:0:0:0:
403,143,62411,1,0,0:0:0:0:
468,180,62499,1,0,0:0:0:0:
493,251,62587,2,0,B|421:267|421:267|371:210|371:210|306:190,1,200
180,198,63465,5,0,0:0:0:0:
215,234,63552,1,0,0:0:0:0:
251,268,63640,1,0,0:0:0:0:
286,303,63728,1,0,0:0:0:0:
241,325,63815,53,0,0:0:0:0:
192,313,63902,1,0,0:0:0:0:
143,301,63990,1,0,0:0:0:0:
95,290,64078,1,0,0:0:0:0:
114,243,64166,6,0,L|139:186,1,50
115,70,64342,2,0,L|135:115,1,50
250,180,64517,2,0,L|204:156,1,50
270,33,64693,2,0,L|324:58,1,50
322,243,64868,2,0,L|376:218,1,50
383,118,65044,2,0,L|435:140,1,50
512,253,65219,2,0,L|460:231,1,50
369,315,65394,2,0,P|256:348|154:321,1,225.000008583069
61,265,65745,53,0,0:0:0:0:
118,217,65832,1,0,0:0:0:0:
155,152,65920,1,0,0:0:0:0:
166,79,66008,1,0,0:0:0:0:
169,4,66096,2,0,P|253:44|413:29,1,225.000008583069
436,180,66447,5,0,0:0:0:0:
373,141,66534,1,0,0:0:0:0:
302,158,66622,1,0,0:0:0:0:
264,221,66710,1,0,0:0:0:0:
285,298,66798,2,0,P|324:228|222:118,1,225.000008583069
55,139,67149,53,0,0:0:0:0:
26,207,67236,1,0,0:0:0:0:
39,279,67324,1,0,0:0:0:0:
91,333,67412,1,0,0:0:0:0:
163,350,67500,2,0,P|219:343|254:326,1,62.5
374,318,67675,2,0,P|339:273|307:251,1,62.5
236,149,67851,2,0,P|214:200|211:239,3,62.5
289,48,68201,6,0,B|188:44|112:96,1,187.5
140,170,68552,1,0,0:0:0:0:
404,108,68728,2,0,B|294:38|201:40|109:97,1,312.5
291,158,69254,2,0,P|315:230|209:272,1,187.5
255,368,69605,38,0,B|303:329|355:350|355:350|393:332|395:274|395:274|464:296|496:231,1,300.000011444092
265,43,70132,2,0,B|312:60|337:129|337:129|420:100|420:100|483:89|503:169,1,300.000011444092
328,228,70658,2,0,B|288:260|237:234|237:234|193:272,1,150.000005722046
69,177,71008,6,0,B|116:131|116:131|168:141|168:141|218:71,1,200
412,69,71886,5,0,0:0:0:0:
403,118,71973,1,0,0:0:0:0:
394,167,72061,1,0,0:0:0:0:
386,216,72149,1,0,0:0:0:0:
336,216,72236,1,0,0:0:0:0:
327,166,72323,1,0,0:0:0:0:
318,117,72411,1,0,0:0:0:0:
310,68,72499,1,0,0:0:0:0:
259,69,72587,53,0,0:0:0:0:
250,118,72674,1,0,0:0:0:0:
241,167,72762,1,0,0:0:0:0:
233,216,72850,1,0,0:0:0:0:
183,216,72937,1,0,0:0:0:0:
147,180,73026,1,0,0:0:0:0:
98,162,73114,1,0,0:0:0:0:
71,120,73201,1,0,0:0:0:0:
34,162,73289,5,0,0:0:0:0:
53,233,73376,1,0,0:0:0:0:
109,281,73464,1,0,0:0:0:0:
182,295,73552,1,0,0:0:0:0:
257,289,73639,1,0,0:0:0:0:
332,291,73727,1,0,0:0:0:0:
395,330,73815,54,0,B|487:370|487:370|455:268,1,200
386,103,74693,5,0,0:0:0:0:
344,131,74780,1,0,0:0:0:0:
303,160,74868,1,0,0:0:0:0:
262,188,74956,1,0,0:0:0:0:
327,205,75044,53,0,0:0:0:0:
303,160,75131,1,0,0:0:0:0:
280,116,75219,1,0,0:0:0:0:
257,72,75307,1,0,0:0:0:0:
209,87,75394,6,0,L|147:112,1,50
55,231,75570,2,0,L|79:186,1,50
20,37,75745,2,0,L|51:76,1,50
172,193,75921,2,0,L|205:229,1,50
310,337,76096,2,0,L|276:300,1,50
125,368,76272,2,0,L|161:334,1,50
357,145,76447,2,0,L|320:178,1,50
60,239,76622,2,0,P|61:100|155:64,1,225.000008583069
272,70,76973,53,0,0:0:0:0:
336,107,77060,1,0,0:0:0:0:
383,165,77148,1,0,0:0:0:0:
393,239,77236,1,0,0:0:0:0:
361,307,77324,2,0,P|223:282|193:171,1,225.000008583069
168,66,77675,5,0,0:0:0:0:
95,72,77762,1,0,0:0:0:0:
47,128,77850,1,0,0:0:0:0:
52,201,77938,1,0,0:0:0:0:
108,251,78026,54,0,P|186:211|260:208,2,150.000005722046
17,128,78552,1,0,0:0:0:0:
103,336,78728,1,0,0:0:0:0:
125,73,78903,2,0,P|187:33|256:35,1,125
316,188,79254,2,0,P|359:206|307:127,1,250
218,238,79780,1,0,0:0:0:0:
156,76,79956,2,0,B|97:92|33:81|33:81|37:154|1:203,1,250
223,329,80482,5,0,0:0:0:0:
127,199,80658,1,0,0:0:0:0:
297,254,80833,2,0,B|332:209|377:207|377:207|402:174|398:136|398:136|453:136|494:83,1,250
293,75,81360,2,0,B|308:124|354:140|354:140|356:210|356:210|394:225|414:271,1,250
256,192,81886,12,0,83289,0:0:0:0:
114,84,85044,5,0,0:0:0:0:
162,148,85394,1,0,0:0:0:0:
379,57,85921,1,0,0:0:0:0:
298,76,86096,1,0,0:0:0:0:
422,259,86447,5,0,0:0:0:0:
380,165,86622,1,0,0:0:0:0:
474,174,86798,1,0,0:0:0:0:
302,217,86973,2,0,P|284:216|240:188,1,50
176,164,87324,2,0,P|194:165|238:193,1,50
372,272,87676,1,0,0:0:0:0:
411,116,87851,1,0,0:0:0:0:
318,183,88026,5,0,0:0:0:0:
236,76,88201,1,0,0:0:0:0:
387,182,88377,1,0,0:0:0:0:
166,93,88552,2,0,P|110:117|95:151,1,75.0000028610231,0|0,0:0|0:0,0:0:0:0:
137,298,88903,1,0,0:0:0:0:
241,109,89079,1,0,0:0:0:0:
222,292,89254,2,0,P|374:306|278:75,1,500,0|0,0:0|0:0,0:0:0:0:
440,96,90307,38,0,P|473:162|462:235,1,110.000003356934,0|0,0:0|0:0,0:0:0:0:
311,194,90658,2,0,B|200:98|94:210|4:103,1,330.000010070801,0|0,0:0|0:0,0:0:0:0:
127,52,91359,2,0,B|215:112|154:168|81:226|163:314|256:328|322:236,1,389.999982147218,0|0,0:0|0:0,0:0:0:0:
376,107,92061,2,0,P|320:110|261:157,1,110.000003356934,0|0,0:0|0:0,0:0:0:0:
83,290,92412,2,0,P|145:277|194:242,1,110.000003356934,0|0,0:0|0:0,0:0:0:0:
197,168,92763,2,0,P|153:143|110:136,1,75.0000028610231,0|0,0:0|0:0,0:0:0:0:
268,233,93114,2,0,P|312:255|357:257,1,75.0000028610231,0|0,0:0|0:0,0:0:0:0:
443,140,93465,2,0,B|390:123|362:85|362:85|306:113|261:91,1,200,0|0,0:0|0:0,0:0:0:0:
184,84,94342,5,0,0:0:0:0:
203,129,94517,1,0,0:0:0:0:
153,124,94693,1,0,0:0:0:0:
105,243,94868,1,0,0:0:0:0:
72,176,95044,1,0,0:0:0:0:
246,269,95219,1,0,0:0:0:0:
275,199,95394,2,0,L|297:138,1,50
176,206,95745,1,0,0:0:0:0:
361,290,95921,2,0,P|390:300|428:298,1,50
318,221,96272,2,0,P|342:278|464:173,1,300.000011444092
393,157,97149,5,0,0:0:0:0:
326,107,97324,1,0,0:0:0:0:
322,31,97500,1,0,0:0:0:0:
187,72,97675,1,0,0:0:0:0:
265,231,97851,1,0,0:0:0:0:
148,182,98026,1,0,0:0:0:0:
304,138,98201,2,0,P|327:97|331:71,1,50
138,202,98552,1,0,0:0:0:0:
21,63,98728,2,0,P|0:20|-1:-5,1,50
231,59,99079,38,0,B|260:126|404:139|404:139|320:271|226:144|121:226,1,500,0|0,0:0|0:0,0:0:0:0:
115,334,100131,2,0,P|151:296|218:266,1,100,0|0,0:0|0:0,0:0:0:0:
405,268,100482,2,0,P|346:299|352:139,1,300,0|0,0:0|0:0,0:0:0:0:
459,211,101184,5,0,0:0:0:0:
207,143,101359,1,0,0:0:0:0:
376,73,101535,1,0,0:0:0:0:
161,244,101710,1,0,0:0:0:0:
27,63,101886,2,0,B|139:89|264:56|264:56|271:139|389:140,1,359.999989013672,0|0,0:0|0:0,0:0:0:0:
395,11,102587,2,0,L|91:315,1,419.999987182618,0|0,0:0|0:0,0:0:0:0:
297,313,103289,2,0,P|92:308|76:126,1,419.999987182618,0|0,0:0|0:0,0:0:0:0:
199,208,103991,2,0,B|268:175|268:175|378:128|338:55|242:42|189:95|268:175|268:175|307:213|368:230,1,450.000017166138,0|0,0:0|0:0,0:0:0:0:
414,243,104693,5,0,0:0:0:0:
453,309,104868,1,0,0:0:0:0:
317,263,105044,1,0,0:0:0:0:
326,335,105219,1,0,0:0:0:0:
215,231,105394,1,0,0:0:0:0:
164,285,105570,1,0,0:0:0:0:
192,139,105745,1,0,0:0:0:0:
111,138,105921,1,0,0:0:0:0:
273,16,106096,37,0,0:0:0:0:
357,142,106272,1,0,0:0:0:0:
219,74,106447,1,0,0:0:0:0:
401,76,106622,2,0,P|446:110|448:171,1,100
320,53,106973,1,0,0:0:0:0:
440,228,107149,1,0,0:0:0:0:
224,251,107324,2,0,P|119:151|206:56,1,300
328,75,108026,5,0,0:0:0:0:
404,109,108201,1,0,0:0:0:0:
245,154,108377,1,0,0:0:0:0:
277,225,108552,1,0,0:0:0:0:
125,131,108728,5,0,0:0:0:0:
26,268,108903,1,0,0:0:0:0:
65,69,109079,2,0,P|113:49|178:61,1,100
26,268,109429,2,0,P|3:219|13:154,1,100
108,246,109780,1,0,0:0:0:0:
283,95,109956,1,0,0:0:0:0:
268,291,110131,2,0,P|220:311|155:299,1,100
283,95,110482,2,0,P|306:144|296:209,1,100
478,263,110833,2,0,P|487:218|489:163,2,100
327,328,111359,37,0,0:0:0:0:
374,262,111535,1,0,0:0:0:0:
212,239,111710,2,0,L|327:178,1,119.999996337891
189,134,112061,1,0,0:0:0:0:
202,275,112236,2,0,L|317:214,1,119.999996337891
118,215,112587,5,0,0:0:0:0:
82,72,112763,1,0,0:0:0:0:
242,119,112938,2,0,L|372:160,2,119.999996337891
82,72,113465,1,0,0:0:0:0:
178,204,113640,2,0,L|71:260,1,119.999996337891
66,111,113991,1,0,0:0:0:0:
170,256,114166,2,0,L|63:312,1,119.999996337891
247,334,114517,6,0,B|293:340|329:318|329:318|338:279|372:262|372:262|419:277|461:259|461:259|463:218|491:194,1,300.000011444092
493,63,115044,2,0,B|438:82|420:129|420:129|374:116|374:116|333:165|333:165|288:121|231:169,1,300.000011444092
1,311,115570,2,0,B|137:252|295:274|295:274|192:161|100:162|26:185|26:185|211:229|132:27|309:48,1,900.000034332277
285,147,116798,1,0,0:0:0:0:
377,86,116973,2,0,L|424:200,1,119.999996337891
360,287,117324,1,0,0:0:0:0:
469,305,117500,1,0,0:0:0:0:
246,268,117675,1,0,0:0:0:0:
337,143,117851,2,0,P|304:82|261:59,1,119.999996337891
102,291,118201,37,0,0:0:0:0:
225,170,118377,1,0,0:0:0:0:
88,55,118552,2,0,B|110:114|59:197|59:197|205:108|331:230|331:230|272:27|460:22|460:22|457:115|399:168,1,900.000034332277
329,301,119780,1,0,0:0:0:0:
412,248,119956,1,0,0:0:0:0:
228,196,120131,5,0,0:0:0:0:
204,341,120307,1,0,0:0:0:0:
235,172,120482,1,0,0:0:0:0:
199,361,120657,2,0,P|271:369|322:349,1,119.999996337891
403,164,121008,2,0,P|403:236|378:285,1,119.999996337891
310,67,121359,2,0,P|371:105|399:152,1,119.999996337891
247,215,121710,1,0,0:0:0:0:
137,97,121886,1,0,0:0:0:0:
332,228,122061,2,0,P|298:277|243:299,1,119.999996337891
84,205,122412,5,0,0:0:0:0:
232,119,122587,1,0,0:0:0:0:
163,81,122763,1,0,0:0:0:0:
234,279,122938,1,0,0:0:0:0:
288,219,123114,1,0,0:0:0:0:
110,160,123289,37,0,0:0:0:0:
312,230,123465,1,0,0:0:0:0:
251,37,123640,1,0,0:0:0:0:
168,307,123815,1,0,0:0:0:0:
390,104,123991,1,0,0:0:0:0:
90,14,124166,1,0,0:0:0:0:
136,219,124342,5,0,0:0:0:0:
194,228,124429,1,0,0:0:0:0:
252,215,124517,1,0,0:0:0:0:
301,180,124605,1,0,0:0:0:0:
333,129,124692,1,0,0:0:0:0:
392,118,124780,1,0,0:0:0:0:
448,137,124867,1,0,0:0:0:0:
486,183,124955,1,0,0:0:0:0:
492,242,125043,1,0,0:0:0:0:
435,222,125131,5,0,0:0:0:0:
388,184,125218,1,0,0:0:0:0:
330,166,125306,1,0,0:0:0:0:
270,172,125394,1,0,0:0:0:0:
211,182,125481,1,0,0:0:0:0:
151,189,125569,1,0,0:0:0:0:
92,176,125657,1,0,0:0:0:0:
44,138,125745,38,0,P|25:94|19:61,3,59.9999981689454
172,72,126096,1,0,0:0:0:0:
169,132,126184,1,0,0:0:0:0:
151,189,126272,2,0,P|109:243|94:252,3,59.9999981689454
188,333,126622,1,0,0:0:0:0:
245,315,126710,1,0,0:0:0:0:
293,279,126798,2,0,B|343:197|287:85|287:85|410:47|470:160,1,419.999987182618
499,259,127500,6,0,L|507:305,2,42.5000008106232
399,227,127763,2,0,L|379:171,2,42.5000008106232
323,295,128026,1,0,0:0:0:0:
307,314,128114,1,0,0:0:0:0:
290,336,128201,2,0,P|261:318|237:312,1,37.5000014305115
147,313,128377,2,0,P|176:331|200:337,1,37.5000014305115
225,233,128552,22,0,B|173:204|173:204|162:134|162:134|100:172,1,200
93,58,129429,1,0,0:0:0:0:
142,50,129516,1,0,0:0:0:0:
191,43,129604,1,0,0:0:0:0:
241,36,129692,1,0,0:0:0:0:
226,84,129780,1,0,0:0:0:0:
262,118,129867,1,0,0:0:0:0:
298,153,129955,1,0,0:0:0:0:
334,188,130043,1,0,0:0:0:0:
291,213,130131,5,0,0:0:0:0:
243,228,130218,1,0,0:0:0:0:
195,242,130306,1,0,0:0:0:0:
147,256,130394,1,0,0:0:0:0:
192,277,130482,1,0,0:0:0:0:
239,292,130569,1,0,0:0:0:0:
287,307,130657,1,0,0:0:0:0:
334,322,130745,1,0,0:0:0:0:
388,290,130833,53,0,0:0:0:0:
434,232,130920,1,0,0:0:0:0:
444,158,131008,1,0,0:0:0:0:
416,90,131096,1,0,0:0:0:0:
357,45,131183,1,0,0:0:0:0:
283,37,131271,1,0,0:0:0:0:
215,67,131359,2,0,B|171:135|171:135|114:76|114:76|74:102,1,200
90,255,132236,5,0,0:0:0:0:
136,237,132323,1,0,0:0:0:0:
183,219,132411,1,0,0:0:0:0:
230,202,132499,1,0,0:0:0:0:
242,250,132587,53,0,0:0:0:0:
269,208,132674,1,0,0:0:0:0:
297,166,132762,1,0,0:0:0:0:
325,125,132850,1,0,0:0:0:0:
347,82,132938,6,0,L|372:36,1,50
512,39,133114,2,0,L|488:82,1,50
478,246,133289,2,0,L|501:202,1,50
417,115,133465,2,0,L|393:158,1,50
466,274,133640,2,0,L|489:230,1,50
405,143,133816,2,0,L|381:186,1,50
453,297,133991,2,0,L|476:253,1,50
389,174,134166,2,0,B|326:222|244:118|365:70|290:26|238:29,1,225.000008583069
132,23,134517,53,0,0:0:0:0:
66,57,134604,1,0,0:0:0:0:
25,119,134692,1,0,0:0:0:0:
18,193,134780,1,0,0:0:0:0:
47,261,134868,2,0,P|152:321|265:303,1,225.000008583069
346,147,135219,5,0,0:0:0:0:
273,135,135306,1,0,0:0:0:0:
215,179,135394,1,0,0:0:0:0:
206,251,135482,1,0,0:0:0:0:
251,309,135570,2,0,P|330:334|432:232,1,225.000008583069
426,86,135921,53,0,0:0:0:0:
361,48,136008,1,0,0:0:0:0:
288,34,136096,1,0,0:0:0:0:
214,45,136184,1,0,0:0:0:0:
148,80,136272,2,0,P|108:119|91:154,1,62.5
0,235,136447,2,0,P|55:248|94:246,1,62.5
213,283,136623,2,0,P|198:229|177:196,3,62.5
300,120,136973,6,0,P|344:173|356:295,1,187.5
348,327,137324,1,0,0:0:0:0:
317,72,137500,2,0,P|388:171|372:359,1,312.5
204,355,138026,2,0,P|132:316|128:211,1,187.5
61,143,138377,38,0,B|109:104|159:123|159:123|155:72|203:45|203:45|242:93|305:93,1,300.000011444092
221,213,138904,2,0,B|268:230|293:299|293:299|353:324|376:270|376:270|429:351,1,300.000011444092
461,133,139430,2,0,B|421:165|370:139|370:139|326:177,1,150.000005722046
145,144,139780,6,0,B|212:126|212:126|194:67|194:67|125:85,1,200
51,162,140658,1,0,0:0:0:0:
70,208,140745,1,0,0:0:0:0:
89,254,140833,1,0,0:0:0:0:
108,300,140921,1,0,0:0:0:0:
137,259,141008,1,0,0:0:0:0:
176,228,141095,1,0,0:0:0:0:
216,198,141183,1,0,0:0:0:0:
256,167,141271,1,0,0:0:0:0:
241,215,141359,5,0,0:0:0:0:
221,261,141446,1,0,0:0:0:0:
202,307,141534,1,0,0:0:0:0:
182,353,141622,1,0,0:0:0:0:
232,349,141710,1,0,0:0:0:0:
281,345,141797,1,0,0:0:0:0:
331,342,141885,1,0,0:0:0:0:
381,339,141973,1,0,0:0:0:0:
378,294,142061,53,0,0:0:0:0:
350,226,142148,1,0,0:0:0:0:
361,152,142236,1,0,0:0:0:0:
348,79,142324,1,0,0:0:0:0:
287,39,142411,1,0,0:0:0:0:
214,48,142499,1,0,0:0:0:0:
166,103,142587,2,0,B|139:146|139:146|63:141|63:141|16:205,1,200
55,51,143465,5,0,0:0:0:0:
81,93,143552,1,0,0:0:0:0:
107,136,143640,1,0,0:0:0:0:
133,178,143728,1,0,0:0:0:0:
160,143,143815,53,0,0:0:0:0:
209,143,143902,1,0,0:0:0:0:
259,144,143990,1,0,0:0:0:0:
309,144,144078,1,0,0:0:0:0:
299,193,144166,6,0,L|278:256,1,50
385,364,144342,2,0,L|400:316,1,50
512,170,144517,2,0,L|491:233,1,50
317,342,144693,2,0,L|332:294,1,50
448,101,144868,2,0,L|427:164,1,50
490,382,145044,2,0,L|469:319,1,62.5
363,103,145219,2,0,L|348:35,1,62.5
260,80,145394,2,0,P|201:161|67:131,1,225.000008583069
27,243,145745,53,0,0:0:0:0:
95,272,145832,1,0,0:0:0:0:
170,275,145920,1,0,0:0:0:0:
241,253,146008,1,0,0:0:0:0:
299,207,146096,2,0,P|406:173|517:229,1,225.000008583069
439,339,146447,5,0,0:0:0:0:
364,334,146534,1,0,0:0:0:0:
295,304,146622,1,0,0:0:0:0:
241,253,146710,1,0,0:0:0:0:
209,186,146798,54,0,P|140:121|36:113,2,150.000005722046
52,189,147324,1,0,0:0:0:0:
244,84,147500,1,0,0:0:0:0:
417,192,147675,2,0,P|415:261|348:306,1,139.999995727539
359,14,148026,2,0,P|449:44|520:209,1,279.999991455078
270,327,148552,1,0,0:0:0:0:
96,157,148728,2,0,B|69:94|6:48|6:48|63:62|154:37,1,279.999991455078
377,84,149254,5,0,0:0:0:0:
159,266,149429,1,0,0:0:0:0:
207,34,149605,2,0,B|222:83|268:99|268:99|277:180|277:180|334:190|343:258,1,279.999991455078
59,343,150131,2,0,B|81:293|128:310|128:310|164:258,1,139.999995727539
318,26,150482,1,0,0:0:0:0:
96,134,150658,1,0,0:0:0:0:
406,81,150833,1,0,0:0:0:0:
69,229,151008,2,0,P|21:282|150:370,1,250
193,315,151535,5,0,0:0:0:0:
264,363,151710,1,0,0:0:0:0:
315,303,151886,1,0,0:0:0:0:
391,333,152061,1,0,0:0:0:0:
417,255,152236,2,0,P|407:211|427:154,1,80
325,70,152587,2,0,P|296:121|298:160,1,69.9999978637696
212,252,152938,1,0,0:0:0:0:
225,21,153114,6,0,P|214:76|192:115,1,69.9999978637696
259,170,153465,1,0,0:0:0:0:
181,257,153640,2,0,P|161:203|161:162,2,69.9999978637696
300,244,154166,1,0,0:0:0:0:
253,353,154342,1,0,0:0:0:0:
488,153,154517,6,0,P|462:202|467:238,1,69.9999978637696
414,280,154868,1,0,0:0:0:0:
367,212,155044,1,0,0:0:0:0:
295,117,155219,6,0,B|249:104|249:104|225:136,1,64.9999970245363
181,119,155394,2,0,B|226:131|226:131|252:100,1,64.9999970245363
307,229,155570,2,0,L|226:192,1,75.0000028610231
170,229,155745,2,0,L|251:192,1,75.0000028610231
318,46,155921,1,0,0:0:0:0:
168,29,156096,2,0,B|199:41|199:41|267:25,1,62.5
427,102,156272,2,0,P|368:152|273:146,1,150
496,256,156622,2,0,B|412:228|346:309|284:266,1,209.999993591309
79,190,157324,21,0,0:0:0:0:
120,271,157500,1,0,0:0:0:0:
170,199,157675,1,0,0:0:0:0:
131,117,157851,2,0,P|110:82|110:31,1,69.9999978637696
206,5,158201,5,0,0:0:0:0:
277,71,158377,1,0,0:0:0:0:
374,25,158552,2,0,P|411:82|409:109,1,69.9999978637696
337,147,158903,1,0,0:0:0:0:
415,266,159079,1,0,0:0:0:0:
484,147,159254,2,0,L|401:193,2,69.9999978637696
171,238,159956,5,0,0:0:0:0:
138,67,160131,2,0,P|122:123|98:146,1,69.9999978637696
243,52,160482,1,0,0:0:0:0:
285,137,160658,2,0,P|316:177|338:182,1,69.9999978637696
210,232,161008,1,0,0:0:0:0:
359,310,161184,1,0,0:0:0:0:
131,287,161359,1,0,0:0:0:0:
406,248,161535,1,0,0:0:0:0:
118,185,161710,37,0,0:0:0:0:
86,200,161798,1,0,0:0:0:0:
61,225,161886,1,0,0:0:0:0:
47,257,161973,1,0,0:0:0:0:
44,292,162061,2,0,P|46:315|52:332,1,34.9999989318848
229,224,162236,2,0,B|266:161|353:224|393:98,1,179.999994506836
279,63,162763,1,0,0:0:0:0:
195,302,162938,5,0,0:0:0:0:
141,231,163114,1,0,0:0:0:0:
60,188,163289,1,0,0:0:0:0:
62,97,163465,2,0,P|116:118|161:172,1,89.9999972534181
290,222,163815,1,0,0:0:0:0:
194,219,163991,1,0,0:0:0:0:
357,144,164166,2,0,P|407:161|431:189,2,89.9999972534181
224,125,164693,1,0,0:0:0:0:
303,26,164868,2,0,P|350:21|395:33,2,89.9999972534181
296,308,165570,53,0,0:0:0:0:
446,184,165745,2,0,P|388:143|360:100,1,89.9999972534181
355,237,166096,1,0,0:0:0:0:
444,93,166272,1,0,0:0:0:0:
272,74,166447,38,0,B|284:109|284:109|249:163,1,64.9999970245363
265,190,166622,2,0,B|253:155|253:155|288:101,1,64.9999970245363
189,33,166798,2,0,L|168:95,1,59.9999981689454
149,146,166973,2,0,L|180:60,1,59.9999981689454
36,120,167149,2,0,P|70:120|96:98,1,55.0000016784668
98,55,167324,2,0,P|92:92|77:128,1,55.0000016784668
58,240,167500,2,0,P|115:273|204:275,1,150
106,351,167851,2,0,B|225:387|294:289|406:333,1,269.999991760254
441,85,168552,21,0,0:0:0:0:
368,140,168728,1,0,0:0:0:0:
429,212,168903,1,0,0:0:0:0:
368,60,169079,2,0,P|326:37|278:37,1,89.9999972534181
270,139,169429,1,0,0:0:0:0:
177,207,169605,1,0,0:0:0:0:
167,96,169780,2,0,P|129:69|83:61,1,89.9999972534181
177,207,170131,5,0,0:0:0:0:
80,160,170307,1,0,0:0:0:0:
270,141,170482,2,0,P|326:117|351:98,2,89.9999972534181
360,299,171184,1,0,0:0:0:0:
463,218,171359,2,0,P|414:200|373:205,1,89.9999972534181
473,110,171710,1,0,0:0:0:0:
323,114,171886,2,0,P|285:161|274:219,1,89.9999972534181
216,317,172236,5,0,0:0:0:0:
169,154,172412,1,0,0:0:0:0:
96,374,172587,2,0,L|96:280,1,89.9999972534181
97,205,172938,1,0,0:0:0:0:
97,221,173026,1,0,0:0:0:0:
97,240,173114,1,0,0:0:0:0:
166,183,173289,1,0,0:0:0:0:
27,259,173465,1,0,0:0:0:0:
95,76,179079,38,0,L|117:114,3,37.5000014305115,2|0|0|0,0:0|0:0|0:0|0:0,0:0:0:0:
251,51,179430,2,0,L|238:94,1,37.5000014305115,2|0,0:0|0:0,0:0:0:0:
375,152,179605,2,0,L|332:173,1,37.5000014305115,2|0,0:0|0:0,0:0:0:0:
331,82,179780,2,0,L|305:109,1,37.5000014305115,2|0,0:0|0:0,0:0:0:0:
389,240,179956,2,0,L|351:236,1,37.5000014305115,2|0,0:0|0:0,0:0:0:0:
201,224,180131,2,0,L|158:248,3,37.5000014305115,2|0|0|0,0:0|0:0|0:0|0:0,0:0:0:0:
303,309,180482,6,0,L|322:351,3,37.5000014305115,2|0|0|0,0:0|0:0|0:0|0:0,0:0:0:0:
270,200,180833,2,0,L|255:149,3,37.5000014305115,2|0|0|0,0:0|0:0|0:0|0:0,0:0:0:0:
380,252,181184,2,0,L|400:297,3,37.5000014305115,2|0|0|0,0:0|0:0|0:0|0:0,0:0:0:0:
346,149,181535,2,0,L|331:114,3,37.5000014305115,2|0|0|0,0:0|0:0|0:0|0:0,0:0:0:0:
303,309,181886,5,0,0:0:0:0:
269,326,181973,1,0,0:0:0:0:
233,335,182061,1,0,0:0:0:0:
196,337,182149,1,0,0:0:0:0:
155,325,182236,38,0,L|111:292,1,42.5000008106232,2|0,0:0|0:0,0:0:0:0:
164,164,182412,2,0,L|216:214,1,42.5000008106232,2|0,0:0|0:0,0:0:0:0:
59,227,182587,2,0,L|25:157,1,47.4999987316132,2|0,0:0|0:0,0:0:0:0:
71,48,182763,2,0,L|144:77,1,47.4999987316132,2|0,0:0|0:0,0:0:0:0:
236,74,182938,1,0,0:0:0:0:
288,74,183025,1,0,0:0:0:0:
338,60,183113,1,0,0:0:0:0:
383,33,183201,1,0,0:0:0:0:
420,61,183289,6,0,L|463:100,7,37.5000014305115,2|0|0|0|0|0|0|0,0:0|0:0|0:0|0:0|0:0|0:0|0:0|0:0,0:0:0:0:
425,35,183640,2,0,L|446:11,7,32.4999985122681,2|0|0|0|0|0|0|0,0:0|0:0|0:0|0:0|0:0|0:0|0:0|0:0,0:0:0:0:
398,46,183991,2,0,L|374:30,7,27.5000008392334,2|0|0|0|0|0|0|0,0:0|0:0|0:0|0:0|0:0|0:0|0:0|0:0,0:0:0:0:
393,77,184342,2,0,L|369:108,4,22.4999993133545,2|0|0|0|0,0:0|0:0|0:0|0:0|0:0,0:0:0:0:
272,79,184693,5,0,0:0:0:0:
248,117,184780,1,0,0:0:0:0:
224,155,184868,1,0,0:0:0:0:
200,193,184956,1,0,0:0:0:0:
233,206,185044,1,0,0:0:0:0:
249,247,185131,1,0,0:0:0:0:
265,289,185219,1,0,0:0:0:0:
281,331,185307,1,0,0:0:0:0:
318,307,185394,37,0,0:0:0:0:
362,311,185481,1,0,0:0:0:0:
407,316,185569,1,0,0:0:0:0:
452,320,185657,1,0,0:0:0:0:
437,267,185745,1,0,0:0:0:0:
401,202,185832,1,0,0:0:0:0:
338,161,185920,1,0,0:0:0:0:
277,119,186008,1,0,0:0:0:0:
243,54,186096,2,0,P|253:7|314:15,1,119.999996337891
110,63,186447,5,0,0:0:0:0:
203,120,186622,1,0,0:0:0:0:
52,202,186798,1,0,0:0:0:0:
169,208,186973,1,0,0:0:0:0:
110,353,187149,1,0,0:0:0:0:
206,289,187324,1,0,0:0:0:0:
300,384,187500,5,0,0:0:0:0:
315,184,187675,1,0,0:0:0:0:
483,293,187851,1,0,0:0:0:0:
254,238,188026,2,0,P|317:263|386:233,1,119.999996337891
463,111,188377,1,0,0:0:0:0:
483,293,188552,1,0,0:0:0:0:
380,86,188728,2,0,B|241:17|169:225|46:90,1,359.999989013672
135,62,189429,37,0,0:0:0:0:
175,160,189605,1,0,0:0:0:0:
322,69,189780,1,0,0:0:0:0:
281,172,189956,1,0,0:0:0:0:
452,148,190131,5,0,0:0:0:0:
267,278,190307,1,0,0:0:0:0:
324,68,190482,2,0,P|367:108|371:171,1,119.999996337891
185,214,190833,1,0,0:0:0:0:
427,64,191008,1,0,0:0:0:0:
205,276,191184,2,0,P|250:324|341:317,1,119.999996337891
263,25,191535,2,0,P|207:60|196:150,1,119.999996337891
512,75,191886,2,0,P|467:27|376:34,1,119.999996337891
456,332,192236,2,0,P|504:287|497:196,1,119.999996337891
325,149,192587,5,0,0:0:0:0:
211,108,192763,1,0,0:0:0:0:
358,132,192938,1,0,0:0:0:0:
177,129,193114,37,0,0:0:0:0:
198,369,193289,1,0,0:0:0:0:
123,290,193465,1,0,0:0:0:0:
358,310,193640,2,0,P|426:294|466:250,1,119.999996337891
503,84,193991,2,0,P|435:100|395:144,1,119.999996337891
384,331,194342,2,0,P|452:315|499:162,1,239.999992675781
247,223,194868,1,0,0:0:0:0:
63,97,195044,2,0,B|172:122|149:14|300:23,1,239.999992675781
359,162,195570,1,0,0:0:0:0:
468,46,195745,1,0,0:0:0:0:
248,117,195921,6,0,B|186:114|186:114|180:153|120:196|120:196|95:137|46:161|46:161|-11:199,1,255.000004863739
84,296,196272,1,0,0:0:0:0:
99,307,196359,1,0,0:0:0:0:
116,319,196447,2,0,B|180:352|205:291|205:291|284:319,1,170.000003242493
336,40,196798,1,0,0:0:0:0:
422,242,196973,2,0,B|375:262|345:221|345:221|276:247|226:198|226:198|146:215|116:158|116:158|68:84|166:-17|248:36|248:36|256:116|369:165|451:39,1,850.000016212464
512,152,198026,1,0,0:0:0:0:
460,313,198201,2,0,L|347:257,1,119.999996337891
489,178,198552,5,0,0:0:0:0:
370,366,198727,2,0,P|308:347|260:301,1,119.999996337891,0|0,0:0|0:0,0:0:0:0:
367,119,199079,1,0,0:0:0:0:
163,90,199254,2,0,P|136:149|139:215,1,119.999996337891,0|0,0:0|0:0,0:0:0:0:
237,38,199605,1,0,0:0:0:0:
86,61,199780,1,0,0:0:0:0:
427,158,199956,2,0,P|447:221|226:308,1,359.999989013672,0|0,0:0|0:0,0:0:0:0:
281,182,200658,1,0,0:0:0:0:
60,51,200833,37,0,0:0:0:0:
62,148,201008,1,0,0:0:0:0:
237,79,201184,1,0,0:0:0:0:
183,178,201359,1,0,0:0:0:0:
337,192,201535,5,0,0:0:0:0:
176,308,201710,1,0,0:0:0:0:
403,198,201886,1,0,0:0:0:0:
124,261,202061,2,0,P|66:226|60:163,1,119.999996337891
289,161,202412,2,0,P|347:196|353:259,1,119.999996337891
135,74,202763,2,0,P|182:26|279:36,1,119.999996337891
389,138,203114,1,0,0:0:0:0:
339,36,203289,1,0,0:0:0:0:
351,279,203465,2,0,P|424:286|480:247,1,119.999996337891
302,180,203815,22,0,L|268:254,1,59.9999981689454
210,334,203991,2,0,L|174:262,1,59.9999981689454
193,177,204166,2,0,L|120:197,1,59.9999981689454
73,285,204342,21,0,0:0:0:0:
37,81,204517,1,0,0:0:0:0:
138,322,204693,1,0,0:0:0:0:
99,112,204868,2,0,P|157:65|245:43,1,119.999996337891
389,177,205219,5,0,0:0:0:0:
330,21,205394,1,0,0:0:0:0:
193,142,205570,2,0,P|238:189|301:203,2,119.999996337891
342,273,206096,1,0,0:0:0:0:
57,260,206272,2,0,P|102:307|165:321,2,119.999996337891
72,38,206798,1,0,0:0:0:0:
149,219,206973,1,0,0:0:0:0:
206,57,207149,6,0,B|253:69|296:44|296:44|319:122|389:121|389:121|340:194|369:240,1,340.000006484985
208,142,207675,2,0,B|240:162|266:155|266:155|239:247|254:310|254:310|214:238|161:218,1,340.000006484985
104,62,208201,2,0,B|180:20|240:103|373:41,1,255.000004863739
433,96,208552,6,0,B|378:136|378:136|416:189|416:189|360:234,1,200
257,251,209429,1,0,0:0:0:0:
209,214,209516,1,0,0:0:0:0:
162,177,209604,1,0,0:0:0:0:
115,140,209692,1,0,0:0:0:0:
172,121,209780,1,0,0:0:0:0:
230,108,209867,1,0,0:0:0:0:
289,95,209955,1,0,0:0:0:0:
347,82,210043,1,0,0:0:0:0:
366,139,210131,5,0,0:0:0:0:
379,197,210218,1,0,0:0:0:0:
392,256,210306,1,0,0:0:0:0:
405,314,210394,1,0,0:0:0:0:
347,298,210482,1,0,0:0:0:0:
289,281,210569,1,0,0:0:0:0:
231,265,210657,1,0,0:0:0:0:
173,249,210745,1,0,0:0:0:0:
155,198,210833,53,0,0:0:0:0:
160,119,210920,1,0,0:0:0:0:
205,54,211008,1,0,0:0:0:0:
277,21,211096,1,0,0:0:0:0:
356,29,211183,1,0,0:0:0:0:
419,77,211271,1,0,0:0:0:0:
449,150,211359,2,0,B|392:186|392:186|326:163|326:163|306:92,1,200
241,40,212236,5,0,0:0:0:0:
182,28,212323,1,0,0:0:0:0:
123,17,212411,1,0,0:0:0:0:
64,5,212499,1,0,0:0:0:0:
30,55,212587,53,0,0:0:0:0:
49,111,212674,1,0,0:0:0:0:
68,168,212762,1,0,0:0:0:0:
87,225,212850,1,0,0:0:0:0:
104,269,212938,6,0,L|125:330,1,59.9999981689454
311,333,213114,2,0,L|290:272,1,59.9999981689454
155,274,213289,2,0,L|176:335,1,59.9999981689454
371,280,213465,2,0,P|363:239|350:219,1,59.9999981689454
405,104,213640,2,0,P|380:122|364:147,1,59.9999981689454
237,167,213815,2,0,P|265:179|295:180,1,59.9999981689454
512,101,213991,2,0,P|497:65|453:37,1,59.9999981689454
324,44,214166,2,0,B|205:150|157:10|44:131,1,255.000004863739
50,199,214517,53,0,0:0:0:0:
71,278,214604,1,0,0:0:0:0:
143,319,214692,1,0,0:0:0:0:
222,297,214780,1,0,0:0:0:0:
262,224,214868,2,0,P|331:141|459:228,1,255.000004863739
383,309,215219,5,0,0:0:0:0:
300,329,215306,1,0,0:0:0:0:
222,297,215394,1,0,0:0:0:0:
179,225,215482,1,0,0:0:0:0:
184,139,215570,2,0,P|122:65|83:179,1,255.000004863739
256,230,215921,53,0,0:0:0:0:
336,209,216008,1,0,0:0:0:0:
376,137,216096,1,0,0:0:0:0:
351,58,216184,1,0,0:0:0:0:
276,23,216272,2,0,P|230:20|185:36,1,69.9999978637696
95,110,216447,2,0,P|115:151|151:182,1,69.9999978637696
256,230,216622,2,0,P|281:191|290:144,3,69.9999978637696
422,97,216973,6,0,P|441:194|419:285,1,139.999995727539
334,97,217324,1,0,0:0:0:0:
482,307,217500,2,0,P|512:165|458:24,1,279.999991455078
298,39,218026,2,0,P|233:68|127:39,1,139.999995727539
42,214,218377,38,0,B|81:194|119:146|119:146|169:213|169:213|147:251|147:251|170:294|210:294|251:257,1,340.000006484985
280,93,218903,2,0,B|259:184|259:184|339:146|376:238|376:238|436:128,1,340.000006484985
214,30,219429,2,0,B|129:80|129:80|191:130|142:206|80:168,1,255.000004863739
28,243,219780,6,0,B|51:339|51:339|92:244,1,200
180,298,220658,1,0,0:0:0:0:
235,276,220745,1,0,0:0:0:0:
291,254,220833,1,0,0:0:0:0:
347,232,220921,1,0,0:0:0:0:
390,274,221008,1,0,0:0:0:0:
405,215,221095,1,0,0:0:0:0:
420,157,221183,1,0,0:0:0:0:
435,99,221271,1,0,0:0:0:0:
375,94,221359,5,0,0:0:0:0:
324,125,221446,1,0,0:0:0:0:
273,157,221534,1,0,0:0:0:0:
222,189,221622,1,0,0:0:0:0:
176,150,221710,1,0,0:0:0:0:
131,109,221797,1,0,0:0:0:0:
86,69,221885,1,0,0:0:0:0:
42,29,221973,1,0,0:0:0:0:
29,81,222061,53,0,0:0:0:0:
33,159,222148,1,0,0:0:0:0:
86,217,222236,1,0,0:0:0:0:
163,238,222324,1,0,0:0:0:0:
242,249,222411,1,0,0:0:0:0:
315,279,222499,1,0,0:0:0:0:
367,339,222587,2,0,B|408:249|408:249|499:192|499:192,1,200
465,298,223465,5,0,0:0:0:0:
418,259,223552,1,0,0:0:0:0:
372,221,223640,1,0,0:0:0:0:
326,182,223728,1,0,0:0:0:0:
386,185,223815,53,0,0:0:0:0:
340,224,223902,1,0,0:0:0:0:
295,263,223990,1,0,0:0:0:0:
250,303,224078,1,0,0:0:0:0:
191,292,224166,6,0,L|123:276,1,59.9999981689454
36,185,224342,2,0,L|104:201,1,59.9999981689454
199,261,224517,2,0,L|139:232,1,59.9999981689454
49,141,224693,2,0,L|113:171,1,59.9999981689454
248,195,224868,2,0,L|204:153,1,59.9999981689454
109,50,225044,2,0,L|150:93,1,59.9999981689454
286,165,225219,2,0,L|252:115,1,59.9999981689454
216,26,225395,2,0,P|333:38|412:153,1,240
342,236,225745,53,0,0:0:0:0:
263,246,225832,1,0,0:0:0:0:
194,286,225920,1,0,0:0:0:0:
123,322,226008,1,0,0:0:0:0:
44,330,226096,2,0,P|7:175|92:91,1,240
163,151,226447,5,0,0:0:0:0:
241,164,226534,1,0,0:0:0:0:
318,145,226622,1,0,0:0:0:0:
382,98,226710,1,0,0:0:0:0:
422,29,226798,54,0,P|469:107|463:182,2,160
230,48,227324,1,0,0:0:0:0:
341,209,227500,1,0,0:0:0:0:
177,52,227675,2,0,P|98:65|78:152,1,139.999995727539
194,256,228026,1,0,0:0:0:0:
401,181,228201,2,0,P|461:218|340:250,1,279.999991455078
247,71,228728,1,0,0:0:0:0:
108,189,228903,2,0,B|92:268|32:301|32:301|96:305|176:368,1,279.999991455078
160,108,229429,1,0,0:0:0:0:
443,229,229605,6,0,B|402:190|349:212|349:212|330:164|366:93|366:93|265:116|215:53,1,340.000006484985
69,287,230132,2,0,B|109:259|114:199|114:199|166:228,1,85.0000016212464
85,143,230307,2,0,P|52:102|49:73,4,50
256,192,230745,12,0,232061,0:0:0:0:
