osu file format v14

[General]
AudioFilename: norudon2000.mp3
AudioLeadIn: 0
PreviewTime: 29585
Countdown: 0
SampleSet: Normal
StackLeniency: 0.7
Mode: 1
LetterboxInBreaks: 0
SkinPreference:taiko
WidescreenStoryboard: 1

[Editor]
Bookmarks: 785,10385,15185,24785,29585,39185,53585,67985,72785,82385,87185,107756,111933,116733,137133
DistanceSpacing: 0.9
BeatDivisor: 2
GridSize: 32
TimelineZoom: 0.7000008

[Metadata]
Title:Norudon2000
TitleUnicode:ノるどん2000
Artist:LindaAI-CUE
ArtistUnicode:LindaAI-CUE
Creator:OnosakiHito
Version:Muzukashii
Source:太鼓の達人
Tags:taiko no tatsujin
BeatmapID:742106
BeatmapSetID:335229

[Difficulty]
HPDrainRate:7
CircleSize:5
OverallDifficulty:5
ApproachRate:5
SliderMultiplier:1.4
SliderTickRate:1

[Events]
//Background and Video events
0,0,"Taiko_BG.jpg",0,12
//Break Periods
//Storyboard Layer 0 (Background)
//Storyboard Layer 1 (Fail)
//Storyboard Layer 2 (Pass)
//Storyboard Layer 3 (Foreground)
//Storyboard Sound Samples

[TimingPoints]
785,300,4,1,0,80,1,0
15185,-100,4,1,0,80,0,1
24785,-100,4,1,0,80,0,0
53585,300,3,1,0,80,1,0
67985,300,4,1,0,80,1,0
87185,428.571428571429,3,1,0,80,1,8
107756,394.736842105263,3,1,0,80,1,0
108940,361.44578313253,3,1,0,80,1,0
110024,333.333333333333,3,1,0,80,1,0
111024,303.030303030303,3,1,0,80,1,0
111933,300,4,1,0,80,1,0
116733,-100,4,1,0,80,0,1
137133,-100,4,1,0,80,0,0

[HitObjects]
256,192,785,5,0,0:0:0:0:
256,192,1085,5,8,0:0:0:0:
256,192,1235,5,0,0:0:0:0:
256,192,1535,1,0,0:0:0:0:
256,192,1685,1,0,0:0:0:0:
256,192,1985,1,0,0:0:0:0:
256,192,2285,5,8,0:0:0:0:
256,192,2435,5,0,0:0:0:0:
256,192,2885,5,0,0:0:0:0:
256,192,3185,1,0,0:0:0:0:
256,192,3485,5,8,0:0:0:0:
256,192,3635,5,0,0:0:0:0:
256,192,3935,1,0,0:0:0:0:
256,192,4085,1,0,0:0:0:0:
256,192,4385,1,0,0:0:0:0:
256,192,4985,5,8,0:0:0:0:
256,192,5285,1,8,0:0:0:0:
256,192,5585,5,0,0:0:0:0:
256,192,5885,5,8,0:0:0:0:
256,192,6035,5,0,0:0:0:0:
256,192,6335,1,0,0:0:0:0:
256,192,6485,1,0,0:0:0:0:
256,192,6785,1,0,0:0:0:0:
256,192,7085,5,8,0:0:0:0:
256,192,7235,5,0,0:0:0:0:
256,192,7685,1,0,0:0:0:0:
256,192,7985,1,0,0:0:0:0:
256,192,8285,5,8,0:0:0:0:
256,192,8435,5,0,0:0:0:0:
256,192,8735,1,0,0:0:0:0:
256,192,8885,1,0,0:0:0:0:
256,192,9185,5,12,0:0:0:0:
256,192,9485,1,12,0:0:0:0:
256,192,9785,1,12,0:0:0:0:
256,192,10085,1,12,0:0:0:0:
256,192,10385,5,4,0:0:0:0:
256,192,11435,1,4,0:0:0:0:
256,192,11585,5,12,0:0:0:0:
256,192,12635,5,4,0:0:0:0:
256,192,12785,5,12,0:0:0:0:
256,192,13385,1,12,0:0:0:0:
256,192,13985,1,12,0:0:0:0:
256,192,14285,1,12,0:0:0:0:
256,192,14585,5,0,0:0:0:0:
256,192,14735,1,0,0:0:0:0:
256,192,14885,5,12,0:0:0:0:
256,192,15185,5,0,0:0:0:0:
256,192,15335,5,8,0:0:0:0:
256,192,15485,5,0,0:0:0:0:
256,192,15635,5,8,0:0:0:0:
256,192,15785,5,0,0:0:0:0:
256,192,16085,5,8,0:0:0:0:
256,192,16385,1,0,0:0:0:0:
256,192,16535,1,0,0:0:0:0:
256,192,16685,1,0,0:0:0:0:
256,192,16985,5,8,0:0:0:0:
256,192,17285,1,8,0:0:0:0:
256,192,17585,5,0,0:0:0:0:
256,192,17735,5,8,0:0:0:0:
256,192,17885,5,0,0:0:0:0:
256,192,18035,5,8,0:0:0:0:
256,192,18185,5,0,0:0:0:0:
256,192,18485,1,0,0:0:0:0:
256,192,18785,5,8,0:0:0:0:
256,192,18935,1,8,0:0:0:0:
256,192,19085,1,8,0:0:0:0:
256,192,19385,5,0,0:0:0:0:
256,192,19985,5,8,0:0:0:0:
256,192,20135,5,0,0:0:0:0:
256,192,20285,5,8,0:0:0:0:
256,192,20435,5,0,0:0:0:0:
256,192,20585,5,8,0:0:0:0:
256,192,20885,5,0,0:0:0:0:
256,192,21185,5,8,0:0:0:0:
256,192,21335,1,8,0:0:0:0:
256,192,21485,1,8,0:0:0:0:
256,192,21785,5,0,0:0:0:0:
256,192,22085,1,0,0:0:0:0:
256,192,22385,5,8,0:0:0:0:
256,192,22535,5,0,0:0:0:0:
256,192,22685,5,8,0:0:0:0:
256,192,22835,5,0,0:0:0:0:
256,192,22985,5,8,0:0:0:0:
256,192,23285,1,8,0:0:0:0:
256,192,23585,5,0,0:0:0:0:
256,192,23735,1,0,0:0:0:0:
256,192,23885,1,0,0:0:0:0:
256,192,24185,5,8,0:0:0:0:
256,192,24485,1,8,0:0:0:0:
256,192,24785,5,4,0:0:0:0:
256,192,25835,1,4,0:0:0:0:
256,192,25985,1,4,0:0:0:0:
256,192,26285,1,4,0:0:0:0:
256,192,26435,1,4,0:0:0:0:
256,192,26735,1,4,0:0:0:0:
256,192,26885,1,4,0:0:0:0:
256,192,27185,1,0,0:0:0:0:
256,192,27335,5,8,0:0:0:0:
256,192,27485,1,8,0:0:0:0:
256,192,27635,1,8,0:0:0:0:
256,192,27785,1,8,0:0:0:0:
256,192,28385,5,4,0:0:0:0:
256,192,28835,1,4,0:0:0:0:
256,192,29285,5,12,0:0:0:0:
256,192,29585,5,0,0:0:0:0:
256,192,29735,1,0,0:0:0:0:
256,192,29885,1,0,0:0:0:0:
256,192,30035,1,0,0:0:0:0:
256,192,30185,1,0,0:0:0:0:
256,192,30785,5,8,0:0:0:0:
256,192,30935,1,8,0:0:0:0:
256,192,31085,1,8,0:0:0:0:
256,192,31235,1,8,0:0:0:0:
256,192,31385,1,8,0:0:0:0:
256,192,31985,5,0,0:0:0:0:
256,192,32135,1,0,0:0:0:0:
256,192,32285,1,0,0:0:0:0:
256,192,32435,1,0,0:0:0:0:
256,192,32585,5,8,0:0:0:0:
256,192,32885,1,8,0:0:0:0:
256,192,33185,5,0,0:0:0:0:
256,192,33335,1,0,0:0:0:0:
256,192,33485,1,0,0:0:0:0:
256,192,33635,1,0,0:0:0:0:
256,192,33785,1,0,0:0:0:0:
256,192,34385,5,8,0:0:0:0:
256,192,34535,1,8,0:0:0:0:
256,192,34685,1,8,0:0:0:0:
256,192,34835,1,8,0:0:0:0:
256,192,34985,1,8,0:0:0:0:
256,192,35585,5,0,0:0:0:0:
256,192,35735,1,0,0:0:0:0:
256,192,35885,1,0,0:0:0:0:
256,192,36035,1,0,0:0:0:0:
256,192,36185,1,0,0:0:0:0:
256,192,36785,5,8,0:0:0:0:
256,192,36935,1,8,0:0:0:0:
256,192,37085,1,8,0:0:0:0:
256,192,37235,1,8,0:0:0:0:
256,192,37385,5,0,0:0:0:0:
256,192,37685,1,0,0:0:0:0:
256,192,37985,5,8,0:0:0:0:
256,192,38135,1,8,0:0:0:0:
256,192,38285,1,8,0:0:0:0:
256,192,38435,1,8,0:0:0:0:
256,192,38585,1,8,0:0:0:0:
256,192,38885,1,12,0:0:0:0:
256,192,39185,5,0,0:0:0:0:
256,192,39335,1,8,0:0:0:0:
256,192,39635,5,8,0:0:0:0:
256,192,39785,5,0,0:0:0:0:
256,192,40235,5,8,0:0:0:0:
256,192,40385,5,0,0:0:0:0:
256,192,40535,5,8,0:0:0:0:
256,192,40835,1,8,0:0:0:0:
256,192,40985,5,0,0:0:0:0:
256,192,41135,1,0,0:0:0:0:
256,192,41285,5,8,0:0:0:0:
256,192,41435,1,8,0:0:0:0:
256,192,41585,5,0,0:0:0:0:
256,192,42185,6,0,L|96:192,4,140
256,192,43985,5,0,0:0:0:0:
256,192,44135,5,8,0:0:0:0:
256,192,44435,1,8,0:0:0:0:
256,192,44585,5,0,0:0:0:0:
256,192,44735,5,8,0:0:0:0:
256,192,45035,1,8,0:0:0:0:
256,192,45185,5,0,0:0:0:0:
256,192,45635,5,8,0:0:0:0:
256,192,45785,5,0,0:0:0:0:
256,192,45935,1,0,0:0:0:0:
256,192,46085,5,8,0:0:0:0:
256,192,46535,5,0,0:0:0:0:
256,192,46835,5,8,0:0:0:0:
256,192,46985,5,0,0:0:0:0:
256,192,47285,5,8,0:0:0:0:
256,192,47435,1,8,0:0:0:0:
256,192,47735,5,0,0:0:0:0:
256,192,48035,5,8,0:0:0:0:
256,192,48185,5,0,0:0:0:0:
256,192,48485,5,8,0:0:0:0:
256,192,48635,1,8,0:0:0:0:
256,192,48785,6,0,L|96:192,3,140
256,192,49985,2,4,L|96:192,4,140
256,192,51785,5,12,0:0:0:0:
256,192,52085,1,12,0:0:0:0:
256,192,52235,1,12,0:0:0:0:
256,192,52385,1,12,0:0:0:0:
256,192,52535,1,12,0:0:0:0:
256,192,53585,5,0,0:0:0:0:
256,192,53885,1,0,0:0:0:0:
256,192,54035,1,0,0:0:0:0:
256,192,54335,1,0,0:0:0:0:
256,192,54485,1,0,0:0:0:0:
256,192,55085,5,8,0:0:0:0:
256,192,55385,5,0,0:0:0:0:
256,192,55685,1,0,0:0:0:0:
256,192,55835,1,0,0:0:0:0:
256,192,56135,1,0,0:0:0:0:
256,192,56285,5,8,0:0:0:0:
256,192,57185,5,0,0:0:0:0:
256,192,57485,1,0,0:0:0:0:
256,192,57635,1,0,0:0:0:0:
256,192,57935,1,0,0:0:0:0:
256,192,58085,1,0,0:0:0:0:
256,192,58685,5,8,0:0:0:0:
256,192,58985,5,0,0:0:0:0:
256,192,59285,1,0,0:0:0:0:
256,192,59435,1,0,0:0:0:0:
256,192,59735,1,0,0:0:0:0:
256,192,59885,5,8,0:0:0:0:
256,192,60185,1,8,0:0:0:0:
256,192,60485,1,8,0:0:0:0:
256,192,60785,5,0,0:0:0:0:
256,192,61085,1,0,0:0:0:0:
256,192,61235,1,0,0:0:0:0:
256,192,61535,1,0,0:0:0:0:
256,192,61685,1,0,0:0:0:0:
256,192,62285,5,8,0:0:0:0:
256,192,62585,5,0,0:0:0:0:
256,192,62885,1,0,0:0:0:0:
256,192,63035,1,0,0:0:0:0:
256,192,63335,1,0,0:0:0:0:
256,192,63485,5,8,0:0:0:0:
256,192,63935,1,8,0:0:0:0:
256,192,64085,1,8,0:0:0:0:
256,192,64385,5,4,0:0:0:0:
256,192,65135,5,8,0:0:0:0:
256,192,65285,5,4,0:0:0:0:
256,192,66035,5,8,0:0:0:0:
256,192,66185,5,0,0:0:0:0:
256,192,66485,1,0,0:0:0:0:
256,192,66785,1,0,0:0:0:0:
256,192,67085,5,12,0:0:0:0:
256,192,67535,1,12,0:0:0:0:
256,192,67985,5,4,0:0:0:0:
256,192,68585,12,0,72485,0:0:0:0:
256,192,72785,5,0,0:0:0:0:
256,192,72935,1,0,0:0:0:0:
256,192,73235,5,8,0:0:0:0:
256,192,73535,1,8,0:0:0:0:
256,192,73835,1,8,0:0:0:0:
256,192,74135,1,8,0:0:0:0:
256,192,74435,1,8,0:0:0:0:
256,192,74735,1,8,0:0:0:0:
256,192,74885,1,8,0:0:0:0:
256,192,75185,5,0,0:0:0:0:
256,192,75335,1,0,0:0:0:0:
256,192,75635,5,8,0:0:0:0:
256,192,75935,1,8,0:0:0:0:
256,192,76235,1,8,0:0:0:0:
256,192,76535,1,8,0:0:0:0:
256,192,76835,1,8,0:0:0:0:
256,192,76985,1,8,0:0:0:0:
256,192,77135,1,8,0:0:0:0:
256,192,77285,1,8,0:0:0:0:
256,192,77585,5,0,0:0:0:0:
256,192,77735,1,0,0:0:0:0:
256,192,78035,5,8,0:0:0:0:
256,192,78335,1,8,0:0:0:0:
256,192,78635,1,8,0:0:0:0:
256,192,78935,1,8,0:0:0:0:
256,192,79235,1,8,0:0:0:0:
256,192,79385,1,8,0:0:0:0:
256,192,79685,1,8,0:0:0:0:
256,192,79985,5,0,0:0:0:0:
256,192,80135,1,0,0:0:0:0:
256,192,80435,5,8,0:0:0:0:
256,192,80735,1,8,0:0:0:0:
256,192,81035,1,8,0:0:0:0:
256,192,81335,1,8,0:0:0:0:
256,192,81635,1,8,0:0:0:0:
256,192,81785,1,8,0:0:0:0:
256,192,81935,1,8,0:0:0:0:
256,192,82085,1,8,0:0:0:0:
256,192,82385,5,4,0:0:0:0:
256,192,82835,1,0,0:0:0:0:
256,192,83285,5,8,0:0:0:0:
256,192,83585,5,4,0:0:0:0:
256,192,84035,1,0,0:0:0:0:
256,192,84485,5,8,0:0:0:0:
256,192,84785,5,4,0:0:0:0:
256,192,85235,1,4,0:0:0:0:
256,192,85685,1,4,0:0:0:0:
256,192,86135,1,4,0:0:0:0:
256,192,86585,5,12,0:0:0:0:
256,192,87185,5,0,0:0:0:0:
256,192,87506,1,0,0:0:0:0:
256,192,87827,5,8,0:0:0:0:
256,192,88042,1,8,0:0:0:0:
256,192,88470,5,0,0:0:0:0:
256,192,88792,1,0,0:0:0:0:
256,192,89756,1,0,0:0:0:0:
256,192,90077,1,0,0:0:0:0:
256,192,90399,5,8,0:0:0:0:
256,192,90613,1,8,0:0:0:0:
256,192,91042,5,0,0:0:0:0:
256,192,91470,1,0,0:0:0:0:
256,192,91899,5,8,0:0:0:0:
256,192,92327,5,0,0:0:0:0:
256,192,92649,5,8,0:0:0:0:
256,192,92756,1,8,0:0:0:0:
256,192,92970,1,8,0:0:0:0:
256,192,93613,5,0,0:0:0:0:
256,192,94899,1,0,0:0:0:0:
256,192,95220,5,8,0:0:0:0:
256,192,95327,1,8,0:0:0:0:
256,192,95542,1,8,0:0:0:0:
256,192,96185,5,0,0:0:0:0:
256,192,96613,5,8,0:0:0:0:
256,192,97042,1,8,0:0:0:0:
256,192,97470,5,0,0:0:0:0:
256,192,97792,5,8,0:0:0:0:
256,192,97899,1,8,0:0:0:0:
256,192,98113,1,8,0:0:0:0:
256,192,98756,5,0,0:0:0:0:
256,192,100042,5,0,0:0:0:0:
256,192,100363,5,8,0:0:0:0:
256,192,100470,1,8,0:0:0:0:
256,192,100685,1,8,0:0:0:0:
256,192,101327,6,0,L|96:192,3,140
256,192,102935,5,8,0:0:0:0:
256,192,103042,1,8,0:0:0:0:
256,192,103256,1,8,0:0:0:0:
256,192,103470,6,0,L|96:192,3,140
256,192,105185,5,0,0:0:0:0:
256,192,105506,5,8,0:0:0:0:
256,192,105613,1,8,0:0:0:0:
256,192,105827,1,8,0:0:0:0:
256,192,106042,6,4,L|96:192,3,140
256,192,107756,5,4,0:0:0:0:
256,192,108348,5,8,0:0:0:0:
256,192,108940,5,4,0:0:0:0:
256,192,109482,5,8,0:0:0:0:
256,192,110024,5,4,0:0:0:0:
256,192,110524,5,8,0:0:0:0:
256,192,111024,5,4,0:0:0:0:
256,192,111478,5,8,0:0:0:0:
256,192,111933,5,4,0:0:0:0:
256,192,112233,5,8,0:0:0:0:
256,192,112383,1,8,0:0:0:0:
256,192,112533,1,8,0:0:0:0:
256,192,113133,5,4,0:0:0:0:
256,192,113433,5,8,0:0:0:0:
256,192,113733,1,8,0:0:0:0:
256,192,114333,5,4,0:0:0:0:
256,192,114633,5,8,0:0:0:0:
256,192,114933,5,4,0:0:0:0:
256,192,115233,5,8,0:0:0:0:
256,192,115533,5,4,0:0:0:0:
256,192,115833,1,4,0:0:0:0:
256,192,116133,1,4,0:0:0:0:
256,192,116433,5,12,0:0:0:0:
256,192,116733,5,0,0:0:0:0:
256,192,116883,5,8,0:0:0:0:
256,192,117033,5,0,0:0:0:0:
256,192,117183,5,8,0:0:0:0:
256,192,117333,5,0,0:0:0:0:
256,192,117483,5,8,0:0:0:0:
256,192,117633,5,0,0:0:0:0:
256,192,117933,5,8,0:0:0:0:
256,192,118233,1,8,0:0:0:0:
256,192,118383,1,8,0:0:0:0:
256,192,118533,1,8,0:0:0:0:
256,192,119133,5,0,0:0:0:0:
256,192,119283,5,8,0:0:0:0:
256,192,119433,5,0,0:0:0:0:
256,192,119583,5,8,0:0:0:0:
256,192,119733,5,0,0:0:0:0:
256,192,119883,5,8,0:0:0:0:
256,192,120033,5,0,0:0:0:0:
256,192,120333,5,8,0:0:0:0:
256,192,120483,1,8,0:0:0:0:
256,192,120633,1,8,0:0:0:0:
256,192,120933,1,8,0:0:0:0:
256,192,121533,1,8,0:0:0:0:
256,192,121683,5,0,0:0:0:0:
256,192,121833,5,8,0:0:0:0:
256,192,121983,5,0,0:0:0:0:
256,192,122133,5,8,0:0:0:0:
256,192,122283,5,0,0:0:0:0:
256,192,122433,5,8,0:0:0:0:
256,192,122733,5,0,0:0:0:0:
256,192,123033,1,0,0:0:0:0:
256,192,123183,1,0,0:0:0:0:
256,192,123333,1,0,0:0:0:0:
256,192,123933,5,8,0:0:0:0:
256,192,124083,5,0,0:0:0:0:
256,192,124233,5,8,0:0:0:0:
256,192,124383,5,0,0:0:0:0:
256,192,124533,5,8,0:0:0:0:
256,192,124683,5,0,0:0:0:0:
256,192,124833,5,8,0:0:0:0:
256,192,125133,5,0,0:0:0:0:
256,192,125283,1,0,0:0:0:0:
256,192,125433,1,0,0:0:0:0:
256,192,125733,1,0,0:0:0:0:
256,192,126033,5,12,0:0:0:0:
256,192,126333,5,0,0:0:0:0:
256,192,126483,5,8,0:0:0:0:
256,192,126633,5,0,0:0:0:0:
256,192,126783,5,8,0:0:0:0:
256,192,126933,5,0,0:0:0:0:
256,192,127083,5,8,0:0:0:0:
256,192,127233,5,0,0:0:0:0:
256,192,127533,5,8,0:0:0:0:
256,192,127683,5,0,0:0:0:0:
256,192,127833,5,8,0:0:0:0:
256,192,127983,5,0,0:0:0:0:
256,192,128133,5,8,0:0:0:0:
256,192,128733,5,0,0:0:0:0:
256,192,128883,5,8,0:0:0:0:
256,192,129033,5,0,0:0:0:0:
256,192,129183,5,8,0:0:0:0:
256,192,129333,5,0,0:0:0:0:
256,192,129483,5,8,0:0:0:0:
256,192,129633,5,0,0:0:0:0:
256,192,129933,5,8,0:0:0:0:
256,192,130083,5,0,0:0:0:0:
256,192,130233,5,8,0:0:0:0:
256,192,130383,5,0,0:0:0:0:
256,192,130533,5,8,0:0:0:0:
256,192,131133,1,8,0:0:0:0:
256,192,131283,5,0,0:0:0:0:
256,192,131433,5,8,0:0:0:0:
256,192,131583,5,0,0:0:0:0:
256,192,131733,5,8,0:0:0:0:
256,192,131883,5,0,0:0:0:0:
256,192,132033,5,8,0:0:0:0:
256,192,132333,5,0,0:0:0:0:
256,192,132483,5,8,0:0:0:0:
256,192,132633,5,0,0:0:0:0:
256,192,132783,5,8,0:0:0:0:
256,192,132933,5,0,0:0:0:0:
256,192,133533,5,8,0:0:0:0:
256,192,133683,5,0,0:0:0:0:
256,192,133833,5,8,0:0:0:0:
256,192,133983,5,0,0:0:0:0:
256,192,134133,5,8,0:0:0:0:
256,192,134283,5,0,0:0:0:0:
256,192,134433,5,8,0:0:0:0:
256,192,134583,5,0,0:0:0:0:
256,192,134733,5,8,0:0:0:0:
256,192,134883,5,0,0:0:0:0:
256,192,135033,5,8,0:0:0:0:
256,192,135183,5,0,0:0:0:0:
256,192,135333,5,8,0:0:0:0:
256,192,135633,1,12,0:0:0:0:
256,192,135933,5,4,0:0:0:0:
256,192,136383,1,4,0:0:0:0:
256,192,136833,5,12,0:0:0:0:
256,192,136983,1,12,0:0:0:0:
