osu file format v14

[General]
AudioFilename: Donkama 2000.mp3
AudioLeadIn: 0
PreviewTime: 76585
Countdown: 0
SampleSet: Normal
StackLeniency: 0.7
Mode: 1
LetterboxInBreaks: 0
WidescreenStoryboard: 1

[Editor]
DistanceSpacing: 1.1
BeatDivisor: 12
GridSize: 32
TimelineZoom: 1.98

[Metadata]
Title:Donkama 2000
TitleUnicode:ドンカマ2000
Artist:LindaAI-CUE
ArtistUnicode:LindaAI-CUE
Creator:L y s
Version:Muzukashii
Source:太鼓の達人
Tags:doncam
BeatmapID:438593
BeatmapSetID:180870

[Difficulty]
HPDrainRate:6
CircleSize:5
OverallDifficulty:5
ApproachRate:5
SliderMultiplier:1.4
SliderTickRate:1

[Events]
//Background and Video events
0,0,"4779177021_1343f0222e_b.jpg",0,0
//Break Periods
//Storyboard Layer 0 (Background)
//Storyboard Layer 1 (Fail)
//Storyboard Layer 2 (Pass)
//Storyboard Layer 3 (Foreground)
//Storyboard Layer 4 (Overlay)
//Storyboard Sound Samples

[TimingPoints]
4742,500,4,1,0,100,1,0
12742,222.222222222222,9,1,0,100,1,0
12742,-200,9,1,0,100,0,0
12964,-100,9,1,0,100,0,0
13242,-200,9,1,0,100,0,0
13297,-100,9,1,0,100,0,0
13742,-200,9,1,0,100,0,0
13853,-100,9,1,0,100,0,0
14241,-200,9,1,0,100,0,0
14297,-100,9,1,0,100,0,0
14741,-200,9,1,0,100,0,0
14853,-100,9,1,0,100,0,0
15241,-200,9,1,0,100,0,0
15408,-100,9,1,0,100,0,0
15741,-200,9,1,0,100,0,0
15853,-100,9,1,0,100,0,0
16241,-200,9,1,0,100,0,0
16297,-100,9,1,0,100,0,0
16741,-200,9,1,0,100,0,0
16853,-100,9,1,0,100,0,0
17241,-200,9,1,0,100,0,0
17408,-100,9,1,0,100,0,0
17741,-200,9,1,0,100,0,0
17853,-100,9,1,0,100,0,0
18241,-200,9,1,0,100,0,0
18297,-100,9,1,0,100,0,0
18741,-200,9,1,0,100,0,0
18853,-100,9,1,0,100,0,0
19241,-200,9,1,0,100,0,0
19408,-100,9,1,0,100,0,0
19741,-200,9,1,0,100,0,0
19853,-100,9,1,0,100,0,0
20241,-200,9,1,0,100,0,0
20297,-100,9,1,0,100,0,0
20741,-200,9,1,0,100,0,0
20964,-100,9,1,0,100,0,0
21241,-200,9,1,0,100,0,0
21408,-100,9,1,0,100,0,0
21741,-200,9,1,0,100,0,0
21853,-100,9,1,0,100,0,0
22241,-200,9,1,0,100,0,0
22297,-100,9,1,0,100,0,0
22741,-200,8,1,0,100,0,0
22964,-100,8,1,0,100,0,0
23241,-200,8,1,0,100,0,0
23297,-100,8,1,0,100,0,0
23741,-200,8,1,0,100,0,0
23853,-100,8,1,0,100,0,0
24241,500,4,1,0,100,1,0
24241,-88.4955752212389,4,1,0,100,0,0
24616,-200,4,1,0,100,0,0
24741,500,4,1,0,100,1,8
24741,-100,4,1,0,100,0,0
24991,-200,4,1,0,100,0,0
25241,-100,4,1,0,100,0,0
25366,-200,4,1,0,100,0,0
25741,-100,4,1,0,100,0,0
26116,-200,4,1,0,100,0,0
26241,-100,4,1,0,100,0,0
26491,-200,4,1,0,100,0,0
26741,-100,4,1,0,100,0,0
26866,-200,4,1,0,100,0,0
27241,-100,4,1,0,100,0,0
27616,-200,4,1,0,100,0,0
27741,-100,4,1,0,100,0,0
27991,-200,4,1,0,100,0,0
28241,-100,4,1,0,100,0,0
28366,-200,4,1,0,100,0,0
28741,-100,4,1,0,100,0,0
29116,-200,4,1,0,100,0,0
29241,-100,4,1,0,100,0,0
29491,-200,4,1,0,100,0,0
29741,-100,4,1,0,100,0,0
29866,-200,4,1,0,100,0,0
30241,-100,4,1,0,100,0,0
30616,-200,4,1,0,100,0,0
30741,-100,4,1,0,100,0,0
30991,-200,4,1,0,100,0,0
31241,-100,4,1,0,100,0,0
31366,-200,4,1,0,100,0,0
31741,-100,4,1,0,100,0,0
32116,-200,4,1,0,100,0,0
32241,-100,4,1,0,100,0,0
32491,-200,4,1,0,100,0,0
32741,-100,4,1,0,100,0,0
32866,-200,4,1,0,100,0,0
33241,-100,4,1,0,100,0,0
33366,-200,4,1,0,100,0,0
33741,-100,4,1,0,100,0,0
33991,-13.0718954248366,4,1,0,100,0,0
34741,-100,4,1,0,100,0,0
36741,222.222222222222,9,1,0,100,1,0
36741,-200,9,1,0,100,0,0
36963,-100,9,1,0,100,0,0
37241,-200,9,1,0,100,0,0
37407,-100,9,1,0,100,0,0
37741,-200,9,1,0,100,0,0
37852,-100,9,1,0,100,0,0
38241,-200,9,1,0,100,0,0
38296,-100,9,1,0,100,0,0
38741,-200,9,1,0,100,0,0
38852,-100,9,1,0,100,0,0
39241,-200,9,1,0,100,0,0
39296,-100,9,1,0,100,0,0
39741,-200,9,1,0,100,0,0
39852,-100,9,1,0,100,0,0
40241,-200,9,1,0,100,0,0
40296,-100,9,1,0,100,0,0
40740,-200,9,1,0,100,0,0
40963,-100,9,1,0,100,0,0
41240,-200,9,1,0,100,0,0
41407,-100,9,1,0,100,0,0
41740,-200,9,1,0,100,0,0
41852,-100,9,1,0,100,0,0
42240,-200,9,1,0,100,0,0
42296,-100,9,1,0,100,0,0
42740,-200,9,1,0,100,0,0
42852,-100,9,1,0,100,0,0
43240,-200,9,1,0,100,0,0
43296,-100,9,1,0,100,0,0
43740,-200,9,1,0,100,0,0
43852,-100,9,1,0,100,0,0
44240,-200,9,1,0,100,0,0
44296,-100,9,1,0,100,0,0
44740,500,4,1,0,100,1,0
52740,222.222222222222,9,1,0,100,1,0
52740,-200,9,1,0,100,0,0
52962,-100,9,1,0,100,0,0
53240,-200,9,1,0,100,0,0
53406,-100,9,1,0,100,0,0
53740,-200,9,1,0,100,0,0
53851,-100,9,1,0,100,0,0
54240,-200,9,1,0,100,0,0
54295,205.212394828648,9,1,0,100,1,8
54295,-108.695652173913,9,1,0,100,0,0
54739,375,4,1,0,100,1,0
59239,376.128385155466,7,1,0,100,1,0
60273,375,7,1,0,100,1,8
61773,375,4,1,0,100,1,0
76023,-13.0718954248366,4,1,0,100,0,1
76773,222.222222222222,18,1,0,100,1,0
76773,-200,18,1,0,100,0,0
76995,-100,18,1,0,100,0,0
80773,-200,18,1,0,100,0,0
80884,-100,18,1,0,100,0,0
84773,-200,18,1,0,100,0,0
84995,-100,18,1,0,100,0,0
88550,250.271127054309,18,1,0,100,1,8
88800,375,4,1,0,100,1,0
90112,319.047112623631,4,1,0,100,1,8
90271,375,4,1,0,100,1,0
97021,-13.0718954248366,4,1,0,100,0,0
97396,-100,4,1,0,100,0,0
100021,-13.0718954248366,4,1,0,100,0,0
100771,222.222222222222,4,1,0,100,1,0
100771,-100,4,1,0,100,0,0
101659,222.222222222222,5,1,0,100,1,0
102770,285.714285714286,4,1,0,100,1,0
103912,285.714285714286,3,1,0,100,1,0
104769,222.222222222222,4,1,0,100,1,0
104769,-100,4,1,0,100,0,0
105657,222.222222222222,5,1,0,100,1,0
106768,375,6,1,0,100,1,0
108268,500,4,1,0,100,1,8
108268,-75.187969924812,4,1,0,100,0,0
108768,500,4,1,0,100,1,0
109018,-200,4,1,0,100,0,0
109268,-100,4,1,0,100,0,0
109393,-200,4,1,0,100,0,0
109768,-100,4,1,0,100,0,0
110143,-200,4,1,0,100,0,0
110268,-100,4,1,0,100,0,0
110518,-200,4,1,0,100,0,0
110768,-100,4,1,0,100,0,0
110893,-200,4,1,0,100,0,0
111268,-100,4,1,0,100,0,0
111643,-200,4,1,0,100,0,0
111768,-100,4,1,0,100,0,0
112018,-200,4,1,0,100,0,0
112268,-100,4,1,0,100,0,0
112393,-200,4,1,0,100,0,0
112768,-100,4,1,0,100,0,0
113143,-200,4,1,0,100,0,0
113268,-100,4,1,0,100,0,0
113518,-200,4,1,0,100,0,0
113768,-100,4,1,0,100,0,0
113893,-200,4,1,0,100,0,0
114268,-100,4,1,0,100,0,0
114643,-200,4,1,0,100,0,0
114768,-100,4,1,0,100,0,0
115018,-200,4,1,0,100,0,0
115268,-100,4,1,0,100,0,0
115393,-200,4,1,0,100,0,0
115768,-100,4,1,0,100,0,0
116143,-200,4,1,0,100,0,0
116268,-100,4,1,0,100,0,0
116518,-200,4,1,0,100,0,0
116768,-100,4,1,0,100,0,0
116893,-200,4,1,0,100,0,0
117268,-100,4,1,0,100,0,0
117643,-200,4,1,0,100,0,0
117768,-100,4,1,0,100,0,0
118018,-200,4,1,0,100,0,0
118268,-100,4,1,0,100,0,0
118393,-200,4,1,0,100,0,0
118768,-100,4,1,0,100,0,0
124018,-13.0718954248366,4,1,0,100,0,0
124768,765.50140341924,5,1,0,100,1,8
124768,-100,4,1,0,100,0,0
127830,12000,4,1,0,100,1,8
127830,-200,4,1,0,100,0,0

[HitObjects]
256,192,4742,5,8,0:0:0:0:
256,192,5242,1,8,0:0:0:0:
256,192,5742,1,8,0:0:0:0:
256,192,6242,1,8,0:0:0:0:
256,192,6742,1,8,0:0:0:0:
256,192,7242,1,8,0:0:0:0:
256,192,7742,1,8,0:0:0:0:
256,192,8242,1,8,0:0:0:0:
256,192,8742,1,8,0:0:0:0:
256,192,9242,1,8,0:0:0:0:
256,192,9742,1,8,0:0:0:0:
256,192,10242,1,8,0:0:0:0:
256,192,10742,1,8,0:0:0:0:
256,192,11242,1,8,0:0:0:0:
256,192,11742,1,8,0:0:0:0:
256,192,12242,1,8,0:0:0:0:
256,192,12742,1,8,0:0:0:0:
256,192,12964,1,0,0:0:0:0:
256,192,13186,1,0,0:0:0:0:
256,192,13242,1,8,0:0:0:0:
256,192,13297,1,0,0:0:0:0:
256,192,13408,1,0,0:0:0:0:
256,192,13519,1,0,0:0:0:0:
256,192,13630,1,0,0:0:0:0:
256,192,13742,1,8,0:0:0:0:
256,192,13853,1,0,0:0:0:0:
256,192,14075,1,0,0:0:0:0:
256,192,14241,1,8,0:0:0:0:
256,192,14297,1,0,0:0:0:0:
256,192,14408,1,0,0:0:0:0:
256,192,14519,1,0,0:0:0:0:
256,192,14741,1,8,0:0:0:0:
256,192,14853,1,0,0:0:0:0:
256,192,14964,1,0,0:0:0:0:
256,192,15075,1,0,0:0:0:0:
256,192,15186,1,0,0:0:0:0:
256,192,15241,1,8,0:0:0:0:
256,192,15408,1,0,0:0:0:0:
256,192,15630,1,0,0:0:0:0:
256,192,15741,1,8,0:0:0:0:
256,192,15853,1,0,0:0:0:0:
256,192,16075,1,0,0:0:0:0:
256,192,16186,1,0,0:0:0:0:
256,192,16241,1,8,0:0:0:0:
256,192,16297,1,0,0:0:0:0:
256,192,16519,1,0,0:0:0:0:
256,192,16686,1,0,0:0:0:0:
256,192,16741,1,8,0:0:0:0:
256,192,16853,1,0,0:0:0:0:
256,192,16964,1,0,0:0:0:0:
256,192,17075,1,0,0:0:0:0:
256,192,17186,1,0,0:0:0:0:
256,192,17241,1,8,0:0:0:0:
256,192,17408,1,0,0:0:0:0:
256,192,17630,1,0,0:0:0:0:
256,192,17741,1,8,0:0:0:0:
256,192,17853,1,0,0:0:0:0:
256,192,17964,1,0,0:0:0:0:
256,192,18075,1,0,0:0:0:0:
256,192,18186,1,0,0:0:0:0:
256,192,18241,1,8,0:0:0:0:
256,192,18297,1,0,0:0:0:0:
256,192,18408,1,0,0:0:0:0:
256,192,18519,1,0,0:0:0:0:
256,192,18630,1,0,0:0:0:0:
256,192,18741,1,8,0:0:0:0:
256,192,18853,1,0,0:0:0:0:
256,192,18964,1,0,0:0:0:0:
256,192,19186,1,0,0:0:0:0:
256,192,19241,1,8,0:0:0:0:
256,192,19408,1,0,0:0:0:0:
256,192,19630,1,0,0:0:0:0:
256,192,19741,1,8,0:0:0:0:
256,192,19853,1,0,0:0:0:0:
256,192,19908,1,0,0:0:0:0:
256,192,20075,1,0,0:0:0:0:
256,192,20130,1,0,0:0:0:0:
256,192,20241,1,8,0:0:0:0:
256,192,20297,1,0,0:0:0:0:
256,192,20408,1,0,0:0:0:0:
256,192,20519,1,0,0:0:0:0:
256,192,20630,1,0,0:0:0:0:
256,192,20741,1,8,0:0:0:0:
256,192,20964,1,0,0:0:0:0:
256,192,21186,1,0,0:0:0:0:
256,192,21241,1,8,0:0:0:0:
256,192,21408,1,0,0:0:0:0:
256,192,21519,1,0,0:0:0:0:
256,192,21630,1,0,0:0:0:0:
256,192,21741,1,8,0:0:0:0:
256,192,21853,1,0,0:0:0:0:
256,192,21964,1,0,0:0:0:0:
256,192,22075,1,0,0:0:0:0:
256,192,22241,1,8,0:0:0:0:
256,192,22297,1,0,0:0:0:0:
256,192,22408,1,0,0:0:0:0:
256,192,22519,1,0,0:0:0:0:
256,192,22741,1,8,0:0:0:0:
256,192,22964,1,0,0:0:0:0:
256,192,23186,1,0,0:0:0:0:
256,192,23241,1,8,0:0:0:0:
256,192,23297,1,0,0:0:0:0:
256,192,23408,1,0,0:0:0:0:
256,192,23630,1,0,0:0:0:0:
256,192,23741,1,8,0:0:0:0:
256,192,23853,1,0,0:0:0:0:
256,192,23964,1,0,0:0:0:0:
256,192,24075,1,0,0:0:0:0:
256,192,24241,1,8,0:0:0:0:
256,192,24616,1,0,0:0:0:0:
256,192,24741,1,8,0:0:0:0:
256,192,24991,1,0,0:0:0:0:
256,192,25241,1,8,0:0:0:0:
256,192,25366,1,0,0:0:0:0:
256,192,25741,1,8,0:0:0:0:
256,192,26116,1,0,0:0:0:0:
256,192,26241,1,8,0:0:0:0:
256,192,26491,1,0,0:0:0:0:
256,192,26741,1,8,0:0:0:0:
256,192,26866,1,0,0:0:0:0:
256,192,27241,1,8,0:0:0:0:
256,192,27616,1,0,0:0:0:0:
256,192,27741,1,8,0:0:0:0:
256,192,27991,1,0,0:0:0:0:
256,192,28241,1,8,0:0:0:0:
256,192,28366,1,0,0:0:0:0:
256,192,28741,1,8,0:0:0:0:
256,192,29116,1,0,0:0:0:0:
256,192,29241,1,8,0:0:0:0:
256,192,29491,1,0,0:0:0:0:
256,192,29741,1,8,0:0:0:0:
256,192,29866,1,0,0:0:0:0:
256,192,30241,1,8,0:0:0:0:
256,192,30616,1,0,0:0:0:0:
256,192,30741,1,8,0:0:0:0:
256,192,30991,1,0,0:0:0:0:
256,192,31241,1,8,0:0:0:0:
256,192,31366,1,0,0:0:0:0:
256,192,31741,1,8,0:0:0:0:
256,192,32116,1,0,0:0:0:0:
256,192,32241,1,8,0:0:0:0:
256,192,32491,1,0,0:0:0:0:
256,192,32741,1,8,0:0:0:0:
256,192,32866,1,0,0:0:0:0:
256,192,33241,1,8,0:0:0:0:
256,192,33366,1,0,0:0:0:0:
256,192,33741,1,8,0:0:0:0:
256,192,33991,1,12,0:0:0:0:
256,192,34741,1,8,0:0:0:0:
256,192,35241,1,8,0:0:0:0:
256,192,35741,1,8,0:0:0:0:
256,192,36241,1,8,0:0:0:0:
256,192,36741,1,8,0:0:0:0:
256,192,36963,1,0,0:0:0:0:
256,192,37185,1,0,0:0:0:0:
256,192,37241,1,8,0:0:0:0:
256,192,37407,1,0,0:0:0:0:
256,192,37518,1,0,0:0:0:0:
256,192,37629,1,0,0:0:0:0:
256,192,37741,1,8,0:0:0:0:
256,192,37852,1,0,0:0:0:0:
256,192,38074,1,0,0:0:0:0:
256,192,38185,1,0,0:0:0:0:
256,192,38241,1,8,0:0:0:0:
256,192,38296,1,0,0:0:0:0:
256,192,38407,1,0,0:0:0:0:
256,192,38518,1,0,0:0:0:0:
256,192,38741,1,8,0:0:0:0:
256,192,38852,1,0,0:0:0:0:
256,192,38963,1,0,0:0:0:0:
256,192,39185,1,0,0:0:0:0:
256,192,39241,1,8,0:0:0:0:
256,192,39296,1,0,0:0:0:0:
256,192,39407,1,0,0:0:0:0:
256,192,39518,1,0,0:0:0:0:
256,192,39629,1,0,0:0:0:0:
256,192,39741,1,8,0:0:0:0:
256,192,39852,1,0,0:0:0:0:
256,192,39963,1,0,0:0:0:0:
256,192,40074,1,0,0:0:0:0:
256,192,40185,1,0,0:0:0:0:
256,192,40241,1,8,0:0:0:0:
256,192,40296,1,0,0:0:0:0:
256,192,40518,1,0,0:0:0:0:
256,192,40741,1,8,0:0:0:0:
256,192,40963,1,0,0:0:0:0:
256,192,41074,1,0,0:0:0:0:
256,192,41185,1,0,0:0:0:0:
256,192,41240,1,8,0:0:0:0:
256,192,41407,1,0,0:0:0:0:
256,192,41518,1,0,0:0:0:0:
256,192,41629,1,0,0:0:0:0:
256,192,41740,1,8,0:0:0:0:
256,192,41852,1,0,0:0:0:0:
256,192,41963,1,0,0:0:0:0:
256,192,42074,1,0,0:0:0:0:
256,192,42240,1,8,0:0:0:0:
256,192,42296,1,0,0:0:0:0:
256,192,42518,1,0,0:0:0:0:
256,192,42740,1,8,0:0:0:0:
256,192,42852,1,0,0:0:0:0:
256,192,42963,1,0,0:0:0:0:
256,192,43074,1,0,0:0:0:0:
256,192,43185,1,0,0:0:0:0:
256,192,43240,1,8,0:0:0:0:
256,192,43296,1,0,0:0:0:0:
256,192,43407,1,0,0:0:0:0:
256,192,43518,1,0,0:0:0:0:
256,192,43629,1,0,0:0:0:0:
256,192,43740,1,8,0:0:0:0:
256,192,43852,1,0,0:0:0:0:
256,192,44074,1,0,0:0:0:0:
256,192,44240,1,8,0:0:0:0:
256,192,44296,1,0,0:0:0:0:
256,192,44518,1,0,0:0:0:0:
256,192,44629,1,0,0:0:0:0:
256,192,44740,1,8,0:0:0:0:
256,192,45240,1,8,0:0:0:0:
256,192,45740,1,8,0:0:0:0:
256,192,46240,1,8,0:0:0:0:
256,192,46740,1,8,0:0:0:0:
256,192,47240,1,8,0:0:0:0:
256,192,47740,1,8,0:0:0:0:
256,192,48240,1,8,0:0:0:0:
256,192,48740,1,8,0:0:0:0:
256,192,49240,1,8,0:0:0:0:
256,192,49740,1,8,0:0:0:0:
256,192,50240,1,8,0:0:0:0:
256,192,50740,1,8,0:0:0:0:
256,192,51240,1,8,0:0:0:0:
256,192,51740,1,8,0:0:0:0:
256,192,52240,1,8,0:0:0:0:
256,192,52740,1,8,0:0:0:0:
256,192,52962,1,0,0:0:0:0:
256,192,53184,1,0,0:0:0:0:
256,192,53240,1,8,0:0:0:0:
256,192,53406,1,0,0:0:0:0:
256,192,53517,1,0,0:0:0:0:
256,192,53628,1,0,0:0:0:0:
256,192,53740,1,8,0:0:0:0:
256,192,53851,1,0,0:0:0:0:
256,192,53962,1,0,0:0:0:0:
256,192,54073,1,0,0:0:0:0:
256,192,54184,1,0,0:0:0:0:
256,192,54240,1,8,0:0:0:0:
256,192,54739,1,8,0:0:0:0:
256,192,55239,1,8,0:0:0:0:
256,192,55739,1,8,0:0:0:0:
256,192,56239,1,8,0:0:0:0:
256,192,56739,1,8,0:0:0:0:
256,192,57239,1,8,0:0:0:0:
256,192,57739,1,8,0:0:0:0:
256,192,57926,1,0,0:0:0:0:
256,192,58114,1,0,0:0:0:0:
256,192,58301,1,0,0:0:0:0:
256,192,58489,1,0,0:0:0:0:
256,192,58676,1,0,0:0:0:0:
256,192,58864,1,0,0:0:0:0:
256,192,59051,1,0,0:0:0:0:
256,192,59239,1,8,0:0:0:0:
256,192,59364,1,8,0:0:0:0:
256,192,59489,1,8,0:0:0:0:
256,192,59615,1,8,0:0:0:0:
256,192,59740,1,8,0:0:0:0:
256,192,59865,1,8,0:0:0:0:
256,192,59991,1,8,0:0:0:0:
256,192,60116,1,8,0:0:0:0:
256,192,60242,1,8,0:0:0:0:
256,192,60460,1,8,0:0:0:0:
256,192,60648,1,0,0:0:0:0:
256,192,60835,1,8,0:0:0:0:
256,192,61023,1,0,0:0:0:0:
256,192,61210,1,8,0:0:0:0:
256,192,61398,1,0,0:0:0:0:
256,192,61585,1,8,0:0:0:0:
256,192,61773,1,0,0:0:0:0:
256,192,62023,1,8,0:0:0:0:
256,192,62148,1,0,0:0:0:0:
256,192,62335,1,8,0:0:0:0:
256,192,62523,1,0,0:0:0:0:
256,192,62710,1,8,0:0:0:0:
256,192,62898,1,0,0:0:0:0:
256,192,63085,1,8,0:0:0:0:
256,192,63273,1,0,0:0:0:0:
256,192,63523,1,8,0:0:0:0:
256,192,63648,1,0,0:0:0:0:
256,192,63835,1,8,0:0:0:0:
256,192,64023,1,0,0:0:0:0:
256,192,64210,1,8,0:0:0:0:
256,192,64398,1,8,0:0:0:0:
256,192,64491,1,8,0:0:0:0:
256,192,64585,1,8,0:0:0:0:
256,192,64679,1,8,0:0:0:0:
256,192,64773,1,8,0:0:0:0:
256,192,64960,1,8,0:0:0:0:
256,192,65148,1,0,0:0:0:0:
256,192,65335,1,8,0:0:0:0:
256,192,65523,1,0,0:0:0:0:
256,192,65710,1,8,0:0:0:0:
256,192,65898,1,0,0:0:0:0:
256,192,66148,1,8,0:0:0:0:
256,192,66273,1,0,0:0:0:0:
256,192,66460,1,8,0:0:0:0:
256,192,66648,1,0,0:0:0:0:
256,192,66835,1,8,0:0:0:0:
256,192,67023,1,0,0:0:0:0:
256,192,67210,1,8,0:0:0:0:
256,192,67398,1,0,0:0:0:0:
256,192,67648,1,8,0:0:0:0:
256,192,67773,1,0,0:0:0:0:
256,192,67960,1,8,0:0:0:0:
256,192,68148,1,0,0:0:0:0:
256,192,68335,1,8,0:0:0:0:
256,192,68523,1,0,0:0:0:0:
256,192,68710,1,8,0:0:0:0:
256,192,68898,1,0,0:0:0:0:
256,192,69148,1,8,0:0:0:0:
256,192,69273,1,0,0:0:0:0:
256,192,69460,1,8,0:0:0:0:
256,192,69648,1,0,0:0:0:0:
256,192,69835,1,8,0:0:0:0:
256,192,70023,1,0,0:0:0:0:
256,192,70210,1,8,0:0:0:0:
256,192,70398,1,8,0:0:0:0:
256,192,70491,1,8,0:0:0:0:
256,192,70585,1,8,0:0:0:0:
256,192,70679,1,8,0:0:0:0:
256,192,70773,1,8,0:0:0:0:
256,192,71023,1,8,0:0:0:0:
256,192,71148,1,0,0:0:0:0:
256,192,71335,1,8,0:0:0:0:
256,192,71523,1,0,0:0:0:0:
256,192,71773,1,8,0:0:0:0:
256,192,71898,1,0,0:0:0:0:
256,192,72085,1,8,0:0:0:0:
256,192,72273,1,0,0:0:0:0:
256,192,72523,1,8,0:0:0:0:
256,192,72648,1,0,0:0:0:0:
256,192,72835,1,8,0:0:0:0:
256,192,73023,1,0,0:0:0:0:
256,192,73273,1,8,0:0:0:0:
256,192,73398,1,0,0:0:0:0:
256,192,73585,1,8,0:0:0:0:
256,192,73773,1,0,0:0:0:0:
256,192,74023,1,8,0:0:0:0:
256,192,74148,1,0,0:0:0:0:
256,192,74398,1,8,0:0:0:0:
256,192,74523,1,0,0:0:0:0:
256,192,74773,1,8,0:0:0:0:
256,192,74898,1,0,0:0:0:0:
256,192,75085,1,8,0:0:0:0:
256,192,75273,1,0,0:0:0:0:
256,192,75398,1,8,0:0:0:0:
256,192,75523,1,8,0:0:0:0:
256,192,75648,1,0,0:0:0:0:
256,192,76023,1,12,0:0:0:0:
256,192,76773,1,8,0:0:0:0:
256,192,76995,1,0,0:0:0:0:
256,192,77217,1,0,0:0:0:0:
256,192,77328,1,0,0:0:0:0:
256,192,77439,1,0,0:0:0:0:
256,192,77550,1,0,0:0:0:0:
256,192,77661,1,0,0:0:0:0:
256,192,77884,1,0,0:0:0:0:
256,192,78106,1,0,0:0:0:0:
256,192,78328,1,0,0:0:0:0:
256,192,78439,1,0,0:0:0:0:
256,192,78550,1,0,0:0:0:0:
256,192,78661,1,0,0:0:0:0:
256,192,78773,1,0,0:0:0:0:
256,192,78884,1,0,0:0:0:0:
256,192,78995,1,0,0:0:0:0:
256,192,79106,1,0,0:0:0:0:
256,192,79217,1,0,0:0:0:0:
256,192,79328,1,0,0:0:0:0:
256,192,79439,1,0,0:0:0:0:
256,192,79661,1,0,0:0:0:0:
256,192,79884,1,0,0:0:0:0:
256,192,80106,1,0,0:0:0:0:
256,192,80217,1,0,0:0:0:0:
256,192,80328,1,0,0:0:0:0:
256,192,80550,1,0,0:0:0:0:
256,192,80773,1,8,0:0:0:0:
256,192,80884,1,0,0:0:0:0:
256,192,80995,1,0,0:0:0:0:
256,192,81106,1,0,0:0:0:0:
256,192,81217,1,0,0:0:0:0:
256,192,81439,1,0,0:0:0:0:
256,192,81661,1,0,0:0:0:0:
256,192,81884,1,0,0:0:0:0:
256,192,81995,1,0,0:0:0:0:
256,192,82106,1,0,0:0:0:0:
256,192,82217,1,0,0:0:0:0:
256,192,82328,1,0,0:0:0:0:
256,192,82439,1,0,0:0:0:0:
256,192,82550,1,0,0:0:0:0:
256,192,82661,1,0,0:0:0:0:
256,192,82773,1,0,0:0:0:0:
256,192,82884,1,0,0:0:0:0:
256,192,82995,1,0,0:0:0:0:
256,192,83217,1,0,0:0:0:0:
256,192,83439,1,0,0:0:0:0:
256,192,83550,1,0,0:0:0:0:
256,192,83661,1,0,0:0:0:0:
256,192,83773,1,0,0:0:0:0:
256,192,83884,1,0,0:0:0:0:
256,192,84106,1,0,0:0:0:0:
256,192,84328,1,0,0:0:0:0:
256,192,84439,1,0,0:0:0:0:
256,192,84550,1,0,0:0:0:0:
256,192,84661,1,0,0:0:0:0:
256,192,84773,1,8,0:0:0:0:
256,192,84995,1,0,0:0:0:0:
256,192,85217,1,0,0:0:0:0:
256,192,85439,1,0,0:0:0:0:
256,192,85550,1,0,0:0:0:0:
256,192,85661,1,0,0:0:0:0:
256,192,85772,1,0,0:0:0:0:
256,192,85884,1,0,0:0:0:0:
256,192,85995,1,0,0:0:0:0:
256,192,86106,1,0,0:0:0:0:
256,192,86217,1,0,0:0:0:0:
256,192,86328,1,0,0:0:0:0:
256,192,86439,1,0,0:0:0:0:
256,192,86550,1,0,0:0:0:0:
256,192,86735,1,8,0:0:0:0:
256,192,86921,1,0,0:0:0:0:
256,192,87106,1,8,0:0:0:0:
256,192,87291,1,0,0:0:0:0:
256,192,87476,1,8,0:0:0:0:
256,192,87661,1,0,0:0:0:0:
256,192,87847,1,8,0:0:0:0:
256,192,88032,1,0,0:0:0:0:
256,192,88217,1,8,0:0:0:0:
256,192,88402,1,0,0:0:0:0:
256,192,88800,1,8,0:0:0:0:
256,192,89081,1,8,0:0:0:0:
256,192,89362,1,8,0:0:0:0:
256,192,89643,1,8,0:0:0:0:
256,192,89925,1,8,0:0:0:0:
256,192,90271,1,0,0:0:0:0:
256,192,90458,1,8,0:0:0:0:
256,192,90646,1,0,0:0:0:0:
256,192,90833,1,8,0:0:0:0:
256,192,91021,1,0,0:0:0:0:
256,192,91208,1,8,0:0:0:0:
256,192,91396,1,0,0:0:0:0:
256,192,91583,1,8,0:0:0:0:
256,192,91771,1,0,0:0:0:0:
256,192,91958,1,8,0:0:0:0:
256,192,92146,1,0,0:0:0:0:
256,192,92333,1,8,0:0:0:0:
256,192,92521,1,0,0:0:0:0:
256,192,92708,1,8,0:0:0:0:
256,192,92896,1,0,0:0:0:0:
256,192,93146,1,8,0:0:0:0:
256,192,93271,1,0,0:0:0:0:
256,192,93646,1,0,0:0:0:0:
256,192,94021,1,0,0:0:0:0:
256,192,94271,1,8,0:0:0:0:
256,192,94396,1,0,0:0:0:0:
256,192,94771,1,0,0:0:0:0:
256,192,95146,1,0,0:0:0:0:
256,192,95396,1,8,0:0:0:0:
256,192,95521,1,0,0:0:0:0:
256,192,95896,1,0,0:0:0:0:
256,192,96271,1,0,0:0:0:0:
256,192,96521,1,8,0:0:0:0:
256,192,96646,1,0,0:0:0:0:
256,192,97021,1,12,0:0:0:0:
256,192,97396,1,0,0:0:0:0:
256,192,97677,1,8,0:0:0:0:
256,192,97958,1,8,0:0:0:0:
256,192,98239,1,8,0:0:0:0:
256,192,98521,1,0,0:0:0:0:
256,192,98802,1,8,0:0:0:0:
256,192,99083,1,8,0:0:0:0:
256,192,99364,1,8,0:0:0:0:
256,192,99646,1,0,0:0:0:0:
256,192,100021,1,12,0:0:0:0:
256,192,100771,1,0,0:0:0:0:
256,192,100993,1,0,0:0:0:0:
256,192,101215,1,0,0:0:0:0:
256,192,101437,1,0,0:0:0:0:
256,192,101548,1,0,0:0:0:0:
256,192,101659,1,0,0:0:0:0:
256,192,101770,1,0,0:0:0:0:
256,192,101881,1,0,0:0:0:0:
256,192,101992,1,0,0:0:0:0:
256,192,102103,1,0,0:0:0:0:
256,192,102214,1,0,0:0:0:0:
256,192,102325,1,0,0:0:0:0:
256,192,102436,1,0,0:0:0:0:
256,192,102547,1,0,0:0:0:0:
256,192,102659,1,0,0:0:0:0:
256,192,102770,1,8,0:0:0:0:
256,192,103055,1,8,0:0:0:0:
256,192,103341,1,8,0:0:0:0:
256,192,103627,1,8,0:0:0:0:
256,192,103912,1,8,0:0:0:0:
256,192,104197,1,8,0:0:0:0:
256,192,104483,1,8,0:0:0:0:
256,192,104769,1,0,0:0:0:0:
256,192,104991,1,0,0:0:0:0:
256,192,105102,1,0,0:0:0:0:
256,192,105213,1,0,0:0:0:0:
256,192,105435,1,0,0:0:0:0:
256,192,105657,1,0,0:0:0:0:
256,192,105768,1,0,0:0:0:0:
256,192,105879,1,0,0:0:0:0:
256,192,105990,1,0,0:0:0:0:
256,192,106101,1,0,0:0:0:0:
256,192,106212,1,0,0:0:0:0:
256,192,106323,1,0,0:0:0:0:
256,192,106434,1,0,0:0:0:0:
256,192,106545,1,0,0:0:0:0:
256,192,106768,1,0,0:0:0:0:
256,192,106955,1,8,0:0:0:0:
256,192,107143,1,0,0:0:0:0:
256,192,107330,1,8,0:0:0:0:
256,192,107518,1,0,0:0:0:0:
256,192,107705,1,8,0:0:0:0:
256,192,107893,1,0,0:0:0:0:
256,192,108080,1,8,0:0:0:0:
256,192,108268,1,0,0:0:0:0:
256,192,108434,1,8,0:0:0:0:
256,192,108601,1,0,0:0:0:0:
256,192,108768,1,8,0:0:0:0:
256,192,109018,1,0,0:0:0:0:
256,192,109268,1,8,0:0:0:0:
256,192,109393,1,0,0:0:0:0:
256,192,109768,1,8,0:0:0:0:
256,192,110143,1,0,0:0:0:0:
256,192,110268,1,8,0:0:0:0:
256,192,110518,1,0,0:0:0:0:
256,192,110768,1,8,0:0:0:0:
256,192,110893,1,0,0:0:0:0:
256,192,111268,1,8,0:0:0:0:
256,192,111643,1,0,0:0:0:0:
256,192,111768,1,8,0:0:0:0:
256,192,112018,1,0,0:0:0:0:
256,192,112268,1,8,0:0:0:0:
256,192,112393,1,0,0:0:0:0:
256,192,112768,1,8,0:0:0:0:
256,192,113143,1,0,0:0:0:0:
256,192,113268,1,8,0:0:0:0:
256,192,113518,1,0,0:0:0:0:
256,192,113768,1,8,0:0:0:0:
256,192,113893,1,0,0:0:0:0:
256,192,114268,1,8,0:0:0:0:
256,192,114643,1,0,0:0:0:0:
256,192,114768,1,8,0:0:0:0:
256,192,115018,1,0,0:0:0:0:
256,192,115268,1,8,0:0:0:0:
256,192,115393,1,0,0:0:0:0:
256,192,115768,1,8,0:0:0:0:
256,192,116143,1,0,0:0:0:0:
256,192,116268,1,8,0:0:0:0:
256,192,116518,1,0,0:0:0:0:
256,192,116768,1,8,0:0:0:0:
256,192,116893,1,0,0:0:0:0:
256,192,117268,1,8,0:0:0:0:
256,192,117643,1,0,0:0:0:0:
256,192,117768,1,8,0:0:0:0:
256,192,118018,1,0,0:0:0:0:
256,192,118268,1,8,0:0:0:0:
256,192,118393,1,0,0:0:0:0:
256,192,118768,1,8,0:0:0:0:
256,192,119018,1,8,0:0:0:0:
256,192,119268,1,8,0:0:0:0:
256,192,119518,1,8,0:0:0:0:
256,192,119768,1,8,0:0:0:0:
256,192,120018,1,8,0:0:0:0:
256,192,120268,1,8,0:0:0:0:
256,192,120518,1,8,0:0:0:0:
256,192,120768,1,8,0:0:0:0:
256,192,121018,1,8,0:0:0:0:
256,192,121268,1,8,0:0:0:0:
256,192,121518,1,8,0:0:0:0:
256,192,121768,1,8,0:0:0:0:
256,192,122018,1,8,0:0:0:0:
256,192,122268,1,8,0:0:0:0:
256,192,122518,1,8,0:0:0:0:
256,192,122768,1,8,0:0:0:0:
256,192,123268,1,8,0:0:0:0:
256,192,123768,1,8,0:0:0:0:
256,192,124018,1,12,0:0:0:0:
256,192,127830,1,4,0:0:0:0:
