osu file format v14

[General]
AudioFilename: audio.mp3
AudioLeadIn: 0
PreviewTime: -1
Countdown: 0
SampleSet: Normal
StackLeniency: 0.7
Mode: 1
LetterboxInBreaks: 0
WidescreenStoryboard: 0

[Editor]
DistanceSpacing: 0.8
BeatDivisor: 4
GridSize: 8
TimelineZoom: 3.499999

[Metadata]
Title:Joubutsu 2000
TitleUnicode:Joubutsu 2000
Artist:Linda AI-CUE
ArtistUnicode:Linda AI-CUE
Creator:-Kazu-
Version:Peaceful Rest
Source:太鼓の達人
Tags:
BeatmapID:1675579
BeatmapSetID:797892

[Difficulty]
HPDrainRate:6
CircleSize:5
OverallDifficulty:7
ApproachRate:5
SliderMultiplier:1.4
SliderTickRate:1

[Events]
//Background and Video events
0,0,"thumb-1920-742.jpg",0,-100
//Break Periods
//Storyboard Layer 0 (Background)
//Storyboard Layer 1 (Fail)
//Storyboard Layer 2 (Pass)
//Storyboard Layer 3 (Foreground)
//Storyboard Sound Samples

[TimingPoints]
600,545.454545454545,4,1,1,80,1,0
9327,272.727272727273,4,1,1,80,1,0
57322,181.818181818182,12,1,1,80,1,1
57322,-300,12,1,1,80,0,1
61322,-100,12,1,1,80,0,1
61685,-303.030303030303,12,1,1,80,0,1
64594,-285.714285714286,12,1,1,80,0,1
64731,-270.27027027027,12,1,1,80,0,1
64867,-256.410256410256,12,1,1,80,0,1
65003,-243.90243902439,12,1,1,80,0,1
65140,-232.558139534884,12,1,1,80,0,1
65276,-222.222222222222,12,1,1,80,0,1
65412,-212.765957446809,12,1,1,80,0,1
65549,-204.081632653061,12,1,1,80,0,1
65685,-196.078431372549,12,1,1,80,0,1
69731,-208.333333333333,12,1,1,80,0,1
69867,-222.222222222222,12,1,1,80,0,1
70003,-238.095238095238,12,1,1,80,0,1
70140,-256.410256410256,12,1,1,80,0,1
70276,-277.777777777778,12,1,1,80,0,1
70412,-303.030303030303,12,1,1,80,0,1
75867,272.727272727273,4,1,1,80,1,1
75867,-133.333333333333,4,1,1,80,0,1
82344,-117.647058823529,4,1,1,80,0,1
83776,-100,4,1,1,80,0,1
85685,-83.3333333333333,4,1,1,80,0,1
87730,-100,4,1,1,80,0,1
95503,-200,4,1,1,80,0,0
96594,545.454545454545,4,1,1,80,1,0
105321,272.727272727273,4,1,1,80,1,0
119502,-50,4,1,1,80,0,0
120593,-75,4,1,1,80,0,0

[HitObjects]
256,192,600,5,8,0:0:0:0:
256,192,872,1,0,0:0:0:0:
256,192,1009,1,0,0:0:0:0:
256,192,1418,1,8,0:0:0:0:
256,192,1963,1,0,0:0:0:0:
256,192,2236,1,0,0:0:0:0:
256,192,2372,1,0,0:0:0:0:
256,192,2781,1,0,0:0:0:0:
256,192,3054,1,0,0:0:0:0:
256,192,3190,1,8,0:0:0:0:
256,192,3599,1,0,0:0:0:0:
256,192,4145,1,0,0:0:0:0:
256,192,4418,1,8,0:0:0:0:
256,192,4554,1,0,0:0:0:0:
256,192,4827,1,0,0:0:0:0:
256,192,4963,1,0,0:0:0:0:
256,192,5236,1,0,0:0:0:0:
256,192,5781,1,8,0:0:0:0:
256,192,6327,1,0,0:0:0:0:
256,192,6599,1,8,0:0:0:0:
256,192,6736,1,8,0:0:0:0:
256,192,6872,1,0,0:0:0:0:
256,192,7145,1,0,0:0:0:0:
256,192,7418,1,0,0:0:0:0:
256,192,7963,1,0,0:0:0:0:
256,192,8509,1,0,0:0:0:0:
256,192,8781,1,8,0:0:0:0:
256,192,8918,1,8,0:0:0:0:
256,192,8986,1,8,0:0:0:0:
256,192,9054,1,0,0:0:0:0:
256,192,9122,1,0,0:0:0:0:
256,192,9190,1,0,0:0:0:0:
256,192,9259,1,0,0:0:0:0:
256,192,9327,1,8,0:0:0:0:
256,192,9463,1,8,0:0:0:0:
256,192,9599,1,8,0:0:0:0:
256,192,9667,1,8,0:0:0:0:
256,192,9736,1,0,0:0:0:0:
256,192,10008,1,0,0:0:0:0:
256,192,10145,1,8,0:0:0:0:
256,192,10213,1,8,0:0:0:0:
256,192,10281,1,8,0:0:0:0:
256,192,10554,1,0,0:0:0:0:
256,192,10690,1,8,0:0:0:0:
256,192,10827,1,0,0:0:0:0:
256,192,10963,1,8,0:0:0:0:
256,192,11031,1,8,0:0:0:0:
256,192,11099,1,8,0:0:0:0:
256,192,11236,1,0,0:0:0:0:
256,192,11372,1,8,0:0:0:0:
256,192,11508,1,0,0:0:0:0:
256,192,11645,1,0,0:0:0:0:
256,192,11781,1,8,0:0:0:0:
256,192,11849,1,8,0:0:0:0:
256,192,11917,1,0,0:0:0:0:
256,192,12054,1,8,0:0:0:0:
256,192,12190,1,0,0:0:0:0:
256,192,12258,1,0,0:0:0:0:
256,192,12327,1,0,0:0:0:0:
256,192,12395,1,8,0:0:0:0:
256,192,12463,1,0,0:0:0:0:
256,192,12599,1,8,0:0:0:0:
256,192,12736,1,0,0:0:0:0:
256,192,13008,1,0,0:0:0:0:
256,192,13145,1,8,0:0:0:0:
256,192,13213,1,8,0:0:0:0:
256,192,13281,1,8,0:0:0:0:
256,192,13349,1,8,0:0:0:0:
256,192,13417,1,0,0:0:0:0:
256,192,13554,1,0,0:0:0:0:
256,192,13690,1,8,0:0:0:0:
256,192,13758,1,0,0:0:0:0:
256,192,13827,1,0,0:0:0:0:
256,192,13963,1,0,0:0:0:0:
256,192,14031,1,8,0:0:0:0:
256,192,14099,1,0,0:0:0:0:
256,192,14167,1,0,0:0:0:0:
256,192,14236,1,8,0:0:0:0:
256,192,14372,1,0,0:0:0:0:
256,192,14508,1,8,0:0:0:0:
256,192,14577,1,0,0:0:0:0:
256,192,14645,1,8,0:0:0:0:
256,192,14781,1,8,0:0:0:0:
256,192,14917,1,0,0:0:0:0:
256,192,14986,1,0,0:0:0:0:
256,192,15054,1,0,0:0:0:0:
256,192,15190,1,8,0:0:0:0:
256,192,15327,1,8,0:0:0:0:
256,192,15463,1,0,0:0:0:0:
256,192,15531,1,8,0:0:0:0:
256,192,15599,1,0,0:0:0:0:
256,192,15667,1,0,0:0:0:0:
256,192,15736,1,0,0:0:0:0:
256,192,15804,1,0,0:0:0:0:
256,192,15872,1,8,0:0:0:0:
256,192,16008,1,0,0:0:0:0:
256,192,16281,1,0,0:0:0:0:
256,192,16554,1,0,0:0:0:0:
256,192,16690,1,0,0:0:0:0:
256,192,16758,1,0,0:0:0:0:
256,192,16827,1,0,0:0:0:0:
256,192,16895,1,8,0:0:0:0:
256,192,16963,1,0,0:0:0:0:
256,192,17099,1,8,0:0:0:0:
256,192,17236,1,8,0:0:0:0:
256,192,17304,1,8,0:0:0:0:
256,192,17372,1,0,0:0:0:0:
256,192,17508,1,8,0:0:0:0:
256,192,17917,1,8,0:0:0:0:
256,192,18054,1,0,0:0:0:0:
256,192,18122,1,0,0:0:0:0:
256,192,18190,1,8,0:0:0:0:
256,192,18327,1,0,0:0:0:0:
256,192,18395,1,8,0:0:0:0:
256,192,18463,1,0,0:0:0:0:
256,192,18531,1,8,0:0:0:0:
256,192,18599,1,0,0:0:0:0:
256,192,18667,1,0,0:0:0:0:
256,192,18736,1,8,0:0:0:0:
256,192,18872,1,0,0:0:0:0:
256,192,18940,1,8,0:0:0:0:
256,192,19008,1,8,0:0:0:0:
256,192,19145,1,0,0:0:0:0:
256,192,19281,1,8,0:0:0:0:
256,192,19349,1,8,0:0:0:0:
256,192,19417,1,0,0:0:0:0:
256,192,19554,1,0,0:0:0:0:
256,192,19690,1,8,0:0:0:0:
256,192,19758,1,0,0:0:0:0:
256,192,19827,1,8,0:0:0:0:
256,192,19895,1,0,0:0:0:0:
256,192,19963,1,0,0:0:0:0:
256,192,20099,1,0,0:0:0:0:
256,192,20236,1,0,0:0:0:0:
256,192,20304,1,0,0:0:0:0:
256,192,20372,1,8,0:0:0:0:
256,192,20508,1,0,0:0:0:0:
256,192,20554,1,0,0:0:0:0:
256,192,20599,1,0,0:0:0:0:
256,192,20645,1,8,0:0:0:0:
256,192,20781,1,0,0:0:0:0:
256,192,20849,1,8,0:0:0:0:
256,192,20917,1,0,0:0:0:0:
256,192,20986,1,0,0:0:0:0:
256,192,21054,1,8,0:0:0:0:
256,192,21122,1,8,0:0:0:0:
256,192,21190,1,0,0:0:0:0:
256,192,21258,1,8,0:0:0:0:
256,192,21327,1,0,0:0:0:0:
256,192,21463,1,0,0:0:0:0:
256,192,21599,1,8,0:0:0:0:
256,192,21667,1,8,0:0:0:0:
256,192,21736,1,0,0:0:0:0:
256,192,21872,1,8,0:0:0:0:
256,192,22008,1,0,0:0:0:0:
256,192,22077,1,0,0:0:0:0:
256,192,22145,1,8,0:0:0:0:
256,192,22213,1,0,0:0:0:0:
256,192,22281,1,8,0:0:0:0:
256,192,22417,1,0,0:0:0:0:
256,192,22554,1,0,0:0:0:0:
256,192,22622,1,0,0:0:0:0:
256,192,22690,1,8,0:0:0:0:
256,192,22758,1,8,0:0:0:0:
256,192,22827,1,0,0:0:0:0:
256,192,22963,1,8,0:0:0:0:
256,192,23031,1,8,0:0:0:0:
256,192,23099,1,0,0:0:0:0:
256,192,23236,1,8,0:0:0:0:
256,192,23508,1,8,0:0:0:0:
256,192,23645,1,0,0:0:0:0:
256,192,23713,1,0,0:0:0:0:
256,192,23781,1,0,0:0:0:0:
256,192,23849,1,0,0:0:0:0:
256,192,23917,1,8,0:0:0:0:
256,192,24054,1,8,0:0:0:0:
256,192,24190,1,0,0:0:0:0:
256,192,24258,1,8,0:0:0:0:
256,192,24327,1,0,0:0:0:0:
256,192,24395,1,0,0:0:0:0:
256,192,24463,1,8,0:0:0:0:
256,192,24736,1,0,0:0:0:0:
256,192,24872,1,8,0:0:0:0:
256,192,25008,1,0,0:0:0:0:
256,192,25077,1,0,0:0:0:0:
256,192,25145,1,8,0:0:0:0:
256,192,25213,1,8,0:0:0:0:
256,192,25281,1,0,0:0:0:0:
256,192,25349,1,8,0:0:0:0:
256,192,25417,1,8,0:0:0:0:
256,192,25486,1,8,0:0:0:0:
256,192,25554,1,0,0:0:0:0:
256,192,25622,1,0,0:0:0:0:
256,192,25690,1,8,0:0:0:0:
256,192,25758,1,0,0:0:0:0:
256,192,25827,1,8,0:0:0:0:
256,192,25895,1,0,0:0:0:0:
256,192,25963,1,0,0:0:0:0:
256,192,26099,1,0,0:0:0:0:
256,192,26236,1,8,0:0:0:0:
256,192,26372,1,0,0:0:0:0:
256,192,26645,1,0,0:0:0:0:
256,192,26781,1,0,0:0:0:0:
256,192,26849,1,0,0:0:0:0:
256,192,26917,1,8,0:0:0:0:
256,192,26986,1,0,0:0:0:0:
256,192,27054,1,0,0:0:0:0:
256,192,27190,1,0,0:0:0:0:
256,192,27327,1,8,0:0:0:0:
256,192,27463,1,0,0:0:0:0:
256,192,27531,1,8,0:0:0:0:
256,192,27599,1,0,0:0:0:0:
256,192,27736,1,0,0:0:0:0:
256,192,28008,1,8,0:0:0:0:
256,192,28077,1,0,0:0:0:0:
256,192,28145,1,0,0:0:0:0:
256,192,28213,1,8,0:0:0:0:
256,192,28281,1,0,0:0:0:0:
256,192,28417,1,8,0:0:0:0:
256,192,28486,1,8,0:0:0:0:
256,192,28554,1,0,0:0:0:0:
256,192,28622,1,0,0:0:0:0:
256,192,28690,1,8,0:0:0:0:
256,192,28758,1,0,0:0:0:0:
256,192,28827,1,0,0:0:0:0:
256,192,28963,1,0,0:0:0:0:
256,192,29099,1,8,0:0:0:0:
256,192,29167,1,8,0:0:0:0:
256,192,29236,1,0,0:0:0:0:
256,192,29372,1,0,0:0:0:0:
256,192,29645,1,0,0:0:0:0:
256,192,29781,1,8,0:0:0:0:
256,192,29849,1,8,0:0:0:0:
256,192,29917,1,8,0:0:0:0:
256,192,29986,1,8,0:0:0:0:
256,192,30054,1,0,0:0:0:0:
256,192,30190,1,8,0:0:0:0:
256,192,30327,1,0,0:0:0:0:
256,192,30395,1,0,0:0:0:0:
256,192,30463,1,8,0:0:0:0:
256,192,30599,1,0,0:0:0:0:
256,192,30667,1,8,0:0:0:0:
256,192,30736,1,0,0:0:0:0:
256,192,30872,1,12,0:0:0:0:
256,192,31145,1,0,0:0:0:0:
256,192,31190,1,0,0:0:0:0:
256,192,31236,1,0,0:0:0:0:
256,192,31281,1,8,0:0:0:0:
256,192,31349,1,0,0:0:0:0:
256,192,31417,1,8,0:0:0:0:
256,192,31486,1,8,0:0:0:0:
256,192,31554,1,0,0:0:0:0:
256,192,31622,1,0,0:0:0:0:
256,192,31690,1,0,0:0:0:0:
256,192,31736,1,0,0:0:0:0:
256,192,31781,1,0,0:0:0:0:
256,192,31827,1,8,0:0:0:0:
256,192,31895,1,0,0:0:0:0:
256,192,31963,1,8,0:0:0:0:
256,192,32031,1,0,0:0:0:0:
256,192,32099,1,0,0:0:0:0:
256,192,32167,1,0,0:0:0:0:
256,192,32236,1,8,0:0:0:0:
256,192,32304,1,8,0:0:0:0:
256,192,32372,1,0,0:0:0:0:
256,192,32440,1,0,0:0:0:0:
256,192,32508,1,8,0:0:0:0:
256,192,32577,1,8,0:0:0:0:
256,192,32645,1,0,0:0:0:0:
256,192,32713,1,0,0:0:0:0:
256,192,32781,1,8,0:0:0:0:
256,192,32872,1,8,0:0:0:0:
256,192,32963,1,0,0:0:0:0:
256,192,33054,1,0,0:0:0:0:
256,192,33145,1,8,0:0:0:0:
256,192,33236,1,0,0:0:0:0:
256,192,33327,1,0,0:0:0:0:
256,192,33361,1,0,0:0:0:0:
256,192,33395,1,0,0:0:0:0:
256,192,33463,1,8,0:0:0:0:
256,192,33531,1,0,0:0:0:0:
256,192,33599,1,8,0:0:0:0:
256,192,33736,1,0,0:0:0:0:
256,192,34008,1,0,0:0:0:0:
256,192,34145,1,8,0:0:0:0:
256,192,34281,1,0,0:0:0:0:
256,192,34417,1,0,0:0:0:0:
256,192,34486,1,8,0:0:0:0:
256,192,34554,1,8,0:0:0:0:
256,192,34622,1,0,0:0:0:0:
256,192,34690,1,8,0:0:0:0:
256,192,34758,1,0,0:0:0:0:
256,192,34827,1,0,0:0:0:0:
256,192,34895,1,0,0:0:0:0:
256,192,34963,1,8,0:0:0:0:
256,192,35372,1,8,0:0:0:0:
256,192,35508,1,0,0:0:0:0:
256,192,35599,1,8,0:0:0:0:
256,192,35690,1,8,0:0:0:0:
256,192,35781,1,0,0:0:0:0:
256,192,35849,1,0,0:0:0:0:
256,192,35917,1,8,0:0:0:0:
256,192,35986,1,8,0:0:0:0:
256,192,36054,1,0,0:0:0:0:
256,192,36145,1,8,0:0:0:0:
256,192,36236,1,8,0:0:0:0:
256,192,36327,1,0,0:0:0:0:
256,192,36395,1,0,0:0:0:0:
256,192,36463,1,8,0:0:0:0:
256,192,36531,1,0,0:0:0:0:
256,192,36599,1,8,0:0:0:0:
256,192,36690,1,8,0:0:0:0:
256,192,36781,1,0,0:0:0:0:
256,192,36872,1,8,0:0:0:0:
256,192,36963,1,8,0:0:0:0:
256,192,37054,1,0,0:0:0:0:
256,192,37145,1,0,0:0:0:0:
256,192,37179,1,0,0:0:0:0:
256,192,37213,1,0,0:0:0:0:
256,192,37281,1,8,0:0:0:0:
256,192,37349,1,8,0:0:0:0:
256,192,37417,1,0,0:0:0:0:
256,192,37508,1,0,0:0:0:0:
256,192,37599,1,0,0:0:0:0:
256,192,37690,1,8,0:0:0:0:
256,192,37781,1,8,0:0:0:0:
256,192,37872,1,0,0:0:0:0:
256,192,37963,1,8,0:0:0:0:
256,192,38054,1,0,0:0:0:0:
256,192,38145,1,8,0:0:0:0:
256,192,38236,1,0,0:0:0:0:
256,192,38270,1,0,0:0:0:0:
256,192,38304,1,0,0:0:0:0:
256,192,38372,1,8,0:0:0:0:
256,192,38440,1,0,0:0:0:0:
256,192,38508,1,8,0:0:0:0:
256,192,38577,1,8,0:0:0:0:
256,192,38645,1,0,0:0:0:0:
256,192,38781,1,0,0:0:0:0:
256,192,38917,1,8,0:0:0:0:
256,192,38986,1,8,0:0:0:0:
256,192,39054,1,0,0:0:0:0:
256,192,39190,1,0,0:0:0:0:
256,192,39327,1,8,0:0:0:0:
256,192,39395,1,8,0:0:0:0:
256,192,39463,1,0,0:0:0:0:
256,192,39599,1,8,0:0:0:0:
256,192,39736,1,8,0:0:0:0:
256,192,39872,1,0,0:0:0:0:
256,192,40008,1,8,0:0:0:0:
256,192,40077,1,0,0:0:0:0:
256,192,40213,1,8,0:0:0:0:
256,192,40281,1,8,0:0:0:0:
256,192,40349,1,0,0:0:0:0:
256,192,40417,1,8,0:0:0:0:
256,192,40554,1,8,0:0:0:0:
256,192,40690,1,0,0:0:0:0:
256,192,40758,1,8,0:0:0:0:
256,192,40827,1,8,0:0:0:0:
256,192,40963,1,0,0:0:0:0:
256,192,41099,1,8,0:0:0:0:
256,192,41167,1,8,0:0:0:0:
256,192,41304,1,8,0:0:0:0:
256,192,41372,1,0,0:0:0:0:
256,192,41440,1,0,0:0:0:0:
256,192,41508,1,8,0:0:0:0:
256,192,41645,1,8,0:0:0:0:
256,192,41713,1,0,0:0:0:0:
256,192,41781,1,8,0:0:0:0:
256,192,41917,1,0,0:0:0:0:
256,192,42054,1,8,0:0:0:0:
256,192,42122,1,0,0:0:0:0:
256,192,42190,1,8,0:0:0:0:
256,192,42258,1,8,0:0:0:0:
256,192,42327,1,0,0:0:0:0:
256,192,42395,1,8,0:0:0:0:
256,192,42463,1,0,0:0:0:0:
256,192,42531,1,0,0:0:0:0:
256,192,42599,1,8,0:0:0:0:
256,192,42690,1,0,0:0:0:0:
256,192,42781,1,0,0:0:0:0:
256,192,42872,1,8,0:0:0:0:
256,192,42940,1,0,0:0:0:0:
256,192,43008,1,8,0:0:0:0:
256,192,43077,1,8,0:0:0:0:
256,192,43145,1,0,0:0:0:0:
256,192,43236,1,0,0:0:0:0:
256,192,43327,1,0,0:0:0:0:
256,192,43417,1,8,0:0:0:0:
256,192,43486,1,8,0:0:0:0:
256,192,43554,1,0,0:0:0:0:
256,192,43622,1,0,0:0:0:0:
256,192,43690,1,8,0:0:0:0:
256,192,43736,1,8,0:0:0:0:
256,192,43781,1,8,0:0:0:0:
256,192,43827,1,8,0:0:0:0:
256,192,43895,1,0,0:0:0:0:
256,192,43963,1,8,0:0:0:0:
256,192,44008,1,0,0:0:0:0:
256,192,44054,1,0,0:0:0:0:
256,192,44099,1,8,0:0:0:0:
256,192,44236,1,0,0:0:0:0:
256,192,44508,1,8,0:0:0:0:
256,192,44645,1,0,0:0:0:0:
256,192,45054,1,8,0:0:0:0:
256,192,45599,1,0,0:0:0:0:
256,192,45667,1,0,0:0:0:0:
256,192,45736,1,0,0:0:0:0:
256,192,45872,1,8,0:0:0:0:
256,192,46008,1,0,0:0:0:0:
256,192,46145,1,8,0:0:0:0:
256,192,46213,1,0,0:0:0:0:
256,192,46281,1,8,0:0:0:0:
256,192,46417,1,0,0:0:0:0:
256,192,46554,1,8,0:0:0:0:
256,192,46622,1,0,0:0:0:0:
256,192,46690,1,8,0:0:0:0:
256,192,46758,1,8,0:0:0:0:
256,192,46827,1,0,0:0:0:0:
256,192,46963,1,8,0:0:0:0:
256,192,47099,1,0,0:0:0:0:
256,192,47167,1,0,0:0:0:0:
256,192,47304,1,0,0:0:0:0:
256,192,47372,1,8,0:0:0:0:
256,192,47508,1,0,0:0:0:0:
256,192,47577,1,8,0:0:0:0:
256,192,47645,1,0,0:0:0:0:
256,192,47781,1,8,0:0:0:0:
256,192,47917,1,0,0:0:0:0:
256,192,47986,1,8,0:0:0:0:
256,192,48054,1,8,0:0:0:0:
256,192,48122,1,0,0:0:0:0:
256,192,48190,1,8,0:0:0:0:
256,192,48327,1,0,0:0:0:0:
256,192,48395,1,0,0:0:0:0:
256,192,48463,1,8,0:0:0:0:
256,192,48599,1,8,0:0:0:0:
256,192,48667,1,0,0:0:0:0:
256,192,48736,1,8,0:0:0:0:
256,192,48804,1,8,0:0:0:0:
256,192,48872,1,8,0:0:0:0:
256,192,48940,1,0,0:0:0:0:
256,192,49008,1,8,0:0:0:0:
256,192,49077,1,8,0:0:0:0:
256,192,49145,1,0,0:0:0:0:
256,192,49213,1,8,0:0:0:0:
256,192,49281,1,0,0:0:0:0:
256,192,49349,1,0,0:0:0:0:
256,192,49417,1,8,0:0:0:0:
256,192,49554,1,0,0:0:0:0:
256,192,49690,1,8,0:0:0:0:
256,192,49758,1,8,0:0:0:0:
256,192,49827,1,0,0:0:0:0:
256,192,49895,1,8,0:0:0:0:
256,192,49963,1,0,0:0:0:0:
256,192,50031,1,0,0:0:0:0:
256,192,50099,1,8,0:0:0:0:
256,192,50145,1,8,0:0:0:0:
256,192,50190,1,8,0:0:0:0:
256,192,50236,1,0,0:0:0:0:
256,192,50304,1,8,0:0:0:0:
256,192,50372,1,0,0:0:0:0:
256,192,50440,1,0,0:0:0:0:
256,192,50508,1,8,0:0:0:0:
256,192,50554,1,0,0:0:0:0:
256,192,50599,1,0,0:0:0:0:
256,192,50645,1,8,0:0:0:0:
256,192,50713,1,0,0:0:0:0:
256,192,50781,1,8,0:0:0:0:
256,192,50849,1,8,0:0:0:0:
256,192,50917,1,0,0:0:0:0:
256,192,50986,1,8,0:0:0:0:
256,192,51054,1,0,0:0:0:0:
256,192,51122,1,0,0:0:0:0:
256,192,51190,1,8,0:0:0:0:
256,192,51327,1,8,0:0:0:0:
256,192,51395,1,0,0:0:0:0:
256,192,51463,1,8,0:0:0:0:
256,192,51531,1,8,0:0:0:0:
256,192,51599,1,0,0:0:0:0:
256,192,51690,1,8,0:0:0:0:
256,192,51781,1,8,0:0:0:0:
256,192,51872,1,0,0:0:0:0:
256,192,51940,1,0,0:0:0:0:
256,192,52008,1,8,0:0:0:0:
256,192,52077,1,0,0:0:0:0:
256,192,52145,1,8,0:0:0:0:
256,192,52236,1,0,0:0:0:0:
256,192,52327,1,0,0:0:0:0:
256,192,52417,1,8,0:0:0:0:
256,192,52486,1,0,0:0:0:0:
256,192,52554,1,8,0:0:0:0:
256,192,52622,1,0,0:0:0:0:
256,192,52690,1,8,0:0:0:0:
256,192,52758,1,8,0:0:0:0:
256,192,52827,1,8,0:0:0:0:
256,192,52895,1,0,0:0:0:0:
256,192,52963,1,8,0:0:0:0:
256,192,53031,1,8,0:0:0:0:
256,192,53099,1,8,0:0:0:0:
256,192,53167,1,8,0:0:0:0:
256,192,53236,1,0,0:0:0:0:
256,192,53304,1,0,0:0:0:0:
256,192,53372,1,0,0:0:0:0:
256,192,53440,1,0,0:0:0:0:
256,192,53508,1,8,0:0:0:0:
256,192,53577,1,8,0:0:0:0:
256,192,53645,1,0,0:0:0:0:
256,192,53713,1,0,0:0:0:0:
256,192,53781,1,8,0:0:0:0:
256,192,53849,1,8,0:0:0:0:
256,192,53917,1,8,0:0:0:0:
256,192,53986,1,8,0:0:0:0:
256,192,54054,1,0,0:0:0:0:
256,192,54099,1,8,0:0:0:0:
256,192,54145,1,8,0:0:0:0:
256,192,54190,1,0,0:0:0:0:
256,192,54258,1,0,0:0:0:0:
256,192,54327,1,12,0:0:0:0:
256,192,54599,1,0,0:0:0:0:
256,192,54667,1,8,0:0:0:0:
256,192,54736,1,0,0:0:0:0:
256,192,54872,1,12,0:0:0:0:
256,192,55145,1,0,0:0:0:0:
256,192,55281,1,0,0:0:0:0:
256,192,55554,1,0,0:0:0:0:
256,192,55827,1,0,0:0:0:0:
256,192,56099,1,8,0:0:0:0:
256,192,56236,1,4,0:0:0:0:
256,192,57322,1,4,0:0:0:0:
256,192,57503,1,8,0:0:0:0:
256,192,57685,1,8,0:0:0:0:
256,192,57867,1,0,0:0:0:0:
256,192,58049,1,8,0:0:0:0:
256,192,58231,1,8,0:0:0:0:
256,192,58412,1,0,0:0:0:0:
256,192,58594,1,8,0:0:0:0:
256,192,58776,1,0,0:0:0:0:
256,192,58958,1,0,0:0:0:0:
256,192,59049,1,8,0:0:0:0:
256,192,59140,1,8,0:0:0:0:
256,192,59231,1,8,0:0:0:0:
256,192,59322,1,0,0:0:0:0:
256,192,59412,1,0,0:0:0:0:
256,192,59503,1,8,0:0:0:0:
256,192,59685,1,0,0:0:0:0:
256,192,59776,1,8,0:0:0:0:
256,192,59958,1,0,0:0:0:0:
256,192,60049,1,8,0:0:0:0:
256,192,60140,1,8,0:0:0:0:
256,192,60231,1,0,0:0:0:0:
256,192,60412,1,0,0:0:0:0:
256,192,60503,1,8,0:0:0:0:
256,192,60685,1,0,0:0:0:0:
256,192,60776,1,8,0:0:0:0:
256,192,60867,1,8,0:0:0:0:
256,192,60958,1,0,0:0:0:0:
256,192,61140,1,8,0:0:0:0:
256,192,61322,1,8,0:0:0:0:
256,192,61367,1,8,0:0:0:0:
256,192,61412,1,8,0:0:0:0:
256,192,61458,1,8,0:0:0:0:
256,192,61503,1,8,0:0:0:0:
256,192,61685,1,4,0:0:0:0:
256,192,61958,1,8,0:0:0:0:
256,192,62140,1,0,0:0:0:0:
256,192,62231,1,0,0:0:0:0:
256,192,62412,1,8,0:0:0:0:
256,192,62594,1,0,0:0:0:0:
256,192,62685,1,8,0:0:0:0:
256,192,62867,1,0,0:0:0:0:
256,192,62958,1,8,0:0:0:0:
256,192,63049,1,8,0:0:0:0:
256,192,63140,1,0,0:0:0:0:
256,192,63231,1,0,0:0:0:0:
256,192,63322,1,8,0:0:0:0:
256,192,63503,1,0,0:0:0:0:
256,192,63685,1,8,0:0:0:0:
256,192,63867,1,8,0:0:0:0:
256,192,63958,1,0,0:0:0:0:
256,192,64049,1,8,0:0:0:0:
256,192,64231,1,0,0:0:0:0:
256,192,64322,1,0,0:0:0:0:
256,192,64412,1,8,0:0:0:0:
256,192,64594,1,4,0:0:0:0:
256,192,64731,1,8,0:0:0:0:
256,192,64867,1,8,0:0:0:0:
256,192,65003,1,8,0:0:0:0:
256,192,65140,1,4,0:0:0:0:
256,192,65276,1,8,0:0:0:0:
256,192,65412,1,8,0:0:0:0:
256,192,65549,1,8,0:0:0:0:
256,192,65685,1,4,0:0:0:0:
256,192,65776,1,8,0:0:0:0:
256,192,65867,1,8,0:0:0:0:
256,192,65958,1,8,0:0:0:0:
256,192,66049,1,4,0:0:0:0:
256,192,66322,1,0,0:0:0:0:
256,192,66412,1,12,0:0:0:0:
256,192,66594,1,0,0:0:0:0:
256,192,66685,1,0,0:0:0:0:
256,192,66867,1,8,0:0:0:0:
256,192,66958,1,0,0:0:0:0:
256,192,67049,1,0,0:0:0:0:
256,192,67140,1,8,0:0:0:0:
256,192,67322,1,0,0:0:0:0:
256,192,67412,1,0,0:0:0:0:
256,192,67503,1,8,0:0:0:0:
256,192,67594,1,8,0:0:0:0:
256,192,67685,1,0,0:0:0:0:
256,192,67776,1,8,0:0:0:0:
256,192,67867,1,0,0:0:0:0:
256,192,67935,1,8,0:0:0:0:
256,192,68003,1,8,0:0:0:0:
256,192,68072,1,0,0:0:0:0:
256,192,68140,1,0,0:0:0:0:
256,192,68208,1,8,0:0:0:0:
256,192,68276,1,0,0:0:0:0:
256,192,68344,1,0,0:0:0:0:
256,192,68412,1,0,0:0:0:0:
256,192,68481,1,8,0:0:0:0:
256,192,68617,1,0,0:0:0:0:
256,192,68685,1,0,0:0:0:0:
256,192,68753,1,8,0:0:0:0:
256,192,68822,1,0,0:0:0:0:
256,192,68890,1,0,0:0:0:0:
256,192,68958,1,0,0:0:0:0:
256,192,69026,1,8,0:0:0:0:
256,192,69094,1,0,0:0:0:0:
256,192,69162,1,8,0:0:0:0:
256,192,69231,1,8,0:0:0:0:
256,192,69299,1,0,0:0:0:0:
256,192,69367,1,0,0:0:0:0:
256,192,69435,1,8,0:0:0:0:
256,192,69731,1,0,0:0:0:0:
256,192,69867,1,8,0:0:0:0:
256,192,70003,1,8,0:0:0:0:
256,192,70140,1,8,0:0:0:0:
256,192,70276,1,8,0:0:0:0:
256,192,70412,1,4,0:0:0:0:
256,192,70776,1,8,0:0:0:0:
256,192,70958,1,0,0:0:0:0:
256,192,71049,1,0,0:0:0:0:
256,192,71140,1,8,0:0:0:0:
256,192,71322,1,0,0:0:0:0:
256,192,71412,1,8,0:0:0:0:
256,192,71685,1,8,0:0:0:0:
256,192,71867,1,0,0:0:0:0:
256,192,72049,1,8,0:0:0:0:
256,192,72140,1,8,0:0:0:0:
256,192,72231,1,8,0:0:0:0:
256,192,72322,1,0,0:0:0:0:
256,192,72412,1,8,0:0:0:0:
256,192,72594,1,8,0:0:0:0:
256,192,72776,1,0,0:0:0:0:
256,192,72867,1,8,0:0:0:0:
256,192,73049,1,0,0:0:0:0:
256,192,73140,1,0,0:0:0:0:
256,192,73322,1,8,0:0:0:0:
256,192,73503,1,0,0:0:0:0:
256,192,73594,1,8,0:0:0:0:
256,192,73776,1,8,0:0:0:0:
256,192,73867,1,0,0:0:0:0:
256,192,73958,1,0,0:0:0:0:
256,192,74049,1,8,0:0:0:0:
256,192,74140,1,8,0:0:0:0:
256,192,74231,1,4,0:0:0:0:
256,192,74412,1,8,0:0:0:0:
256,192,74503,1,4,0:0:0:0:
256,192,74776,1,4,0:0:0:0:
256,192,75867,1,8,0:0:0:0:
256,192,76139,1,8,0:0:0:0:
256,192,76276,1,8,0:0:0:0:
256,192,76685,1,8,0:0:0:0:
256,192,76821,1,0,0:0:0:0:
256,192,76957,1,8,0:0:0:0:
256,192,77332,1,8,0:0:0:0:
256,192,77503,1,0,0:0:0:0:
256,192,77605,1,0,0:0:0:0:
256,192,77707,1,8,0:0:0:0:
256,192,77980,1,8,0:0:0:0:
256,192,78185,1,8,0:0:0:0:
256,192,78253,1,0,0:0:0:0:
256,192,78457,1,0,0:0:0:0:
256,192,78526,1,0,0:0:0:0:
256,192,78594,1,8,0:0:0:0:
256,192,78730,1,0,0:0:0:0:
256,192,78798,1,8,0:0:0:0:
256,192,78867,1,0,0:0:0:0:
256,192,78935,1,0,0:0:0:0:
256,192,79003,1,8,0:0:0:0:
256,192,79071,1,0,0:0:0:0:
256,192,79139,1,8,0:0:0:0:
256,192,79276,1,0,0:0:0:0:
256,192,79344,1,0,0:0:0:0:
256,192,79412,1,0,0:0:0:0:
256,192,79548,1,0,0:0:0:0:
256,192,79685,1,8,0:0:0:0:
256,192,79821,1,0,0:0:0:0:
256,192,79889,1,0,0:0:0:0:
256,192,79957,1,0,0:0:0:0:
256,192,80094,1,0,0:0:0:0:
256,192,80230,1,8,0:0:0:0:
256,192,80298,1,8,0:0:0:0:
256,192,80367,1,0,0:0:0:0:
256,192,80435,1,0,0:0:0:0:
256,192,80503,1,8,0:0:0:0:
256,192,80571,1,8,0:0:0:0:
256,192,80639,1,0,0:0:0:0:
256,192,80707,1,0,0:0:0:0:
256,192,80776,1,8,0:0:0:0:
256,192,80844,1,0,0:0:0:0:
256,192,80912,1,0,0:0:0:0:
256,192,80980,1,0,0:0:0:0:
256,192,81048,1,8,0:0:0:0:
256,192,81117,1,0,0:0:0:0:
256,192,81185,1,0,0:0:0:0:
256,192,81253,1,0,0:0:0:0:
256,192,81321,1,8,0:0:0:0:
256,192,81389,1,8,0:0:0:0:
256,192,81457,1,0,0:0:0:0:
256,192,81526,1,0,0:0:0:0:
256,192,81594,1,8,0:0:0:0:
256,192,81662,1,8,0:0:0:0:
256,192,81730,1,0,0:0:0:0:
256,192,81798,1,0,0:0:0:0:
256,192,81867,1,8,0:0:0:0:
256,192,82071,1,0,0:0:0:0:
256,192,82139,1,8,0:0:0:0:
256,192,82344,1,0,0:0:0:0:
256,192,82412,1,8,0:0:0:0:
256,192,82480,1,8,0:0:0:0:
256,192,82548,1,8,0:0:0:0:
256,192,82617,1,8,0:0:0:0:
256,192,82685,1,0,0:0:0:0:
256,192,82730,1,0,0:0:0:0:
256,192,82776,1,0,0:0:0:0:
256,192,82821,1,8,0:0:0:0:
256,192,82889,1,8,0:0:0:0:
256,192,82957,1,8,0:0:0:0:
256,192,83026,1,8,0:0:0:0:
256,192,83094,1,0,0:0:0:0:
256,192,83139,1,0,0:0:0:0:
256,192,83185,1,0,0:0:0:0:
256,192,83230,1,8,0:0:0:0:
256,192,83298,1,8,0:0:0:0:
256,192,83367,1,0,0:0:0:0:
256,192,83412,1,0,0:0:0:0:
256,192,83457,1,0,0:0:0:0:
256,192,83503,1,12,0:0:0:0:
256,192,83776,1,12,0:0:0:0:
256,192,83912,1,0,0:0:0:0:
256,192,83980,1,8,0:0:0:0:
256,192,84048,1,0,0:0:0:0:
256,192,84185,1,0,0:0:0:0:
256,192,84321,1,8,0:0:0:0:
256,192,84457,1,0,0:0:0:0:
256,192,84526,1,0,0:0:0:0:
256,192,84594,1,8,0:0:0:0:
256,192,84662,1,8,0:0:0:0:
256,192,84730,1,0,0:0:0:0:
256,192,84867,1,8,0:0:0:0:
256,192,85003,1,0,0:0:0:0:
256,192,85071,1,8,0:0:0:0:
256,192,85139,1,0,0:0:0:0:
256,192,85207,1,0,0:0:0:0:
256,192,85276,1,8,0:0:0:0:
256,192,85344,1,0,0:0:0:0:
256,192,85412,1,8,0:0:0:0:
256,192,85548,1,0,0:0:0:0:
256,192,85685,1,0,0:0:0:0:
256,192,85753,1,8,0:0:0:0:
256,192,85821,1,0,0:0:0:0:
256,192,85889,1,0,0:0:0:0:
256,192,85957,1,8,0:0:0:0:
256,192,86003,1,0,0:0:0:0:
256,192,86048,1,0,0:0:0:0:
256,192,86094,1,8,0:0:0:0:
256,192,86162,1,0,0:0:0:0:
256,192,86230,1,0,0:0:0:0:
256,192,86298,1,0,0:0:0:0:
256,192,86367,1,8,0:0:0:0:
256,192,86412,1,0,0:0:0:0:
256,192,86457,1,0,0:0:0:0:
256,192,86503,1,8,0:0:0:0:
256,192,86571,1,8,0:0:0:0:
256,192,86639,1,0,0:0:0:0:
256,192,86685,1,0,0:0:0:0:
256,192,86730,1,0,0:0:0:0:
256,192,86776,1,8,0:0:0:0:
256,192,86844,1,8,0:0:0:0:
256,192,86912,1,0,0:0:0:0:
256,192,86980,1,0,0:0:0:0:
256,192,87048,1,8,0:0:0:0:
256,192,87117,1,8,0:0:0:0:
256,192,87185,1,8,0:0:0:0:
256,192,87253,1,8,0:0:0:0:
256,192,87321,1,8,0:0:0:0:
256,192,87389,1,8,0:0:0:0:
256,192,87457,1,8,0:0:0:0:
256,192,87526,1,8,0:0:0:0:
256,192,87594,1,12,0:0:0:0:
256,192,87867,1,12,0:0:0:0:
256,192,88003,1,0,0:0:0:0:
256,192,88071,1,0,0:0:0:0:
256,192,88276,1,0,0:0:0:0:
256,192,88412,1,12,0:0:0:0:
256,192,88548,1,0,0:0:0:0:
256,192,88617,1,0,0:0:0:0:
256,192,88821,1,0,0:0:0:0:
256,192,88957,1,12,0:0:0:0:
256,192,89094,1,0,0:0:0:0:
256,192,89162,1,8,0:0:0:0:
256,192,89230,1,0,0:0:0:0:
256,192,89367,1,0,0:0:0:0:
256,192,89503,1,8,0:0:0:0:
256,192,89639,1,8,0:0:0:0:
256,192,89912,1,8,0:0:0:0:
256,192,90048,1,8,0:0:0:0:
256,192,90185,1,8,0:0:0:0:
256,192,90457,1,8,0:0:0:0:
256,192,90730,1,0,0:0:0:0:
256,192,90867,1,8,0:0:0:0:
256,192,92639,1,8,0:0:0:0:
256,192,92707,1,8,0:0:0:0:
256,192,92776,1,4,0:0:0:0:
256,192,93321,1,0,0:0:0:0:
256,192,93389,1,0,0:0:0:0:
256,192,93457,1,12,0:0:0:0:
256,192,95912,1,8,0:0:0:0:
256,192,95980,1,8,0:0:0:0:
256,192,96048,1,8,0:0:0:0:
256,192,96117,1,8,0:0:0:0:
256,192,96185,1,8,0:0:0:0:
256,192,96321,1,8,0:0:0:0:
256,192,96594,1,8,0:0:0:0:
256,192,96866,1,0,0:0:0:0:
256,192,97003,1,0,0:0:0:0:
256,192,97139,1,8,0:0:0:0:
256,192,97207,1,8,0:0:0:0:
256,192,97275,1,8,0:0:0:0:
256,192,97344,1,8,0:0:0:0:
256,192,97412,1,8,0:0:0:0:
256,192,97548,1,0,0:0:0:0:
256,192,97821,1,8,0:0:0:0:
256,192,97957,1,0,0:0:0:0:
256,192,98230,1,0,0:0:0:0:
256,192,98366,1,0,0:0:0:0:
256,192,98434,1,0,0:0:0:0:
256,192,98503,1,0,0:0:0:0:
256,192,98639,1,8,0:0:0:0:
256,192,98775,1,0,0:0:0:0:
256,192,98912,1,0,0:0:0:0:
256,192,99048,1,8,0:0:0:0:
256,192,99321,1,0,0:0:0:0:
256,192,99457,1,8,0:0:0:0:
256,192,99594,1,0,0:0:0:0:
256,192,99684,1,0,0:0:0:0:
256,192,99775,1,8,0:0:0:0:
256,192,99866,1,0,0:0:0:0:
256,192,100003,1,0,0:0:0:0:
256,192,100139,1,8,0:0:0:0:
256,192,100275,1,8,0:0:0:0:
256,192,100412,1,8,0:0:0:0:
256,192,100548,1,0,0:0:0:0:
256,192,100684,1,8,0:0:0:0:
256,192,100753,1,8,0:0:0:0:
256,192,100821,1,8,0:0:0:0:
256,192,100957,1,0,0:0:0:0:
256,192,101366,1,8,0:0:0:0:
256,192,101503,1,0,0:0:0:0:
256,192,101639,1,0,0:0:0:0:
256,192,101775,1,8,0:0:0:0:
256,192,101844,1,8,0:0:0:0:
256,192,101912,1,0,0:0:0:0:
256,192,102048,1,8,0:0:0:0:
256,192,102184,1,8,0:0:0:0:
256,192,102321,1,0,0:0:0:0:
256,192,102389,1,8,0:0:0:0:
256,192,102457,1,0,0:0:0:0:
256,192,102594,1,0,0:0:0:0:
256,192,102866,1,8,0:0:0:0:
256,192,103139,1,0,0:0:0:0:
256,192,103275,1,0,0:0:0:0:
256,192,103412,1,8,0:0:0:0:
256,192,103548,1,0,0:0:0:0:
256,192,103822,1,8,0:0:0:0:
256,192,103958,1,0,0:0:0:0:
256,192,104094,1,8,0:0:0:0:
256,192,104230,1,0,0:0:0:0:
256,192,104298,1,0,0:0:0:0:
256,192,104366,1,0,0:0:0:0:
256,192,104503,1,8,0:0:0:0:
256,192,104639,1,0,0:0:0:0:
256,192,104775,1,8,0:0:0:0:
256,192,105048,1,8,0:0:0:0:
256,192,105322,1,8,0:0:0:0:
256,192,105594,1,8,0:0:0:0:
256,192,105867,1,0,0:0:0:0:
256,192,105935,1,8,0:0:0:0:
256,192,106003,1,0,0:0:0:0:
256,192,106072,1,8,0:0:0:0:
256,192,106140,1,0,0:0:0:0:
256,192,106208,1,0,0:0:0:0:
256,192,106276,1,8,0:0:0:0:
256,192,106344,1,8,0:0:0:0:
256,192,106412,1,0,0:0:0:0:
256,192,106549,1,8,0:0:0:0:
256,192,106617,1,0,0:0:0:0:
256,192,106685,1,0,0:0:0:0:
256,192,106822,1,0,0:0:0:0:
256,192,106958,1,0,0:0:0:0:
256,192,107231,1,0,0:0:0:0:
256,192,107503,1,8,0:0:0:0:
256,192,107776,1,8,0:0:0:0:
256,192,108049,1,0,0:0:0:0:
256,192,108117,1,0,0:0:0:0:
256,192,108185,1,8,0:0:0:0:
256,192,108253,1,0,0:0:0:0:
256,192,108322,1,8,0:0:0:0:
256,192,108390,1,8,0:0:0:0:
256,192,108458,1,0,0:0:0:0:
256,192,108526,1,8,0:0:0:0:
256,192,108594,1,0,0:0:0:0:
256,192,108731,1,8,0:0:0:0:
256,192,108799,1,8,0:0:0:0:
256,192,108867,1,8,0:0:0:0:
256,192,109003,1,8,0:0:0:0:
256,192,109140,1,0,0:0:0:0:
256,192,109412,1,8,0:0:0:0:
256,192,109685,1,12,0:0:0:0:
256,192,109958,1,12,0:0:0:0:
256,192,110367,1,0,0:0:0:0:
256,192,110504,1,8,0:0:0:0:
256,192,110776,1,8,0:0:0:0:
256,192,111049,1,0,0:0:0:0:
256,192,111185,1,8,0:0:0:0:
256,192,111322,1,8,0:0:0:0:
256,192,111594,1,0,0:0:0:0:
256,192,111867,1,0,0:0:0:0:
256,192,112140,1,0,0:0:0:0:
256,192,112412,1,8,0:0:0:0:
256,192,112685,1,0,0:0:0:0:
256,192,112958,1,8,0:0:0:0:
256,192,113367,1,0,0:0:0:0:
256,192,113503,1,8,0:0:0:0:
256,192,113776,1,0,0:0:0:0:
256,192,114049,1,0,0:0:0:0:
256,192,114322,1,0,0:0:0:0:
256,192,114594,1,8,0:0:0:0:
256,192,114662,1,8,0:0:0:0:
256,192,114731,1,8,0:0:0:0:
256,192,114799,1,8,0:0:0:0:
256,192,114867,1,8,0:0:0:0:
256,192,115003,1,8,0:0:0:0:
256,192,115140,1,0,0:0:0:0:
256,192,115208,1,0,0:0:0:0:
256,192,115276,1,8,0:0:0:0:
256,192,115412,1,8,0:0:0:0:
256,192,115458,1,8,0:0:0:0:
256,192,115685,1,0,0:0:0:0:
256,192,115731,1,0,0:0:0:0:
256,192,115958,1,0,0:0:0:0:
256,192,116003,1,0,0:0:0:0:
256,192,116231,1,12,0:0:0:0:
256,192,116503,1,0,0:0:0:0:
256,192,116640,1,12,0:0:0:0:
256,192,116912,1,0,0:0:0:0:
256,192,117048,1,12,0:0:0:0:
256,192,117185,1,0,0:0:0:0:
256,192,119503,1,4,0:0:0:0:
256,192,120593,1,0,0:0:0:0:
256,192,120661,1,0,0:0:0:0:
256,192,120730,1,0,0:0:0:0:
256,192,120798,1,8,0:0:0:0:
256,192,120866,1,0,0:0:0:0:
256,192,120934,1,0,0:0:0:0:
256,192,121002,1,0,0:0:0:0:
256,192,121071,1,0,0:0:0:0:
256,192,121139,1,0,0:0:0:0:
256,192,121207,1,0,0:0:0:0:
256,192,121275,1,0,0:0:0:0:
256,192,121343,1,8,0:0:0:0:
256,192,121411,1,0,0:0:0:0:
256,192,121480,1,0,0:0:0:0:
256,192,121548,1,0,0:0:0:0:
256,192,121616,1,0,0:0:0:0:
256,192,121684,1,0,0:0:0:0:
256,192,121752,1,8,0:0:0:0:
256,192,121821,1,0,0:0:0:0:
256,192,121889,1,0,0:0:0:0:
256,192,121957,1,0,0:0:0:0:
256,192,122025,1,0,0:0:0:0:
256,192,122093,1,0,0:0:0:0:
256,192,122161,1,0,0:0:0:0:
256,192,122230,1,8,0:0:0:0:
256,192,122298,1,8,0:0:0:0:
256,192,122366,1,8,0:0:0:0:
256,192,122434,1,8,0:0:0:0:
256,192,122502,12,0,126048,0:0:0:0:
