osu file format v14

[General]
AudioFilename: 15. I want you.mp3
AudioLeadIn: 0
PreviewTime: 48317
Countdown: 0
SampleSet: Soft
StackLeniency: 0.6
Mode: 2
LetterboxInBreaks: 0
WidescreenStoryboard: 0

[Editor]
DistanceSpacing: 1.1
BeatDivisor: 4
GridSize: 16
TimelineZoom: 2.3

[Metadata]
Title:I Want You
TitleUnicode:I Want You
Artist:Lin-G
ArtistUnicode:Lin-G
Creator:rew0825
Version:Salad
Source:DJMAX Portable Clazziquai Edition
Tags:Jay black square House Dance
BeatmapID:427982
BeatmapSetID:177851

[Difficulty]
HPDrainRate:4
CircleSize:3.5
OverallDifficulty:6.5
ApproachRate:6.5
SliderMultiplier:1.4
SliderTickRate:2

[Events]
//Background and Video events
0,0,"BG.jpg",0,0
//Break Periods
//Storyboard Layer 0 (Background)
//Storyboard Layer 1 (Fail)
//Storyboard Layer 2 (Pass)
//Storyboard Layer 3 (Foreground)
//Storyboard Sound Samples

[TimingPoints]
317,428.571428571429,4,2,1,40,1,0
7174,-100,4,2,1,60,0,0
48317,-100,4,2,1,80,0,1
61174,-100,4,2,1,80,0,0
62031,-100,4,2,1,80,0,1
75745,-100,4,2,1,40,0,0
82602,-100,4,2,1,60,0,0
89459,-66.6666666666667,4,2,1,80,0,1
103174,-200,4,2,1,30,0,0

[Colours]
Combo1 : 255,255,140
Combo2 : 165,227,254
Combo3 : 250,163,175

[HitObjects]
256,192,6745,5,0,1:0:0:0:
112,128,7174,6,0,P|80:192|112:256,1,140,4|8,1:2|0:0,0:0:0:0:
192,192,8031,1,0,0:0:0:0:
336,192,8459,1,8,0:0:0:0:
400,128,8888,6,0,P|432:192|400:256,1,140,0|8,0:0|0:0,0:0:0:0:
272,240,9531,2,0,P|240:176|272:112,1,140
400,64,10174,2,0,L|304:64,1,70,8|0,0:0|0:0,0:0:0:0:
192,64,10602,1,4,1:2:0:0:
128,192,11031,6,0,P|192:160|256:192,1,140,8|0,0:0|0:0,0:0:0:0:
320,240,11674,1,0,0:0:0:0:
400,288,11888,1,8,0:0:0:0:
480,336,12102,1,0,0:0:0:0:
320,240,12317,6,0,P|256:272|192:240,1,140,0|8,0:0|0:0,0:0:0:0:
32,256,13174,2,0,B|0:192|0:192|32:128,1,140,0|8,0:0|0:0,0:0:0:0:
128,128,13817,1,0,0:0:0:0:
272,128,14031,1,4,1:2:0:0:
176,192,14245,6,0,L|144:256,1,70,0|8,0:0|0:0,0:0:0:0:
304,192,14674,2,0,L|336:256,1,70
240,128,15102,2,0,L|144:128,2,70,0|8|0,0:0|0:0|0:0,0:0:0:0:
368,112,15745,6,0,P|430:86|490:118,1,140,0|8,0:0|0:0,0:0:0:0:
368,112,16388,1,0,0:0:0:0:
448,192,16817,2,0,L|480:256,1,70,0|8,0:0|0:0,0:0:0:0:
368,192,17245,1,0,0:0:0:0:
336,256,17459,1,4,1:2:0:0:
96,160,17888,6,0,P|160:128|224:160,1,140,8|0,0:0|0:0,0:0:0:0:
304,192,18531,1,0,0:0:0:0:
384,240,18745,1,8,0:0:0:0:
192,240,18959,2,0,P|128:272|64:240,1,140
160,176,19602,6,0,L|240:176,1,70,8|0,0:0|0:0,0:0:0:0:
368,192,20031,2,0,L|298:192,1,70
432,224,20459,2,0,P|464:160|432:96,1,140,0|4,0:0|1:2,0:0:0:0:
112,128,21317,6,0,P|80:192|112:256,1,140,8|0,0:0|0:0,0:0:0:0:
176,192,21959,1,0,0:0:0:0:
256,144,22174,1,8,0:0:0:0:
400,128,22388,6,0,P|432:192|400:256,1,140
336,192,23031,1,8,0:0:0:0:
256,144,23245,1,0,0:0:0:0:
336,112,23459,1,0,0:0:0:0:
176,192,23888,1,8,0:0:0:0:
336,112,24317,1,4,1:2:0:0:
192,208,24745,6,0,P|160:272|192:336,1,140,8|0,0:0|0:0,0:0:0:0:
256,272,25388,1,0,0:0:0:0:
320,208,25602,1,8,0:0:0:0:
448,80,25817,6,0,P|480:144|448:208,1,140
128,160,26674,2,0,P|96:224|128:288,1,140
224,160,27316,1,8,0:0:0:0:
304,128,27531,1,0,0:0:0:0:
384,160,27745,1,4,1:2:0:0:
304,128,28174,6,0,P|336:192|304:256,1,140,8|0,0:0|0:0,0:0:0:0:
224,288,28817,1,0,0:0:0:0:
128,288,29031,1,8,0:0:0:0:
32,288,29245,6,0,P|0:224|32:160,1,140
128,160,29888,1,8,0:0:0:0:
240,160,30102,1,0,0:0:0:0:
352,160,30317,2,0,P|384:224|352:288,1,140,0|8,0:0|0:0,0:0:0:0:
128,160,31174,6,0,P|96:96|128:32,1,140,4|8,1:2|0:0,0:0:0:0:
368,160,32031,2,0,P|400:96|368:32,1,140,0|8,0:0|0:0,0:0:0:0:
256,160,32674,1,0,0:0:0:0:
96,160,33102,6,0,L|96:256,1,70,0|8,0:0|0:0,0:0:0:0:
176,160,33531,2,0,L|176:80,1,70
96,80,33959,1,0,0:0:0:0:
176,80,34174,2,0,L|256:80,1,70,8|0,0:0|0:0,0:0:0:0:
400,80,34602,1,4,1:2:0:0:
128,192,35031,6,0,P|96:256|128:320,1,140,8|0,0:0|0:0,0:0:0:0:
192,272,35674,1,0,0:0:0:0:
256,192,35888,1,8,0:0:0:0:
384,192,36102,2,0,P|416:256|384:320,1,140
256,192,36745,6,0,L|192:128,1,70,8|0,0:0|0:0,0:0:0:0:
144,192,37174,2,0,L|208:128,1,70
256,80,37602,1,8,0:0:0:0:
320,144,37816,2,0,L|384:208,1,70,0|4,0:0|1:2,0:0:0:0:
256,192,38459,6,0,P|224:256|256:320,1,140,8|0,0:0|0:0,0:0:0:0:
320,256,39102,1,0,0:0:0:0:
384,192,39316,1,8,0:0:0:0:
192,192,39531,1,0,0:0:0:0:
64,256,39959,6,0,P|32:320|64:384,1,140
384,192,40817,2,0,P|416:256|384:320,1,140
256,256,41459,1,4,1:2:0:0:
192,192,41888,6,0,P|160:128|192:64,1,140,8|0,0:0|0:0,0:0:0:0:
256,128,42531,1,0,0:0:0:0:
320,64,42745,1,8,0:0:0:0:
448,128,42959,6,0,P|480:192|448:256,1,140
384,192,43602,2,0,L|320:128,1,70,8|0,0:0|0:0,0:0:0:0:
192,144,44031,1,0,0:0:0:0:
48,144,44459,1,8,0:0:0:0:
128,224,44888,6,0,L|192:288,1,70,4|0,1:2|0:0,0:0:0:0:
305,273,45317,2,0,L|256:224,1,70,8|0,0:0|0:0,0:0:0:0:
142,110,45745,2,0,L|192:160,1,70
320,160,46174,1,8,0:0:0:0:
256,96,46388,6,8,P|224:160|256:224,1,140,0|0,0:0|0:0,0:0:0:0:
448,96,47245,2,8,P|480:160|448:224,1,140,0|0,0:0|0:0,0:0:0:0:
352,160,47888,1,8,0:0:0:0:
256,96,48102,1,8,0:0:0:0:
64,160,48317,5,4,1:2:0:0:
192,256,48745,1,4,1:2:0:0:
320,160,49174,1,4,1:2:0:0:
256,208,49602,1,8,0:0:0:0:
448,160,49816,6,0,P|480:224|448:288,1,140
384,208,50459,2,0,L|320:272,1,70,8|0,0:0|0:0,0:0:0:0:
224,192,50888,1,0,0:0:0:0:
64,192,51317,1,8,0:0:0:0:
192,128,51745,6,0,B|256:96|256:96|320:128,1,140,4|4,1:2|1:2,0:0:0:0:
432,192,52602,1,4,1:2:0:0:
256,192,53031,1,8,0:0:0:0:
64,160,53245,6,0,P|126:185|186:153,1,140
128,96,53888,2,0,L|192:32,1,70,8|0,0:0|0:0,0:0:0:0:
256,96,54316,1,0,0:0:0:0:
368,160,54745,1,8,0:0:0:0:
192,128,55174,6,0,P|160:64|192:0,1,140,4|4,1:2|1:2,0:0:0:0:
384,128,56031,1,4,1:2:0:0:
288,192,56459,1,8,0:0:0:0:
128,192,56674,6,0,P|96:256|128:320,1,140,0|8,0:0|0:0,0:0:0:0:
192,256,57531,2,0,L|288:256,1,70,0|8,0:0|0:0,0:0:0:0:
352,192,57959,2,0,L|256:192,1,70,0|8,0:0|0:0,0:0:0:0:
192,128,58388,1,0,0:0:0:0:
256,128,58602,6,0,L|176:128,1,70,4|0,1:2|0:0,0:0:0:0:
326,128,59245,2,0,P|384:160|448:128,1,140
192,128,60102,2,0,P|160:192|192:256,1,140
288,192,60745,2,0,L|320:256,1,70,8|0,0:0|0:0,0:0:0:0:
363,193,61174,6,0,L|398:197,4,35,0|0|0|0|8,0:0|0:0|0:0|0:0|0:0,0:0:0:0:
288,192,62031,6,0,P|240:240|288:272,1,140,4|4,1:2|1:2,0:0:0:0:
64,192,62888,1,4,1:2:0:0:
176,112,63316,1,8,0:0:0:0:
288,192,63531,6,0,L|288:288,1,70
400,112,63959,2,0,L|464:176,1,70,0|8,0:0|0:0,0:0:0:0:
288,112,64388,1,0,0:0:0:0:
224,192,64602,2,0,L|64:192,1,140,0|8,0:0|0:0,0:0:0:0:
256,192,65459,6,0,P|208:240|272:256,1,140,4|4,1:2|1:2,0:0:0:0:
448,192,66316,1,4,1:2:0:0:
352,128,66745,1,8,0:0:0:0:
160,128,66959,6,0,P|112:176|176:208,1,140,0|8,0:0|0:0,0:0:0:0:
256,192,67817,2,0,L|160:192,1,70,0|8,0:0|0:0,0:0:0:0:
64,128,68245,2,0,L|144:128,1,70,0|8,0:0|0:0,0:0:0:0:
256,128,68674,1,0,0:0:0:0:
416,192,68888,6,0,P|464:240|400:256,1,140,4|4,1:2|1:2,0:0:0:0:
256,272,69745,1,4,1:2:0:0:
96,192,70174,1,8,0:0:0:0:
256,192,70388,6,0,P|304:240|240:256,1,140
368,192,71031,2,0,L|432:256,1,70,8|0,0:0|0:0,0:0:0:0:
289,225,71459,1,0,0:0:0:0:
400,192,71888,1,8,0:0:0:0:
320,256,72102,1,0,0:0:0:0:
208,272,72316,6,0,L|112:272,2,70,4|0|8,1:2|0:0|0:0,0:0:0:0:
336,192,72959,2,0,B|400:224|400:224|336:256,1,140
208,192,73602,1,8,0:0:0:0:
96,192,73817,2,0,B|32:224|32:224|96:256,1,140
208,192,74459,1,8,0:0:0:0:
336,192,74674,6,0,B|400:224|400:224|336:256,1,140
208,96,75316,2,0,L|112:96,1,70,8|0,0:0|0:0,0:0:0:0:
208,96,75745,5,0,0:0:0:0:
320,176,76174,1,8,0:0:0:0:
432,96,76602,1,0,0:0:0:0:
208,176,77031,1,8,0:0:0:0:
352,256,77459,6,0,P|288:288|224:256,1,140,0|8,0:0|0:0,0:0:0:0:
64,192,78317,2,0,L|32:256,1,70
128,192,78745,1,0,0:0:0:0:
160,256,78959,1,8,0:0:0:0:
256,192,79174,6,0,P|320:160|384:192,1,140,0|8,0:0|0:0,0:0:0:0:
256,192,80031,2,0,P|192:224|128:192,1,140,0|8,0:0|0:0,0:0:0:0:
384,208,80888,6,0,P|416:144|384:80,1,140,0|8,0:0|0:0,0:0:0:0:
192,144,81745,2,0,L|128:208,1,70
64,288,82174,1,8,0:0:0:0:
192,256,82602,6,0,P|256:288|320:256,1,140,4|8,1:2|0:0,0:0:0:0:
416,240,83459,1,0,0:0:0:0:
256,240,83888,1,8,0:0:0:0:
69,89,84316,6,0,P|132:64|192:96,1,140,0|8,0:0|0:0,0:0:0:0:
320,96,85174,1,0,0:0:0:0:
192,96,85602,1,8,0:0:0:0:
64,192,86031,6,0,P|128:224|192:192,1,140,0|8,0:0|0:0,0:0:0:0:
320,192,86888,1,0,0:0:0:0:
384,192,87102,1,0,0:0:0:0:
448,192,87317,1,8,0:0:0:0:
272,192,87745,6,0,P|304:256|272:320,1,140,0|8,0:0|0:0,0:0:0:0:
464,128,88602,1,0,0:0:0:0:
400,128,88817,1,0,0:0:0:0:
336,128,89031,1,8,0:0:0:0:
256,192,89459,6,0,P|192:128|256:48,1,210.000008010865,4|4,1:2|1:2,0:0:0:0:
448,112,90317,1,4,1:2:0:0:
256,112,90745,1,8,0:0:0:0:
336,112,90959,6,0,L|416:192,1,105.000004005432
256,192,91388,2,0,L|176:272,1,105.000004005432,0|8,0:0|0:0,0:0:0:0:
64,192,91817,1,0,0:0:0:0:
176,144,92031,2,0,P|256:80|320:144,1,210.000008010865,0|8,0:0|0:0,0:0:0:0:
416,192,92674,1,8,0:0:0:0:
336,256,92888,5,4,1:2:0:0:
112,256,93317,1,4,1:2:0:0:
304,256,93745,1,4,1:2:0:0:
256,192,94174,1,8,0:0:0:0:
336,128,94388,6,0,P|400:192|336:272,1,210.000008010865,0|8,0:0|0:0,0:0:0:0:
112,128,95245,2,0,L|32:48,1,105.000004005432,0|8,0:0|0:0,0:0:0:0:
192,176,95674,2,0,L|272:256,1,105.000004005432,0|8,0:0|0:0,0:0:0:0:
400,176,96102,1,0,0:0:0:0:
208,128,96316,6,0,P|144:192|208:272,1,210.000008010865,4|4,1:2|1:2,0:0:0:0:
320,192,96959,1,0,0:0:0:0:
432,128,97174,2,0,P|496:192|432:272,1,210.000008010865,4|0,1:2|0:0,0:0:0:0:
320,192,97817,6,0,L|240:112,1,105.000004005432,0|8,0:0|0:0,0:0:0:0:
80,192,98245,2,0,L|160:272,1,105.000004005432,0|8,0:0|0:0,0:0:0:0:
320,192,98674,2,0,L|400:272,1,105.000004005432,0|8,0:0|0:0,0:0:0:0:
288,128,99102,2,0,L|176:128,1,105.000004005432,0|8,0:0|0:0,0:0:0:0:
64,128,99531,1,0,0:0:0:0:
176,256,99745,6,0,L|208:144,1,105.000004005432,4|0,0:0|0:0,0:0:0:0:
320,224,100174,2,0,L|288:112,1,105.000004005432,0|0,0:0|0:0,0:0:0:0:
464,336,100602,2,0,L|368:288,1,105.000004005432,4|0,0:0|0:0,0:0:0:0:
256,336,101031,2,0,L|352:288,1,105.000004005432
432,224,101459,6,0,L|352:144,1,105.000004005432,4|0,1:2|0:0,0:0:0:0:
224,160,101888,2,0,L|144:240,1,105.000004005432,4|0,1:2|0:0,0:0:0:0:
48,192,102316,6,0,L|96:96,1,105.000004005432,4|0,1:2|0:0,0:0:0:0:
256,80,102745,2,0,L|288:192,1,105.000004005432,4|0,1:2|0:0,0:0:0:0:
256,192,103174,12,0,104674,0:0:0:0:
