osu file format v14

[General]
AudioFilename: 15. I want you.mp3
AudioLeadIn: 0
PreviewTime: 48317
Countdown: 0
SampleSet: Soft
StackLeniency: 0.6
Mode: 2
LetterboxInBreaks: 0
WidescreenStoryboard: 0

[Editor]
DistanceSpacing: 1.1
BeatDivisor: 4
GridSize: 16
TimelineZoom: 2.2

[Metadata]
Title:I Want You
TitleUnicode:I Want You
Artist:Lin-G
ArtistUnicode:Lin-G
Creator:rew0825
Version:Rain
Source:DJMAX Portable Clazziquai Edition
Tags:Jay black square House Dance
BeatmapID:427981
BeatmapSetID:177851

[Difficulty]
HPDrainRate:6
CircleSize:4
OverallDifficulty:9
ApproachRate:9
SliderMultiplier:1.8
SliderTickRate:2

[Events]
//Background and Video events
0,0,"BG.jpg",0,0
//Break Periods
//Storyboard Layer 0 (Background)
//Storyboard Layer 1 (Fail)
//Storyboard Layer 2 (Pass)
//Storyboard Layer 3 (Foreground)
//Storyboard Sound Samples

[TimingPoints]
317,428.571428571429,4,2,1,40,1,0
7174,-100,4,2,1,60,0,0
30316,-66.6666666666667,4,2,1,60,0,0
30745,-100,4,2,1,60,0,0
39959,-66.6666666666667,4,2,1,60,0,0
41459,-100,4,2,1,60,0,0
44459,-100,4,2,1,60,0,0
45745,-80,4,2,1,60,0,0
46388,-66.6666666666667,4,2,1,60,0,0
48317,-100,4,2,1,80,0,1
50888,-66.6666666666667,4,2,1,80,0,1
51317,-100,4,2,1,80,0,1
54531,-66.6666666666667,4,2,1,80,0,1
55174,-100,4,2,1,80,0,1
57959,-66.6666666666667,4,2,1,80,0,1
58602,-100,4,2,1,80,0,1
61174,-100,4,2,1,80,0,0
62031,-100,4,2,1,80,0,1
73174,-80,4,2,1,80,0,1
74031,-100,4,2,1,80,0,1
75745,-100,4,2,1,40,0,0
82602,-80,4,2,1,60,0,0
86031,-100,4,2,1,60,0,0
89459,-66.6666666666667,4,2,1,80,0,1
94388,-66.6666666666667,4,2,1,80,0,1
101459,-100,4,2,1,80,0,1
103174,-200,4,2,1,30,0,0

[Colours]
Combo1 : 255,255,140
Combo2 : 165,227,254
Combo3 : 250,163,175

[HitObjects]
64,192,6745,5,0,1:0:0:0:
320,192,7174,5,4,1:2:0:0:
176,144,7388,2,0,L|80:112,1,90,0|8,0:0|0:0,0:0:0:0:
256,192,7817,1,0,0:0:0:0:
336,192,7924,1,0,0:0:0:0:
416,192,8031,1,0,0:0:0:0:
320,304,8245,2,0,P|384:272|416:304,2,90,0|8|0,0:0|0:0|0:0,0:0:0:0:
96,272,8888,6,0,P|48:272|112:224,1,180,0|8,0:0|0:0,0:0:0:0:
416,272,9531,2,0,P|464:272|400:224,1,180
128,144,10174,2,0,L|32:144,2,90,8|0|4,0:0|0:0|1:2,0:0:0:0:
256,192,10817,5,0,0:0:0:0:
416,192,11031,1,8,0:0:0:0:
336,144,11245,1,0,0:0:0:0:
232,144,11352,1,0,0:0:0:0:
128,144,11459,2,0,L|48:224,1,90,0|0,0:0|0:0,0:0:0:0:
208,304,11888,1,8,0:0:0:0:
320,256,12102,1,0,0:0:0:0:
144,192,12317,5,4,1:2:0:0:
416,192,12531,1,0,0:0:0:0:
464,176,12638,1,0,0:0:0:0:
416,144,12745,1,8,0:0:0:0:
208,144,12959,1,0,0:0:0:0:
384,144,13174,5,4,1:2:0:0:
96,192,13388,1,0,0:0:0:0:
48,176,13495,1,0,0:0:0:0:
96,144,13602,1,8,0:0:0:0:
368,192,13817,1,0,0:0:0:0:
256,272,14031,1,4,1:2:0:0:
112,240,14245,6,0,L|48:176,1,90,0|8,0:0|0:0,0:0:0:0:
224,144,14674,1,0,0:0:0:0:
272,128,14781,1,0,0:0:0:0:
448,272,14995,1,0,0:0:0:0:
400,256,15102,2,0,L|272:256,1,90,0|8,0:0|0:0,0:0:0:0:
112,240,15531,1,0,0:0:0:0:
400,64,15745,6,0,P|448:64|384:112,1,180,0|8,0:0|0:0,0:0:0:0:
112,64,16388,2,0,P|64:64|128:112,1,180
384,320,17031,1,8,0:0:0:0:
448,304,17138,1,0,0:0:0:0:
480,240,17245,1,0,0:0:0:0:
448,176,17352,1,0,0:0:0:0:
144,192,17459,1,4,1:2:0:0:
320,128,17888,6,0,P|368:128|304:176,1,180,8|0,0:0|0:0,0:0:0:0:
208,160,18531,1,0,0:0:0:0:
96,112,18745,1,8,0:0:0:0:
432,208,18959,6,0,P|480:208|416:256,1,180
80,224,19602,2,0,P|32:224|96:272,1,180,8|0,0:0|0:0,0:0:0:0:
208,224,20245,1,0,0:0:0:0:
432,224,20459,1,8,0:0:0:0:
480,192,20567,1,0,0:0:0:0:
432,160,20674,1,0,0:0:0:0:
144,160,20888,1,4,1:2:0:0:
384,128,21316,6,0,P|432:128|368:176,1,180,8|0,0:0|0:0,0:0:0:0:
256,144,21959,1,0,0:0:0:0:
128,192,22174,1,8,0:0:0:0:
320,240,22388,2,0,P|368:240|304:288,1,180,0|0,0:0|0:0,0:0:0:0:
128,240,23031,1,8,0:0:0:0:
224,224,23245,5,0,0:0:0:0:
288,208,23352,1,0,0:0:0:0:
352,192,23459,2,8,P|400:192|336:240,1,180,0|8,0:0|0:0,0:0:0:0:
128,240,24317,1,4,1:2:0:0:
288,208,24745,6,0,P|336:208|272:256,1,180,8|0,0:0|0:0,0:0:0:0:
128,240,25388,1,0,0:0:0:0:
80,192,25495,1,0,0:0:0:0:
128,144,25602,1,8,0:0:0:0:
448,160,25816,6,0,P|496:160|432:192,1,180
64,160,26674,2,0,P|16:160|80:192,1,180
352,240,27316,1,8,0:0:0:0:
416,224,27424,1,0,0:0:0:0:
448,160,27531,1,0,0:0:0:0:
416,96,27638,1,0,0:0:0:0:
64,160,27745,1,4,1:2:0:0:
256,128,28174,6,0,P|304:128|240:176,1,180,8|0,0:0|0:0,0:0:0:0:
64,208,28817,1,0,0:0:0:0:
160,256,29031,1,8,0:0:0:0:
464,240,29245,2,0,L|368:240,1,90
256,192,29674,5,0,0:0:0:0:
176,144,29781,1,0,0:0:0:0:
96,112,29888,2,0,L|0:48,1,90,8|0,0:0|0:0,0:0:0:0:
336,224,30316,2,0,B|448:304|448:304|320:384,1,270.000010299683,0|8,0:0|0:0,0:0:0:0:
96,112,31174,6,0,L|192:160,1,90,4|0,1:2|0:0,0:0:0:0:
416,256,31602,1,8,0:0:0:0:
176,256,32031,2,0,L|80:208,1,90
256,192,32459,1,8,0:0:0:0:
416,160,32674,2,0,P|464:160|400:208,1,180
112,208,33317,6,0,L|208:160,1,90,8|0,0:0|0:0,0:0:0:0:
400,208,33745,2,0,L|304:160,1,90
144,224,34174,1,8,0:0:0:0:
96,208,34281,1,0,0:0:0:0:
304,256,34388,1,0,0:0:0:0:
352,240,34495,1,0,0:0:0:0:
96,208,34602,1,4,1:2:0:0:
384,320,35031,6,0,P|432:320|368:272,1,180,8|0,0:0|0:0,0:0:0:0:
320,224,35567,1,0,0:0:0:0:
256,192,35674,1,0,0:0:0:0:
96,208,35888,1,8,0:0:0:0:
288,144,36102,2,0,P|336:144|272:192,1,180
160,256,36745,6,0,L|48:208,1,90,8|0,0:0|0:0,0:0:0:0:
352,256,37174,2,0,L|464:208,1,90,0|0,0:0|0:0,0:0:0:0:
160,192,37602,2,0,L|74:164,1,90,8|0,0:0|0:0,0:0:0:0:
432,160,38031,1,4,1:2:0:0:
256,128,38459,6,0,P|304:128|240:176,1,180,8|0,0:0|0:0,0:0:0:0:
144,256,39102,1,0,0:0:0:0:
32,304,39317,1,8,0:0:0:0:
384,128,39531,1,0,0:0:0:0:
128,128,39959,5,8,0:0:0:0:
416,256,40388,1,0,0:0:0:0:
80,256,40816,2,0,P|0:256|96:304,1,270.000010299683,8|0,0:0|0:0,0:0:0:0:
416,256,41459,1,4,1:2:0:0:
192,96,41888,6,0,P|144:96|208:144,1,180,8|0,0:0|0:0,0:0:0:0:
352,256,42531,1,0,0:0:0:0:
400,224,42638,1,0,0:0:0:0:
352,192,42745,1,8,0:0:0:0:
128,192,42959,2,0,L|240:192,1,90
384,192,43388,6,0,L|480:192,2,90,0|8|0,0:0|0:0|0:0,0:0:0:0:
96,192,44031,1,0,0:0:0:0:
32,208,44138,1,0,0:0:0:0:
0,272,44245,1,0,0:0:0:0:
32,336,44352,1,0,0:0:0:0:
256,304,44459,1,8,0:0:0:0:
448,288,44888,5,0,0:0:0:0:
352,256,45102,1,0,0:0:0:0:
64,288,45317,1,8,0:0:0:0:
160,256,45531,1,0,0:0:0:0:
449,136,45745,2,0,L|352:192,2,112.5,0|0|8,0:0|0:0|0:0,0:0:0:0:
128,256,46388,6,0,B|0:304|0:304|128:352,1,270.000010299683
400,256,47245,2,0,B|528:304|528:304|384:352,1,270.000010299683
80,192,47888,1,8,0:0:0:0:
32,176,47995,1,0,0:0:0:0:
256,160,48102,1,0,0:0:0:0:
304,144,48209,1,0,0:0:0:0:
80,128,48317,5,4,1:2:0:0:
336,160,48745,1,4,1:2:0:0:
80,192,49174,1,4,1:2:0:0:
448,224,49602,1,8,0:0:0:0:
320,224,49816,6,0,L|224:224,1,90
80,256,50245,2,0,L|176:256,1,90,0|8,0:0|0:0,0:0:0:0:
384,160,50674,1,0,0:0:0:0:
256,64,50888,2,0,B|128:112|128:112|256:160,1,270.000010299683,8|0,0:0|0:0,0:0:0:0:
448,160,51745,5,4,1:2:0:0:
160,192,52174,1,4,1:2:0:0:
448,224,52602,1,4,1:2:0:0:
96,240,53031,1,8,0:0:0:0:
224,240,53245,6,0,L|336:240,1,90
448,304,53674,2,0,L|352:304,1,90,0|8,0:0|0:0,0:0:0:0:
160,304,54102,2,0,L|256:304,1,90
448,240,54531,2,0,L|512:272,2,67.5000025749208,0|0|8,0:0|0:0|0:0,0:0:0:0:
352,240,54959,1,0,0:0:0:0:
32,240,55174,5,4,1:2:0:0:
256,240,55602,1,4,1:2:0:0:
160,160,56031,1,4,1:2:0:0:
352,160,56459,1,8,0:0:0:0:
208,240,56674,6,0,L|304:240,1,90
464,240,57102,2,0,L|368:240,1,90,0|8,0:0|0:0,0:0:0:0:
80,144,57531,2,0,L|176:144,1,90
448,144,57959,2,0,L|512:112,2,67.5000025749208,0|0|8,0:0|0:0|0:0,0:0:0:0:
96,144,58388,1,0,0:0:0:0:
256,192,58602,5,4,1:2:0:0:
448,192,58816,2,0,P|496:192|432:240,1,180
96,224,59674,1,0,0:0:0:0:
400,224,60102,2,0,L|220:224,1,180,8|0,0:0|0:0,0:0:0:0:
304,288,60745,1,8,0:0:0:0:
496,288,60959,1,0,0:0:0:0:
160,112,61174,5,0,0:0:0:0:
96,128,61281,1,0,0:0:0:0:
64,192,61388,1,0,0:0:0:0:
96,256,61495,1,0,0:0:0:0:
352,320,61602,1,0,0:0:0:0:
416,304,61709,1,0,0:0:0:0:
448,240,61817,1,0,0:0:0:0:
416,176,61924,1,0,0:0:0:0:
80,176,62031,6,0,L|160:224,1,90,4|0,1:2|0:0,0:0:0:0:
432,256,62459,2,0,L|336:320,1,90,4|0,1:2|0:0,0:0:0:0:
80,256,62888,1,4,1:2:0:0:
352,256,63102,1,0,0:0:0:0:
400,240,63209,1,0,0:0:0:0:
128,240,63424,1,0,0:0:0:0:
80,224,63531,6,0,P|32:224|96:176,1,180
256,144,64174,1,8,0:0:0:0:
80,144,64388,1,0,0:0:0:0:
432,208,64602,2,0,L|240:208,1,180,0|8,0:0|0:0,0:0:0:0:
80,224,65459,6,0,L|176:304,1,90,4|0,1:2|0:0,0:0:0:0:
432,224,65888,2,0,L|336:304,1,90,4|0,0:0|0:0,1:2:0:0:
80,224,66316,1,4,1:2:0:0:
368,144,66531,1,0,0:0:0:0:
416,128,66638,1,0,0:0:0:0:
144,144,66852,1,0,0:0:0:0:
96,128,66959,1,0,0:0:0:0:
368,208,67174,6,0,L|464:208,1,90
160,240,67602,2,0,L|64:240,1,90,8|0,0:0|0:0,0:0:0:0:
352,240,68031,1,0,0:0:0:0:
208,288,68245,1,0,0:0:0:0:
160,240,68352,1,0,0:0:0:0:
208,192,68459,1,8,0:0:0:0:
432,192,68674,1,0,0:0:0:0:
208,192,68888,6,0,L|112:192,1,90,4|0,1:2|0:0,0:0:0:0:
336,144,69316,2,0,L|432:144,1,90,4|0,1:2|0:0,0:0:0:0:
128,144,69745,1,4,1:2:0:0:
336,144,69959,1,0,0:0:0:0:
400,160,70067,1,0,0:0:0:0:
128,256,70281,1,0,0:0:0:0:
64,272,70388,1,0,0:0:0:0:
352,272,70602,6,0,L|448:272,1,90
96,224,71031,2,0,L|0:224,1,90,8|0,0:0|0:0,0:0:0:0:
304,192,71459,2,0,L|400:192,2,90,0|0|8,0:0|0:0|0:0,0:0:0:0:
432,112,72102,1,0,0:0:0:0:
32,160,72317,6,4,L|96:224,1,90,4|0,0:0|0:0,1:2:0:0:
208,160,72745,2,0,L|144:96,1,90,8|0,0:0|0:0,0:0:0:0:
432,112,73174,6,4,L|512:192,1,112.5,4|0,1:2|0:0,0:0:0:0:
400,256,73602,2,0,L|304:160,1,112.5,8|0,0:0|0:0,0:0:0:0:
48,288,74031,6,0,L|144:288,1,90,4|0,1:2|0:0,0:0:0:0:
464,272,74459,2,0,L|368:272,1,90,4|0,0:0|0:0,1:2:0:0:
96,208,74888,5,4,0:0:0:0:
48,192,74995,1,0,0:0:0:0:
320,192,75102,1,0,0:0:0:0:
368,176,75209,1,0,0:0:0:0:
144,192,75317,1,8,0:0:0:0:
96,176,75424,1,0,1:0:0:0:
80,128,75531,1,0,1:0:0:0:
96,80,75638,1,0,1:0:0:0:
320,304,75745,5,4,1:2:0:0:
432,240,75959,1,0,0:0:0:0:
256,176,76174,1,8,0:0:0:0:
144,144,76388,2,0,L|32:144,1,90
368,144,76817,2,0,L|480:144,1,90,0|8,0:0|0:0,0:0:0:0:
256,176,77245,1,0,0:0:0:0:
160,288,77459,5,0,0:0:0:0:
96,256,77567,1,0,0:0:0:0:
160,224,77674,1,0,0:0:0:0:
368,240,77888,2,0,P|416:240|352:192,1,180,8|0,0:0|0:0,0:0:0:0:
224,176,78531,1,0,0:0:0:0:
96,176,78745,2,0,L|0:192,2,90,8|0|0,0:0|0:0|0:0,0:0:0:0:
256,288,79388,5,0,0:0:0:0:
464,272,79602,1,8,0:0:0:0:
512,240,79709,1,0,0:0:0:0:
464,208,79817,1,0,0:0:0:0:
160,160,80031,2,0,L|256:160,1,90
384,160,80459,2,0,L|448:176,2,45,0|0|0,0:0|0:0|0:0,0:0:0:0:
160,160,80888,6,0,L|116:170,2,45
304,224,81316,1,0,0:0:0:0:
144,256,81531,1,0,0:0:0:0:
96,240,81638,1,0,0:0:0:0:
304,224,81852,1,0,0:0:0:0:
352,208,81959,1,0,0:0:0:0:
144,176,82174,1,8,0:0:0:0:
432,160,82388,1,8,0:0:0:0:
208,240,82602,6,0,L|464:240,1,225,4|8,0:0|0:0,0:0:0:0:
304,176,83459,2,0,L|48:176,1,225,0|8,0:0|0:0,0:0:0:0:
208,176,84316,6,0,P|144:176|224:224,1,225,0|8,0:0|0:0,0:0:0:0:
400,176,84959,1,0,0:0:0:0:
448,160,85067,1,0,0:0:0:0:
272,144,85174,1,0,0:0:0:0:
224,128,85281,1,0,0:0:0:0:
272,112,85388,1,0,0:0:0:0:
432,96,85602,1,8,0:0:0:0:
240,256,85817,1,0,0:0:0:0:
160,288,85924,1,0,0:0:0:0:
80,320,86031,6,0,L|0:240,1,90
320,224,86459,2,0,P|368:224|304:176,1,180,8|0,0:0|0:0,0:0:0:0:
80,176,87102,1,0,0:0:0:0:
240,256,87317,1,8,0:0:0:0:
400,320,87745,6,0,L|304:320,1,90,0|0,0:0|0:0,0:0:0:0:
80,240,88174,2,0,P|32:240|96:192,1,180,8|0,0:0|0:0,0:0:0:0:
240,176,88817,1,0,0:0:0:0:
432,240,89031,1,0,0:0:0:0:
480,224,89138,1,0,0:0:0:0:
304,208,89245,1,0,0:0:0:0:
256,192,89352,1,0,0:0:0:0:
432,176,89459,5,4,1:2:0:0:
384,64,89674,1,0,0:0:0:0:
80,176,89888,1,4,1:2:0:0:
128,64,90102,1,0,0:0:0:0:
368,176,90317,1,4,1:2:0:0:
208,256,90531,1,0,0:0:0:0:
256,192,90638,1,0,0:0:0:0:
80,224,90852,1,0,0:0:0:0:
128,160,90959,6,0,L|240:80,1,135.000005149842
352,176,91388,2,0,L|256:272,1,135.000005149842,0|8,0:0|0:0,0:0:0:0:
16,272,91816,2,0,L|128:192,1,135.000005149842
480,304,92245,1,0,0:0:0:0:
352,304,92459,1,8,0:0:0:0:
64,208,92888,5,4,1:2:0:0:
192,208,93102,1,0,0:0:0:0:
416,128,93317,1,4,1:2:0:0:
288,128,93531,1,0,0:0:0:0:
128,128,93745,1,4,1:2:0:0:
256,208,93959,1,0,0:0:0:0:
208,224,94067,1,0,0:0:0:0:
400,144,94281,1,0,0:0:0:0:
352,160,94388,6,0,L|256:256,1,135.000005149842
32,208,94816,2,0,L|128:304,1,135.000005149842,0|8,0:0|0:0,0:0:0:0:
448,208,95245,1,0,0:0:0:0:
352,208,95459,1,0,0:0:0:0:
160,208,95674,1,0,0:0:0:0:
96,256,95781,1,0,0:0:0:0:
160,304,95888,1,8,0:0:0:0:
352,304,96102,1,0,0:0:0:0:
448,288,96317,5,4,1:2:0:0:
304,288,96531,1,0,0:0:0:0:
64,208,96745,1,4,1:2:0:0:
208,208,96959,1,0,0:0:0:0:
352,208,97174,1,4,1:2:0:0:
128,144,97388,1,0,0:0:0:0:
80,128,97495,1,0,0:0:0:0:
368,144,97709,1,0,0:0:0:0:
416,128,97817,1,0,0:0:0:0:
144,288,98031,6,0,L|48:192,1,135.000005149842
256,288,98459,2,0,L|352:192,1,135.000005149842,8|0,0:0|0:0,0:0:0:0:
176,208,98888,2,0,L|288:96,1,135.000005149842
512,176,99317,2,0,L|400:64,1,135.000005149842,8|0,0:0|0:0,0:0:0:0:
128,288,99745,6,0,L|32:192,2,135.000005149842,4|0|8,1:2|0:0|0:0,0:0:0:0:
256,304,100388,1,0,0:0:0:0:
384,288,100602,2,0,L|480:192,2,135.000005149842,4|0|8,1:2|0:0|0:0,0:0:0:0:
256,304,101245,1,0,0:0:0:0:
147,256,101459,5,4,1:2:0:0:
32,256,101674,1,0,0:0:0:0:
304,160,101888,6,0,L|214:160,1,90,4|0,1:2|0:0,0:0:0:0:
364,256,102316,5,4,1:2:0:0:
480,256,102531,1,0,0:0:0:0:
208,160,102745,6,0,L|336:160,1,90,4|0,1:2|0:0,0:0:0:0:
256,192,103174,12,0,104674,0:0:0:0:
