osu file format v14

[General]
AudioFilename: 15. I want you.mp3
AudioLeadIn: 0
PreviewTime: 48317
Countdown: 0
SampleSet: Normal
StackLeniency: 0.6
Mode: 1
LetterboxInBreaks: 0
WidescreenStoryboard: 0

[Editor]
DistanceSpacing: 1.1
BeatDivisor: 4
GridSize: 32
TimelineZoom: 2

[Metadata]
Title:I Want You
TitleUnicode:I Want You
Artist:Lin-G
ArtistUnicode:Lin-G
Creator:rew0825
Version:Kantan
Source:DJMAX Portable Clazziquai Edition
Tags:Jay black square House Dance
BeatmapID:427977
BeatmapSetID:177851

[Difficulty]
HPDrainRate:8
CircleSize:4
OverallDifficulty:2
ApproachRate:5
SliderMultiplier:1.4
SliderTickRate:2

[Events]
//Background and Video events
0,0,"BG.jpg",0,85
//Break Periods
//Storyboard Layer 0 (Background)
//Storyboard Layer 1 (Fail)
//Storyboard Layer 2 (Pass)
//Storyboard Layer 3 (Foreground)
//Storyboard Sound Samples

[TimingPoints]
317,428.571428571429,4,1,0,60,1,0
48317,-100,4,1,0,80,0,1
75745,-100,4,1,0,60,0,0
82602,-100,4,1,0,70,0,0
89459,-100,4,1,0,80,0,1
103174,-100,4,1,0,60,0,0

[HitObjects]
256,192,7174,5,8,0:0:0:0:
256,192,8031,1,0,0:0:0:0:
256,192,8888,1,8,0:0:0:0:
256,192,9531,1,8,0:0:0:0:
256,192,10602,1,0,0:0:0:0:
256,192,11459,1,8,0:0:0:0:
256,192,12317,1,0,0:0:0:0:
256,192,13174,1,0,0:0:0:0:
256,192,14031,1,8,0:0:0:0:
256,192,14888,1,0,0:0:0:0:
256,192,15745,1,8,0:0:0:0:
256,192,16388,1,8,0:0:0:0:
256,192,17459,1,0,0:0:0:0:
256,192,18317,1,8,0:0:0:0:
256,192,18959,1,0,0:0:0:0:
256,192,20459,1,8,0:0:0:0:
256,192,20888,1,0,0:0:0:0:
256,192,21745,1,8,0:0:0:0:
256,192,22388,1,0,0:0:0:0:
256,192,23459,1,0,0:0:0:0:
256,192,23888,1,8,0:0:0:0:
256,192,24317,1,0,0:0:0:0:
256,192,25174,1,8,0:0:0:0:
256,192,25817,1,0,0:0:0:0:
256,192,26888,1,8,0:0:0:0:
256,192,27317,1,8,0:0:0:0:
256,192,27745,1,0,0:0:0:0:
256,192,28602,1,8,0:0:0:0:
256,192,29245,1,0,0:0:0:0:
256,192,30317,1,8,0:0:0:0:
256,192,30745,1,8,0:0:0:0:
256,192,31174,1,0,0:0:0:0:
256,192,32031,1,8,0:0:0:0:
256,192,32674,1,0,0:0:0:0:
256,192,33745,1,0,0:0:0:0:
256,192,34174,1,8,0:0:0:0:
256,192,34602,1,4,0:0:0:0:
256,192,35459,1,8,0:0:0:0:
256,192,36317,1,0,0:0:0:0:
256,192,37174,1,8,0:0:0:0:
256,192,37602,1,8,0:0:0:0:
256,192,38031,1,0,0:0:0:0:
256,192,38888,1,8,0:0:0:0:
256,192,39745,1,0,0:0:0:0:
256,192,40602,1,8,0:0:0:0:
256,192,41031,1,8,0:0:0:0:
256,192,41459,1,0,0:0:0:0:
256,192,42317,1,8,0:0:0:0:
256,192,43174,1,0,0:0:0:0:
256,192,44031,1,0,0:0:0:0:
256,192,44459,1,8,0:0:0:0:
256,192,44888,1,0,0:0:0:0:
256,192,45745,1,8,0:0:0:0:
256,192,46602,1,0,0:0:0:0:
256,192,47459,1,8,0:0:0:0:
256,192,47888,1,8,0:0:0:0:
256,192,48317,1,4,0:0:0:0:
256,192,49174,1,4,0:0:0:0:
256,192,50031,1,8,0:0:0:0:
256,192,50888,1,0,0:0:0:0:
256,192,51317,1,8,0:0:0:0:
256,192,51745,1,4,0:0:0:0:
256,192,52602,1,4,0:0:0:0:
256,192,53459,1,8,0:0:0:0:
256,192,54317,1,8,0:0:0:0:
256,192,54745,1,8,0:0:0:0:
256,192,55174,1,4,0:0:0:0:
256,192,56031,1,4,0:0:0:0:
256,192,56888,1,8,0:0:0:0:
256,192,57745,1,0,0:0:0:0:
256,192,58174,1,8,0:0:0:0:
256,192,58602,1,0,0:0:0:0:
256,192,59459,1,8,0:0:0:0:
256,192,60317,1,0,0:0:0:0:
256,192,61174,1,8,0:0:0:0:
256,192,61602,1,8,0:0:0:0:
256,192,62031,1,4,0:0:0:0:
256,192,62888,1,4,0:0:0:0:
256,192,63745,1,8,0:0:0:0:
256,192,64174,1,0,0:0:0:0:
256,192,64602,1,8,0:0:0:0:
256,192,65031,1,8,0:0:0:0:
256,192,65459,1,4,0:0:0:0:
256,192,66317,1,4,0:0:0:0:
256,192,67174,1,8,0:0:0:0:
256,192,67602,1,8,0:0:0:0:
256,192,68031,1,0,0:0:0:0:
256,192,68459,1,8,0:0:0:0:
256,192,68888,1,4,0:0:0:0:
256,192,69745,1,4,0:0:0:0:
256,192,70602,1,8,0:0:0:0:
256,192,71031,1,0,0:0:0:0:
256,192,71459,1,8,0:0:0:0:
256,192,71888,1,0,0:0:0:0:
256,192,72317,1,0,0:0:0:0:
256,192,73174,1,8,0:0:0:0:
256,192,74031,1,0,0:0:0:0:
256,192,74459,1,8,0:0:0:0:
256,192,74888,1,0,0:0:0:0:
256,192,75317,1,8,0:0:0:0:
256,192,75745,1,0,0:0:0:0:
256,192,76602,1,8,0:0:0:0:
256,192,77459,1,0,0:0:0:0:
256,192,78317,1,8,0:0:0:0:
256,192,78745,1,8,0:0:0:0:
256,192,79174,1,0,0:0:0:0:
256,192,80031,1,8,0:0:0:0:
256,192,80888,1,0,0:0:0:0:
256,192,81745,1,8,0:0:0:0:
256,192,82174,1,0,0:0:0:0:
256,192,82602,1,4,0:0:0:0:
256,192,83459,1,8,0:0:0:0:
256,192,84317,1,0,0:0:0:0:
256,192,85174,1,8,0:0:0:0:
256,192,85602,1,8,0:0:0:0:
256,192,86031,1,0,0:0:0:0:
256,192,86888,1,8,0:0:0:0:
256,192,87317,1,0,0:0:0:0:
256,192,87745,1,8,0:0:0:0:
256,192,88602,1,0,0:0:0:0:
256,192,89031,1,8,0:0:0:0:
256,192,89459,1,4,0:0:0:0:
256,192,90317,1,4,0:0:0:0:
256,192,91174,1,8,0:0:0:0:
256,192,91602,1,8,0:0:0:0:
256,192,92031,1,0,0:0:0:0:
256,192,92459,1,8,0:0:0:0:
256,192,92888,1,4,0:0:0:0:
256,192,93745,1,4,0:0:0:0:
256,192,94602,1,8,0:0:0:0:
256,192,95031,1,0,0:0:0:0:
256,192,95459,1,8,0:0:0:0:
256,192,95888,1,8,0:0:0:0:
256,192,96317,1,4,0:0:0:0:
256,192,97174,1,4,0:0:0:0:
256,192,98031,1,8,0:0:0:0:
256,192,98459,1,0,0:0:0:0:
256,192,98888,1,8,0:0:0:0:
256,192,99317,1,0,0:0:0:0:
256,192,99745,1,0,0:0:0:0:
256,192,100602,1,8,0:0:0:0:
256,192,101459,1,0,0:0:0:0:
256,192,101888,1,8,0:0:0:0:
256,192,102317,1,0,0:0:0:0:
256,192,102745,1,8,0:0:0:0:
256,192,103174,12,0,104674,0:0:0:0:
