osu file format v14

[General]
AudioFilename: 15. I want you.mp3
AudioLeadIn: 0
PreviewTime: 48317
Countdown: 0
SampleSet: Normal
StackLeniency: 0.6
Mode: 1
LetterboxInBreaks: 0
WidescreenStoryboard: 0

[Editor]
DistanceSpacing: 1.1
BeatDivisor: 4
GridSize: 32
TimelineZoom: 2

[Metadata]
Title:I Want You
TitleUnicode:I Want You
Artist:Lin-G
ArtistUnicode:Lin-G
Creator:rew0825
Version:Futsuu
Source:DJMAX Portable Clazziquai Edition
Tags:Jay black square House Dance
BeatmapID:427976
BeatmapSetID:177851

[Difficulty]
HPDrainRate:7
CircleSize:4
OverallDifficulty:3
ApproachRate:5
SliderMultiplier:1.4
SliderTickRate:2

[Events]
//Background and Video events
0,0,"BG.jpg",0,85
//Break Periods
//Storyboard Layer 0 (Background)
//Storyboard Layer 1 (Fail)
//Storyboard Layer 2 (Pass)
//Storyboard Layer 3 (Foreground)
//Storyboard Sound Samples

[TimingPoints]
317,428.571428571429,4,1,0,60,1,0
48317,-100,4,1,0,80,0,1
75745,-100,4,1,0,60,0,0
82602,-100,4,1,0,70,0,0
89459,-100,4,1,0,80,0,1
103174,-100,4,1,0,60,0,0

[HitObjects]
256,192,7174,5,8,0:0:0:0:
256,192,7602,1,8,0:0:0:0:
256,192,7817,1,0,0:0:0:0:
256,192,8245,1,0,0:0:0:0:
256,192,8459,1,8,0:0:0:0:
256,192,8888,1,0,0:0:0:0:
256,192,9317,1,8,0:0:0:0:
256,192,9531,1,8,0:0:0:0:
256,192,9959,1,0,0:0:0:0:
256,192,10602,1,0,0:0:0:0:
256,192,11031,1,8,0:0:0:0:
256,192,11245,1,0,0:0:0:0:
256,192,11674,1,0,0:0:0:0:
256,192,11888,1,8,0:0:0:0:
256,192,12317,1,0,0:0:0:0:
256,192,12745,1,0,0:0:0:0:
256,192,13174,1,8,0:0:0:0:
256,192,14031,1,0,0:0:0:0:
256,192,14459,1,8,0:0:0:0:
256,192,14674,1,0,0:0:0:0:
256,192,15102,1,0,0:0:0:0:
256,192,15317,1,8,0:0:0:0:
256,192,15745,1,0,0:0:0:0:
256,192,16174,1,8,0:0:0:0:
256,192,16388,1,8,0:0:0:0:
256,192,16817,1,0,0:0:0:0:
256,192,17459,1,0,0:0:0:0:
256,192,17888,1,8,0:0:0:0:
256,192,18317,1,0,0:0:0:0:
256,192,18745,1,8,0:0:0:0:
256,192,18959,1,8,0:0:0:0:
256,192,19388,1,0,0:0:0:0:
256,192,20031,1,8,0:0:0:0:
256,192,20459,1,8,0:0:0:0:
256,192,20888,1,0,0:0:0:0:
256,192,21745,1,0,0:0:0:0:
256,192,22174,1,8,0:0:0:0:
256,192,22388,1,0,0:0:0:0:
256,192,22817,1,0,0:0:0:0:
256,192,23031,1,8,0:0:0:0:
256,192,23459,1,0,0:0:0:0:
256,192,23888,1,8,0:0:0:0:
256,192,24102,1,8,0:0:0:0:
256,192,24317,1,0,0:0:0:0:
256,192,25174,1,0,0:0:0:0:
256,192,25602,1,8,0:0:0:0:
256,192,25817,1,0,0:0:0:0:
256,192,26245,1,0,0:0:0:0:
256,192,26459,1,8,0:0:0:0:
256,192,26888,1,0,0:0:0:0:
256,192,27102,1,0,0:0:0:0:
256,192,27317,1,8,0:0:0:0:
256,192,27745,1,0,0:0:0:0:
256,192,28602,1,0,0:0:0:0:
256,192,29031,1,8,0:0:0:0:
256,192,29245,1,0,0:0:0:0:
256,192,29674,1,0,0:0:0:0:
256,192,29888,1,8,0:0:0:0:
256,192,30317,1,0,0:0:0:0:
256,192,30745,1,8,0:0:0:0:
256,192,30959,1,8,0:0:0:0:
256,192,31174,1,0,0:0:0:0:
256,192,31602,1,8,0:0:0:0:
256,192,32031,1,0,0:0:0:0:
256,192,32459,1,8,0:0:0:0:
256,192,32674,1,8,0:0:0:0:
256,192,33102,1,0,0:0:0:0:
256,192,34174,1,8,0:0:0:0:
256,192,34388,1,8,0:0:0:0:
256,192,34602,1,4,0:0:0:0:
256,192,35031,1,8,0:0:0:0:
256,192,35459,1,0,0:0:0:0:
256,192,35888,1,8,0:0:0:0:
256,192,36102,1,8,0:0:0:0:
256,192,36531,1,0,0:0:0:0:
256,192,37174,1,0,0:0:0:0:
256,192,37388,1,0,0:0:0:0:
256,192,37602,1,8,0:0:0:0:
256,192,38031,1,0,0:0:0:0:
256,192,38459,1,8,0:0:0:0:
256,192,38888,1,0,0:0:0:0:
256,192,39317,1,8,0:0:0:0:
256,192,39531,1,0,0:0:0:0:
256,192,39959,1,0,0:0:0:0:
256,192,40174,1,8,0:0:0:0:
256,192,40602,1,0,0:0:0:0:
256,192,40817,1,0,0:0:0:0:
256,192,41031,1,8,0:0:0:0:
256,192,41459,1,0,0:0:0:0:
256,192,42317,1,0,0:0:0:0:
256,192,42745,1,8,0:0:0:0:
256,192,42959,1,0,0:0:0:0:
256,192,43388,1,0,0:0:0:0:
256,192,43602,1,8,0:0:0:0:
256,192,44031,1,8,0:0:0:0:
256,192,44459,1,8,0:0:0:0:
256,192,44888,1,0,0:0:0:0:
256,192,45317,1,8,0:0:0:0:
256,192,45745,1,0,0:0:0:0:
256,192,46174,1,8,0:0:0:0:
256,192,46388,1,0,0:0:0:0:
256,192,46817,1,0,0:0:0:0:
256,192,47245,1,8,0:0:0:0:
256,192,47674,1,8,0:0:0:0:
256,192,48317,1,4,0:0:0:0:
256,192,49174,1,4,0:0:0:0:
256,192,49602,1,8,0:0:0:0:
256,192,49817,1,0,0:0:0:0:
256,192,50245,1,8,0:0:0:0:
256,192,50888,1,0,0:0:0:0:
256,192,51317,1,8,0:0:0:0:
256,192,51531,1,8,0:0:0:0:
256,192,51745,1,4,0:0:0:0:
256,192,52602,1,4,0:0:0:0:
256,192,53031,1,8,0:0:0:0:
256,192,53245,1,8,0:0:0:0:
256,192,53674,1,0,0:0:0:0:
256,192,54317,1,8,0:0:0:0:
256,192,54745,1,8,0:0:0:0:
256,192,55174,1,4,0:0:0:0:
256,192,56031,1,4,0:0:0:0:
256,192,56459,1,8,0:0:0:0:
256,192,56674,1,0,0:0:0:0:
256,192,57102,1,8,0:0:0:0:
256,192,57745,1,8,0:0:0:0:
256,192,58174,1,8,0:0:0:0:
256,192,58602,1,0,0:0:0:0:
256,192,59245,1,8,0:0:0:0:
256,192,59674,1,0,0:0:0:0:
256,192,59888,1,8,0:0:0:0:
256,192,60317,1,0,0:0:0:0:
256,192,60745,1,8,0:0:0:0:
256,192,61174,1,0,0:0:0:0:
256,192,61602,1,8,0:0:0:0:
256,192,62031,1,4,0:0:0:0:
256,192,62888,1,4,0:0:0:0:
256,192,63317,1,8,0:0:0:0:
256,192,63531,1,0,0:0:0:0:
256,192,63959,1,0,0:0:0:0:
256,192,64174,1,8,0:0:0:0:
256,192,64602,1,0,0:0:0:0:
256,192,65031,1,8,0:0:0:0:
256,192,65245,1,8,0:0:0:0:
256,192,65459,1,4,0:0:0:0:
256,192,66317,1,4,0:0:0:0:
256,192,66745,1,8,0:0:0:0:
256,192,66959,1,0,0:0:0:0:
256,192,67388,1,0,0:0:0:0:
256,192,67602,1,8,0:0:0:0:
256,192,68031,1,8,0:0:0:0:
256,192,68245,1,0,0:0:0:0:
256,192,68459,1,8,0:0:0:0:
256,192,68888,1,4,0:0:0:0:
256,192,69745,1,4,0:0:0:0:
256,192,70174,1,8,0:0:0:0:
256,192,70388,1,0,0:0:0:0:
256,192,70817,1,0,0:0:0:0:
256,192,71031,1,8,0:0:0:0:
256,192,71459,1,0,0:0:0:0:
256,192,71888,1,8,0:0:0:0:
256,192,72317,1,0,0:0:0:0:
256,192,72531,1,0,0:0:0:0:
256,192,72745,1,8,0:0:0:0:
256,192,73174,1,0,0:0:0:0:
256,192,73602,1,0,0:0:0:0:
256,192,74031,1,8,0:0:0:0:
256,192,74245,1,8,0:0:0:0:
256,192,74459,1,0,0:0:0:0:
256,192,74888,1,8,0:0:0:0:
256,192,75317,1,8,0:0:0:0:
256,192,75745,1,0,0:0:0:0:
256,192,76602,1,0,0:0:0:0:
256,192,77031,1,8,0:0:0:0:
256,192,77459,1,0,0:0:0:0:
256,192,78317,1,0,0:0:0:0:
256,192,78531,1,0,0:0:0:0:
256,192,78745,1,8,0:0:0:0:
256,192,79174,1,0,0:0:0:0:
256,192,80031,1,0,0:0:0:0:
256,192,80459,1,8,0:0:0:0:
256,192,80888,1,8,0:0:0:0:
256,192,81745,1,0,0:0:0:0:
256,192,81959,1,8,0:0:0:0:
256,192,82174,1,0,0:0:0:0:
256,192,82602,1,4,0:0:0:0:
256,192,83031,1,8,0:0:0:0:
256,192,83459,1,0,0:0:0:0:
256,192,83888,1,8,0:0:0:0:
256,192,84102,1,8,0:0:0:0:
256,192,84317,1,0,0:0:0:0:
256,192,85174,1,0,0:0:0:0:
256,192,85388,1,0,0:0:0:0:
256,192,85602,1,8,0:0:0:0:
256,192,86031,1,0,0:0:0:0:
256,192,86459,1,8,0:0:0:0:
256,192,86888,1,0,0:0:0:0:
256,192,87317,1,8,0:0:0:0:
256,192,87531,1,0,0:0:0:0:
256,192,87745,1,8,0:0:0:0:
256,192,88602,1,0,0:0:0:0:
256,192,88817,1,8,0:0:0:0:
256,192,89031,1,0,0:0:0:0:
256,192,89459,1,4,0:0:0:0:
256,192,90317,1,4,0:0:0:0:
256,192,90745,1,8,0:0:0:0:
256,192,90959,1,0,0:0:0:0:
256,192,91388,1,0,0:0:0:0:
256,192,91602,1,8,0:0:0:0:
256,192,92031,1,0,0:0:0:0:
256,192,92459,1,8,0:0:0:0:
256,192,92674,1,8,0:0:0:0:
256,192,92888,1,4,0:0:0:0:
256,192,93745,1,4,0:0:0:0:
256,192,94174,1,8,0:0:0:0:
256,192,94388,1,0,0:0:0:0:
256,192,94817,1,0,0:0:0:0:
256,192,95031,1,8,0:0:0:0:
256,192,95459,1,8,0:0:0:0:
256,192,95674,1,8,0:0:0:0:
256,192,95888,1,0,0:0:0:0:
256,192,96317,1,4,0:0:0:0:
256,192,97174,1,4,0:0:0:0:
256,192,97602,1,8,0:0:0:0:
256,192,97817,1,0,0:0:0:0:
256,192,98245,1,0,0:0:0:0:
256,192,98459,1,8,0:0:0:0:
256,192,98888,1,8,0:0:0:0:
256,192,99102,1,0,0:0:0:0:
256,192,99317,1,8,0:0:0:0:
256,192,99745,1,0,0:0:0:0:
256,192,100174,1,8,0:0:0:0:
256,192,100388,1,0,0:0:0:0:
256,192,100817,1,0,0:0:0:0:
256,192,101031,1,8,0:0:0:0:
256,192,101459,1,0,0:0:0:0:
256,192,101674,1,0,0:0:0:0:
256,192,101888,1,8,0:0:0:0:
256,192,102317,1,0,0:0:0:0:
256,192,102531,1,0,0:0:0:0:
256,192,102745,1,8,0:0:0:0:
256,192,102959,1,8,0:0:0:0:
256,192,103174,12,0,104674,0:0:0:0:
