osu file format v14

[General]
AudioFilename: 15. I want you.mp3
AudioLeadIn: 0
PreviewTime: 48317
Countdown: 0
SampleSet: Soft
StackLeniency: 0.6
Mode: 2
LetterboxInBreaks: 0
WidescreenStoryboard: 0

[Editor]
DistanceSpacing: 1.1
BeatDivisor: 4
GridSize: 16
TimelineZoom: 1.9

[Metadata]
Title:I Want You
TitleUnicode:I Want You
Artist:Lin-G
ArtistUnicode:Lin-G
Creator:rew0825
Version:Cup
Source:DJMAX Portable Clazziquai Edition
Tags:Jay black square House Dance
BeatmapID:464931
BeatmapSetID:177851

[Difficulty]
HPDrainRate:3
CircleSize:3
OverallDifficulty:5
ApproachRate:5
SliderMultiplier:1.2
SliderTickRate:2

[Events]
//Background and Video events
0,0,"BG.jpg",0,0
//Break Periods
//Storyboard Layer 0 (Background)
//Storyboard Layer 1 (Fail)
//Storyboard Layer 2 (Pass)
//Storyboard Layer 3 (Foreground)
//Storyboard Sound Samples

[TimingPoints]
317,428.571428571429,4,2,1,40,1,0
7174,-100,4,2,1,60,0,0
48317,-100,4,2,1,80,0,1
61174,-66.6666666666667,4,2,1,80,0,0
62031,-66.6666666666667,4,2,1,80,0,1
75745,-100,4,2,1,40,0,0
82602,-100,4,2,1,60,0,0
89459,-66.6666666666667,4,2,1,80,0,1
103174,-100,4,2,1,30,0,0

[Colours]
Combo1 : 255,255,140
Combo2 : 165,227,254
Combo3 : 250,163,175

[HitObjects]
256,192,6745,5,0,1:0:0:0:
112,128,7174,5,4,1:2:0:0:
208,128,7602,1,8,0:0:0:0:
400,128,8031,1,0,0:0:0:0:
304,128,8459,1,8,0:0:0:0:
128,192,8888,6,0,P|96:240|128:288,1,120,0|8,0:0|0:0,0:0:0:0:
256,192,9745,2,0,P|288:144|256:96,1,120,0|8,0:0|0:0,0:0:0:0:
128,96,10602,6,0,P|80:96|80:208,2,180,4|0|8,1:2|0:0|0:0,0:0:0:0:
256,96,12317,5,4,1:2:0:0:
384,96,12745,1,8,0:0:0:0:
384,192,13174,1,4,1:2:0:0:
256,192,13602,1,8,0:0:0:0:
192,192,13817,1,0,0:0:0:0:
256,192,14031,1,4,1:2:0:0:
320,288,14459,6,0,L|448:288,2,120,8|0|8,0:0|0:0|0:0,0:0:0:0:
192,288,15745,1,0,0:0:0:0:
352,192,16174,2,0,P|398:161|447:191,1,120,8|0,0:0|0:0,0:0:0:0:
255,192,17031,2,0,P|209:223|160:193,1,120,8|4,0:0|1:2,0:0:0:0:
320,128,17888,6,0,P|351:174|321:223,1,120,8|0,0:0|0:0,0:0:0:0:
192,224,18745,2,0,P|161:270|191:319,1,120,8|0,0:0|0:0,0:0:0:0:
368,319,19602,2,0,P|399:273|369:224,1,120,8|0,0:0|0:0,0:0:0:0:
192,128,20459,1,0,0:0:0:0:
320,128,20888,1,4,1:2:0:0:
160,192,21317,6,0,P|112:224|64:192,2,120,8|0|8,0:0|0:0|0:0,0:0:0:0:
320,128,22602,2,0,P|352:176|320:224,1,120,0|8,0:0|0:0,0:0:0:0:
112,224,23459,2,0,P|80:272|112:320,1,120,0|8,0:0|0:0,0:0:0:0:
192,320,24317,1,4,1:2:0:0:
272,320,24745,6,0,P|320:352|368:320,1,120,8|0,0:0|0:0,0:0:0:0:
448,288,25388,1,0,0:0:0:0:
496,208,25602,1,8,0:0:0:0:
448,128,25817,2,0,L|320:128,1,120
160,256,26674,6,0,L|288:256,1,120
352,192,27316,2,0,L|384:128,2,60,8|0|4,0:0|0:0|1:2,0:0:0:0:
208,192,28174,6,0,P|256:160|304:192,1,120,8|0,0:0|0:0,0:0:0:0:
400,336,29031,1,8,0:0:0:0:
304,192,29459,2,0,P|256:160|208:192,1,120,0|8,0:0|0:0,0:0:0:0:
112,336,30317,1,0,0:0:0:0:
256,336,30745,1,8,0:0:0:0:
352,256,31174,5,4,1:2:0:0:
400,256,31388,1,0,0:0:0:0:
352,256,31602,1,8,0:0:0:0:
192,48,32031,1,0,0:0:0:0:
144,48,32245,1,0,0:0:0:0:
192,48,32459,1,8,0:0:0:0:
240,128,32674,6,0,P|288:160|336:128,1,120
430,125,33317,2,0,P|382:96|335:129,1,120,8|0,0:0|0:0,0:0:0:0:
176,192,34174,1,8,0:0:0:0:
128,192,34388,1,0,0:0:0:0:
176,192,34602,1,4,1:2:0:0:
272,192,35031,6,0,P|304:240|272:288,1,120,8|0,0:0|0:0,0:0:0:0:
176,288,35888,1,8,0:0:0:0:
272,288,36316,2,0,P|320:320|368:288,1,120,0|8,0:0|0:0,0:0:0:0:
176,128,37174,6,0,L|208:64,1,60
256,80,37602,1,8,0:0:0:0:
336,128,37817,2,0,L|304:64,1,60,0|4,0:0|1:2,0:0:0:0:
432,128,38459,6,0,P|464:176|432:224,2,120,8|0|8,0:0|0:0|0:0,0:0:0:0:
336,128,39745,1,0,0:0:0:0:
256,128,40174,2,0,P|224:176|256:224,2,120,8|0|8,0:0|0:0|0:0,0:0:0:0:
336,128,41459,1,4,1:2:0:0:
416,192,41888,6,0,P|448:240|416:288,1,120,8|0,0:0|0:0,0:0:0:0:
336,240,42745,1,8,0:0:0:0:
256,192,43174,2,0,P|224:240|256:288,1,120,0|8,0:0|0:0,0:0:0:0:
336,240,44031,2,0,P|368:192|336:144,1,120,0|8,0:0|0:0,0:0:0:0:
192,144,44888,6,0,L|176:80,1,60,4|0,1:2|0:0,0:0:0:0:
256,144,45316,2,0,L|272:80,1,60,8|0,0:0|0:0,0:0:0:0:
192,144,45745,1,0,0:0:0:0:
160,208,45959,1,0,0:0:0:0:
192,256,46174,1,8,0:0:0:0:
320,256,46388,6,0,L|464:256,1,120
352,208,47245,2,0,L|224:208,1,120
160,208,47888,1,8,0:0:0:0:
320,208,48316,6,0,L|448:208,2,120,4|4|4,0:0|0:0|0:0,0:0:0:0:
192,208,49602,1,8,0:0:0:0:
320,128,50031,2,0,L|448:128,2,120,0|8|0,0:0|0:0|0:0,0:0:0:0:
144,128,51317,1,8,0:0:0:0:
256,144,51745,6,0,P|288:192|256:240,2,120,4|4|4,1:2|1:2|1:2,0:0:0:0:
176,192,53031,1,8,0:0:0:0:
96,144,53459,2,0,L|224:144,1,120,0|8,0:0|0:0,0:0:0:0:
352,208,54317,1,0,0:0:0:0:
256,176,54745,1,8,0:0:0:0:
160,208,55174,6,0,L|16:208,2,120,4|4|4,1:2|1:2|1:2,0:0:0:0:
256,176,56459,1,8,0:0:0:0:
352,144,56888,2,0,L|416:256,1,120,0|8,0:0|0:0,0:0:0:0:
256,176,57745,2,0,L|192:288,1,120,0|8,0:0|0:0,0:0:0:0:
400,192,58602,6,0,P|432:144|400:96,1,120,4|8,1:2|0:0,0:0:0:0:
288,128,59459,2,0,P|256:176|288:224,1,120,4|8,1:2|0:0,0:0:0:0:
400,288,60316,2,0,P|448:320|496:288,2,120,4|4|4,1:2|1:2|1:2,0:0:0:0:
256,288,61602,1,8,0:0:0:0:
144,288,62031,6,0,L|16:160,2,180.000006866455,4|4|4,1:2|1:2|1:2,0:2:0:0:
256,288,63317,1,8,0:0:0:0:
368,288,63745,2,0,L|496:160,1,180.000006866455,0|8,0:0|0:0,0:0:0:0:
432,224,64602,2,0,L|304:96,1,180.000006866455,0|8,0:0|0:0,0:0:0:0:
192,192,65459,6,0,P|128:128|32:128,2,180.000006866455,4|4|4,1:2|1:2|1:2,0:0:0:0:
256,288,66745,1,8,0:0:0:0:
320,192,67174,2,0,L|400:272,2,90.0000034332277,0|0|8,0:0|0:0|0:0,0:0:0:0:
192,192,68031,2,0,L|112:112,2,90.0000034332277,0|0|8,0:0|0:0|0:0,0:0:0:0:
320,192,68888,5,4,1:2:0:0:
416,192,69316,1,4,1:2:0:0:
512,192,69745,1,4,1:2:0:0:
320,192,70174,1,8,0:0:0:0:
192,192,70602,5,0,0:0:0:0:
96,192,71031,1,8,0:0:0:0:
0,192,71459,1,0,0:0:0:0:
192,192,71888,1,8,0:0:0:0:
320,272,72316,6,0,P|368:208|320:128,1,180.000006866455,4|8,1:2|0:0,0:0:0:0:
192,272,73174,2,0,P|144:208|192:128,1,180.000006866455,4|8,1:2|0:0,0:0:0:0:
320,272,74031,6,0,L|336:176,1,90.0000034332277,4|0,1:2|0:0,0:0:0:0:
256,128,74459,2,0,L|240:224,1,90.0000034332277,4|0,1:2|0:0,0:0:0:0:
336,272,74888,2,0,L|352:176,1,90.0000034332277,4|0,1:2|0:0,0:0:0:0:
240,128,75316,1,4,1:2:0:0:
192,144,75531,1,0,0:0:0:0:
160,192,75745,6,0,P|128:240|160:288,1,120,0|8,0:0|0:0,0:0:0:0:
256,192,76602,2,0,P|288:240|256:288,1,120,0|8,0:0|0:0,0:0:0:0:
352,288,77459,6,0,P|304:320|256:288,1,120,0|8,0:0|0:0,0:0:0:0:
176,192,78316,2,0,L|192:128,1,60
288,128,78745,2,0,L|272:192,1,60
382,185,79174,6,0,P|345:140|288:144,1,120,0|8,0:0|0:0,0:0:0:0:
384,192,80031,2,0,P|448:192|480:128,1,120,0|8,0:0|0:0,0:0:0:0:
384,320,80888,6,0,P|320:320|288:272,1,120,0|8,0:0|0:0,0:0:0:0:
208,128,81745,2,0,L|192:64,1,60
288,96,82174,2,0,L|304:160,1,60
256,192,82602,6,0,P|224:240|256:288,1,120,4|8,1:2|0:0,0:0:0:0:
352,192,83459,2,0,P|304:160|256:192,1,120,0|8,0:0|0:0,0:0:0:0:
160,192,84317,5,0,0:0:0:0:
256,192,84745,1,8,0:0:0:0:
352,192,85174,1,0,0:0:0:0:
400,192,85388,1,0,0:0:0:0:
352,192,85602,1,8,0:0:0:0:
256,192,86031,6,0,P|224:240|256:288,1,120,0|8,0:0|0:0,0:0:0:0:
160,192,86888,2,0,P|208:160|256:192,1,120,0|8,0:0|0:0,0:0:0:0:
352,192,87745,5,0,0:0:0:0:
256,192,88174,1,8,0:0:0:0:
160,192,88602,1,0,0:0:0:0:
112,192,88817,1,0,0:0:0:0:
160,192,89031,1,8,0:0:0:0:
256,272,89459,6,0,P|320:272|352:160,2,180.000006866455,4|4|4,1:2|1:2|1:2,0:0:0:0:
112,192,90745,1,8,0:0:0:0:
208,112,91174,2,0,P|272:112|304:224,1,180.000006866455,0|8,0:0|0:0,0:0:0:0:
384,112,92031,2,0,L|192:112,1,180.000006866455,0|8,0:0|0:0,0:0:0:0:
112,192,92888,5,4,1:2:0:0:
208,192,93316,1,4,1:2:0:0:
304,192,93745,1,4,1:2:0:0:
400,192,94174,1,8,0:0:0:0:
256,272,94602,6,0,P|192:272|256:304,1,180.000006866455,0|8,0:0|0:0,0:0:0:0:
352,272,95459,2,0,P|416:272|352:304,1,180.000006866455,0|8,0:0|0:0,0:0:0:0:
256,192,96317,5,4,1:2:0:0:
160,192,96745,1,4,1:2:0:0:
64,192,97174,1,4,1:2:0:0:
160,192,97602,1,8,0:0:0:0:
256,192,98031,6,0,L|352:192,2,90.0000034332277,0|0|8,0:0|0:0|0:0,0:0:0:0:
128,192,98888,2,0,L|32:192,2,90.0000034332277,0|0|8,0:0|0:0|0:0,0:0:0:0:
256,272,99745,5,4,1:2:0:0:
128,272,100174,1,8,0:0:0:0:
192,192,100602,2,0,P|192:128|288:128,1,180.000006866455,4|8,1:2|0:0,0:0:0:0:
384,192,101459,6,0,L|480:192,2,90.0000034332277,4|0|4,1:2|0:0|1:2,0:0:0:0:
256,192,102316,2,0,L|160:192,2,90.0000034332277,4|0|4,1:2|0:0|1:2,0:0:0:0:
256,192,103174,12,0,104674,0:0:0:0:
