osu file format v14

[General]
AudioFilename: Wu Li Zhi Tu.mp3
AudioLeadIn: 0
PreviewTime: 45751
Countdown: 0
SampleSet: Soft
StackLeniency: 0.3
Mode: 0
LetterboxInBreaks: 0
WidescreenStoryboard: 1

[Editor]
Bookmarks: 455,850,1245,11113,57396
DistanceSpacing: 1.3
BeatDivisor: 4
GridSize: 8
TimelineZoom: 1.7

[Metadata]
Title:Wu Li Zhi Tu
TitleUnicode:无礼之徒
Artist:Lin Fang Zhou
ArtistUnicode:林方舟
Creator:Ryuusei Aika
Version:Left's Insane
Source:凹凸世界
Tags:gary00737 Left kanor AOTU 七创社 7DOC 埋葬YJ 闫东伟 星星泉 周亮 tv size opening theme
BeatmapID:1511713
BeatmapSetID:703671

[Difficulty]
HPDrainRate:6
CircleSize:3.8
OverallDifficulty:7.8
ApproachRate:9
SliderMultiplier:1.72
SliderTickRate:1

[Events]
//Background and Video events
0,0,"BG.jpg",0,0
Video,0,"Wu Li Zhi Tu.avi"
//Break Periods
//Storyboard Layer 0 (Background)
//Storyboard Layer 1 (Fail)
//Storyboard Layer 2 (Pass)
//Storyboard Layer 3 (Foreground)
//Storyboard Sound Samples

[TimingPoints]
61,394.736842105263,4,2,74,45,1,0
61,-100,4,2,74,45,0,0
4008,-360,4,2,74,45,0,0
4797,-100,4,2,74,45,0,0
5784,-200,4,2,74,45,0,0
6376,-100,4,2,74,45,0,0
7166,-360,4,2,74,45,0,0
7955,-100,4,2,74,45,0,0
8942,-200,4,2,74,45,0,0
11113,-111.111111111111,4,2,74,45,0,0
12692,-100,4,2,74,45,0,0
12889,-100,4,2,74,50,0,0
13087,-100,4,2,74,55,0,0
13284,-100,4,2,74,60,0,0
13482,-100,4,2,74,65,0,0
13679,-100,4,2,74,70,0,0
13876,-100,4,2,74,75,0,0
14074,-100,4,2,74,80,0,0
14271,-90.9090909090909,4,2,74,75,0,0
19008,-600.909090909091,4,2,74,75,0,0
20488,-600.909090909091,4,2,74,5,0,0
20587,-66.6666666666667,4,2,74,75,0,0
20883,-66.6666666666667,4,2,74,5,0,0
20982,-66.6666666666667,4,2,74,75,0,0
21179,-100,4,2,74,75,0,0
23251,-100,4,2,74,5,0,0
23350,-100,4,2,74,75,0,0
39534,-133.333333333333,4,2,74,75,0,0
41113,-360,4,2,74,75,0,0
45850,-90.9090909090909,4,2,74,75,0,1
47133,-90.9090909090909,4,2,74,5,0,1
47232,-90.9090909090909,4,2,74,75,0,1
48712,-90.9090909090909,4,2,74,5,0,1
48810,-90.9090909090909,4,2,74,75,0,1
48909,-90.9090909090909,4,2,74,5,0,1
49008,-90.9090909090909,4,2,74,75,0,1
49699,-90.9090909090909,4,2,74,5,0,1
49797,-90.9090909090909,4,2,74,75,0,1
50093,-90.9090909090909,4,2,74,5,0,1
50192,-90.9090909090909,4,2,74,75,0,1
50488,-90.9090909090909,4,2,74,5,0,1
50587,-90.9090909090909,4,2,74,75,0,1
52166,-66.6666666666667,4,2,74,75,0,1
52462,-66.6666666666667,4,2,74,5,0,1
52560,-83.3333333333333,4,2,74,75,0,1
52857,-83.3333333333333,4,2,74,5,0,1
52955,-111.111111111111,4,2,74,75,0,1
53251,-111.111111111111,4,2,74,5,0,1
53350,-166.666666666667,4,2,74,75,0,1
53646,-166.666666666667,4,2,74,5,0,1
53745,-90.9090909090909,4,2,74,75,0,1
54633,-90.9090909090909,4,2,74,5,0,1
54732,-90.9090909090909,4,2,74,75,0,1
55324,-66.6666666666667,4,2,74,75,0,1
55620,-66.6666666666667,4,2,74,5,0,1
55718,-83.3333333333333,4,2,74,75,0,1
56014,-83.3333333333333,4,2,74,5,0,1
56113,-111.111111111111,4,2,74,75,0,1
56409,-111.111111111111,4,2,74,5,0,1
56508,-166.666666666667,4,2,74,75,0,1
56804,-166.666666666667,4,2,74,5,0,1
56903,-90.9090909090909,4,2,74,75,0,1
57889,-90.9090909090909,4,2,74,5,0,1
57988,-90.9090909090909,4,2,74,75,0,1
58185,-90.9090909090909,4,2,74,5,0,1
58284,-90.9090909090909,4,2,74,75,0,1
59764,-90.9090909090909,4,2,74,5,0,1
59863,-90.9090909090909,4,2,74,75,0,1
60949,-90.9090909090909,4,2,74,5,0,1
61047,-90.9090909090909,4,2,74,75,0,1
61146,-90.9090909090909,4,2,74,5,0,1
61245,-90.9090909090909,4,2,74,75,0,1
62725,-90.9090909090909,4,2,74,5,0,1
62824,-90.9090909090909,4,2,74,75,0,1
63120,-90.9090909090909,4,2,74,5,0,1
63218,-90.9090909090909,4,2,74,75,0,1
67264,-90.9090909090909,4,2,74,5,0,1
67363,-90.9090909090909,4,2,74,75,0,1
67659,-90.9090909090909,4,2,74,5,0,1
67758,-90.9090909090909,4,2,74,75,0,1
67857,-90.9090909090909,4,2,74,5,0,1
67955,-90.9090909090909,4,2,74,75,0,1
70718,-100,4,2,74,75,0,0
71113,-90.9090909090909,4,2,74,75,0,1
73482,-76.9230769230769,4,2,74,75,0,1
74271,-66.6666666666667,4,2,74,75,0,1
75060,-58.8235294117647,4,2,74,75,0,1
75850,-52.6315789473684,4,2,74,75,0,1
77429,-90.9090909090909,4,2,74,75,0,1
82166,-90.9090909090909,4,2,74,45,0,1
82560,-90.9090909090909,4,2,74,60,0,1
82955,-90.9090909090909,4,2,74,75,0,1
83745,-66.6666666666667,4,2,74,85,0,1
84337,-50,4,2,74,85,0,1
84929,-40.3333333333333,4,2,74,85,0,0

[Colours]
Combo1 : 255,111,111
Combo2 : 142,142,142
Combo3 : 211,211,211
Combo4 : 255,157,111
Combo5 : 255,207,185
Combo6 : 255,2,2

[HitObjects]
256,192,61,12,0,2824,0:0:0:0:
136,65,3218,6,0,P|74:60|26:119,2,129,0|0|0,1:0|1:0|1:0,0:0:0:0:
192,170,4008,2,0,L|198:121,1,47.7777777777778,2|0,1:2|0:0,0:0:0:0:
136,65,4797,6,0,P|91:109|29:104,2,129,0|0|0,1:0|1:0|1:0,0:0:0:0:
199,123,5587,1,2,0:0:0:0:
199,123,5685,1,0,0:0:0:0:
199,123,5784,2,0,L|191:184,1,43,0|0,1:0|0:0,0:0:0:0:
87,291,6179,1,2,1:2:0:0:
126,217,6376,70,0,L|146:353,1,129,0|0,1:0|1:0,0:0:0:0:
144,344,6968,1,0,1:0:0:0:
265,303,7166,2,0,L|216:295,1,47.7777777777778,2|0,1:2|0:0,0:0:0:0:
345,167,7955,6,0,P|400:221|462:204,1,129,0|0,1:0|1:0,0:0:0:0:
446,214,8547,1,0,1:0:0:0:
491,144,8745,1,2,0:0:0:0:
491,144,8843,1,0,0:0:0:0:
491,144,8942,2,0,L|481:91,1,43,0|0,1:0|0:0,0:0:0:0:
332,45,9337,1,2,1:2:0:0:
409,71,9534,69,0,1:0:0:0:
247,148,9830,1,0,1:0:0:0:
391,260,10126,1,0,1:0:0:0:
357,183,10324,5,0,0:0:0:0:
304,251,10521,1,2,1:2:0:0:
347,333,10718,1,0,0:0:0:0:
431,336,10916,1,2,1:2:0:0:
391,260,11113,69,2,0:0:0:0:
343,268,11211,1,0,0:0:0:0:
295,277,11310,1,0,0:0:0:0:
248,285,11409,1,0,0:0:0:0:
200,294,11508,5,2,0:0:0:0:
205,256,11606,1,0,0:0:0:0:
211,217,11705,1,0,0:0:0:0:
216,179,11804,1,0,0:0:0:0:
221,140,11903,69,2,0:0:0:0:
192,146,12001,1,0,0:0:0:0:
164,151,12100,1,0,0:0:0:0:
135,156,12199,1,0,0:0:0:0:
107,161,12297,5,2,0:0:0:0:
110,142,12395,1,0,0:0:0:0:
113,123,12494,1,0,0:0:0:0:
116,104,12593,1,0,0:0:0:0:
119,85,12691,37,2,0:1:0:0:
119,85,12889,1,2,0:1:0:0:
119,85,13087,1,2,0:1:0:0:
119,85,13284,1,2,0:1:0:0:
119,85,13482,1,2,0:1:0:0:
119,85,13679,1,2,0:1:0:0:
119,85,13876,1,2,0:1:0:0:
119,85,14074,1,2,0:1:0:0:
180,23,14271,54,0,P|205:62|185:139,1,94.600002886963,12|0,0:2|0:0,0:0:0:0:
301,293,14666,2,0,L|197:280,1,94.600002886963,12|0,0:2|0:0,0:0:0:0:
207,281,14962,1,0,0:0:0:0:
207,281,15060,5,8,0:0:0:0:
286,128,15258,1,2,0:0:0:0:
249,206,15455,69,8,0:0:0:0:
153,25,15653,1,2,0:0:0:0:
323,54,15850,5,12,0:2:0:0:
144,144,16047,1,0,0:0:0:0:
323,54,16245,2,0,L|431:70,1,94.600002886963,12|0,0:0|0:0,0:0:0:0:
416,67,16541,1,0,0:0:0:0:
416,67,16639,69,8,0:0:0:0:
347,234,16837,1,2,0:0:0:0:
383,150,17034,5,8,0:0:0:0:
177,217,17232,1,2,0:0:0:0:
318,314,17429,69,12,0:2:0:0:
260,115,17626,1,0,0:0:0:0:
318,314,17824,2,0,L|323:214,1,94.600002886963,12|0,0:0|0:0,0:0:0:0:
322,219,18120,1,0,0:0:0:0:
322,219,18218,5,8,0:0:0:0:
186,360,18416,1,2,0:0:0:0:
401,273,18613,69,8,0:0:0:0:
219,112,18810,1,2,1:2:0:0:
280,43,19008,6,0,P|309:88|302:141,1,107.337362669173,2|0,0:0|0:0,0:0:0:0:
232,174,20587,70,2,L|455:150,1,193.50000738144,2|0,1:1|0:0,0:1:0:0:
434,168,20982,1,0,1:0:0:0:
352,35,21179,2,0,L|343:131,1,86,2|0,0:0|1:0,0:0:0:0:
330,273,21574,1,0,0:0:0:0:
263,132,21771,1,2,1:2:0:0:
411,177,21968,1,0,0:0:0:0:
263,132,22166,6,0,P|210:145|182:193,1,86,2|0,1:2|0:0,0:0:0:0:
190,167,22462,1,0,0:0:0:0:
190,167,22560,1,0,1:0:0:0:
100,55,22758,2,0,L|114:160,1,86,2|0,0:0|1:0,0:0:0:0:
171,292,23153,2,0,L|179:228,1,43,2|0,0:0|0:0,0:0:0:0:
190,167,23350,69,0,1:0:0:0:
86,316,23547,1,2,1:2:0:0:
260,267,23745,6,0,L|167:247,1,86,2|0,1:2|0:0,0:0:0:0:
23,216,24139,1,2,1:2:0:0:
190,167,24337,1,0,0:0:0:0:
190,167,24435,1,0,0:0:0:0:
190,167,24534,1,0,1:0:0:0:
124,17,24732,2,0,L|117:127,1,86,2|0,0:0|1:0,0:0:0:0:
118,102,25126,1,2,0:0:0:0:
43,154,25324,69,2,1:2:0:0:
70,179,25422,1,0,0:0:0:0:
106,190,25521,1,0,0:0:0:0:
143,187,25620,1,0,0:0:0:0:
175,168,25718,1,2,1:2:0:0:
197,138,25817,1,0,0:0:0:0:
205,102,25916,1,0,0:0:0:0:
198,65,26014,1,0,0:0:0:0:
176,35,26113,5,0,1:0:0:0:
147,57,26211,1,8,0:0:0:0:
132,91,26310,1,0,0:0:0:0:
136,127,26409,1,0,1:0:0:0:
156,157,26507,1,8,0:0:0:0:
188,174,26606,1,0,0:0:0:0:
225,173,26705,1,0,1:0:0:0:
257,156,26803,1,0,1:0:0:0:
278,120,26903,70,0,L|299:325,1,172,4|0,1:2|1:0,0:0:0:0:
445,356,27495,2,0,P|390:325|349:336,1,86,2|0,0:0|1:0,0:0:0:0:
297,370,27889,1,8,0:0:0:0:
297,370,27988,1,0,0:0:0:0:
297,370,28087,1,2,1:2:0:0:
372,241,28284,1,8,0:0:0:0:
175,270,28482,6,0,L|315:289,1,129,2|0,1:2|0:0,0:0:0:0:
295,303,28876,1,2,1:2:0:0:
95,261,29074,1,8,0:0:0:0:
286,215,29271,1,0,1:0:0:0:
127,337,29468,1,2,0:0:0:0:
127,337,29567,1,0,0:0:0:0:
127,337,29666,1,8,0:0:0:0:
175,178,29863,1,8,0:0:0:0:
215,339,30060,70,0,L|189:225,1,86,4|0,1:2|0:0,0:0:0:0:
195,255,30357,1,2,0:0:0:0:
195,255,30455,1,0,1:0:0:0:
333,218,30653,2,0,P|261:202|244:175,1,86,10|0,0:0|1:0,0:0:0:0:
223,119,31047,1,0,0:0:0:0:
418,199,31245,2,0,L|403:299,1,86,2|8,1:2|0:0,0:0:0:0:
222,326,31639,5,2,1:2:0:0:
252,316,31737,1,0,0:0:0:0:
284,318,31836,1,0,0:0:0:0:
314,330,31935,1,0,0:0:0:0:
341,347,32034,1,2,1:2:0:0:
370,360,32132,1,0,0:0:0:0:
402,368,32231,1,0,0:0:0:0:
434,365,32329,1,0,0:0:0:0:
462,351,32429,69,4,1:2:0:0:
467,314,32528,1,8,0:0:0:0:
460,278,32626,1,0,0:0:0:0:
440,248,32725,1,0,1:0:0:0:
410,226,32823,1,8,0:0:0:0:
375,217,32922,1,0,0:0:0:0:
338,222,33021,1,0,1:0:0:0:
306,239,33119,1,0,1:0:0:0:
285,275,33218,5,12,0:2:0:0:
132,169,33416,1,0,0:0:0:0:
266,30,33613,2,0,L|244:140,1,86,12|0,0:0|0:0,0:0:0:0:
230,196,33909,1,0,0:0:0:0:
230,196,34008,69,8,0:0:0:0:
181,49,34205,1,2,0:0:0:0:
313,172,34403,5,8,0:0:0:0:
115,228,34600,1,2,0:0:0:0:
248,359,34797,69,12,0:0:0:0:
279,277,34995,1,0,0:0:0:0:
248,359,35192,1,12,0:0:0:0:
279,277,35389,1,0,0:0:0:0:
127,376,35587,5,2,1:2:0:0:
337,344,35784,1,0,0:0:0:0:
200,171,35982,1,8,0:0:0:0:
475,32,36376,70,0,L|461:147,1,86,12|0,0:0|0:0,0:0:0:0:
384,281,36771,2,0,L|491:268,1,86,12|0,0:0|0:0,0:0:0:0:
340,201,37067,1,0,0:0:0:0:
340,201,37166,5,8,0:0:0:0:
310,330,37363,1,2,0:0:0:0:
281,92,37560,69,8,0:0:0:0:
384,281,37758,1,2,0:0:0:0:
463,146,37955,5,0,1:0:0:0:
433,136,38053,1,0,1:0:0:0:
401,138,38152,1,0,1:0:0:0:
371,150,38251,1,0,1:0:0:0:
344,167,38349,1,0,1:0:0:0:
315,180,38448,1,0,1:0:0:0:
283,188,38547,1,0,1:0:0:0:
251,185,38645,1,0,1:0:0:0:
223,171,38744,69,4,1:2:0:0:
223,171,38942,1,0,1:0:0:0:
223,171,39139,1,8,0:0:0:0:
152,254,39337,2,0,L|142:195,1,43,0|0,1:0|1:0,0:0:0:0:
115,41,39534,53,6,0:0:0:0:
39,65,39732,1,0,0:0:0:0:
405,218,40126,5,2,0:0:0:0:
416,139,40324,1,0,0:0:0:0:
79,291,40718,69,2,0:0:0:0:
100,371,40916,1,0,1:0:0:0:
79,291,41113,2,0,P|111:331|203:323,1,143.333333333333,4|0,1:2|0:0,0:0:0:0:
365,107,42692,5,6,1:2:0:0:
381,189,42889,1,0,0:0:0:0:
108,285,43284,69,2,0:0:0:0:
188,302,43482,1,0,0:0:0:0:
425,53,43876,5,2,0:0:0:0:
441,135,44073,1,0,0:0:0:0:
325,286,44271,5,12,0:0:0:0:
394,129,44468,1,0,1:0:0:0:
417,132,44567,1,0,1:0:0:0:
441,135,44666,1,8,0:0:0:0:
360,206,44863,5,0,1:0:0:0:
407,213,44961,1,0,1:0:0:0:
454,220,45060,1,8,0:0:0:0:
325,286,45258,69,0,1:0:0:0:
401,296,45455,1,0,1:0:0:0:
478,306,45653,1,0,1:0:0:0:
269,218,45850,22,0,L|290:383,1,141.900004330444,4|0,1:2|1:0,0:0:0:0:
276,368,46245,1,8,0:0:0:0:
422,250,46442,1,2,0:0:0:0:
191,185,46639,5,0,1:0:0:0:
300,280,46837,1,2,0:1:0:0:
300,280,46935,1,0,0:0:0:0:
300,280,47034,2,0,L|315:204,1,47.3000014434815,8|0,0:0|0:0,0:0:0:0:
336,80,47232,1,2,0:1:0:0:
97,172,47429,70,0,L|202:186,1,94.600002886963,2|0,1:2|0:0,0:0:0:0:
251,56,47824,1,8,0:0:0:0:
280,231,48021,2,0,L|265:127,1,94.600002886963,2|0,0:1|1:0,0:0:0:0:
248,309,48416,5,2,0:0:0:0:
248,309,48514,1,0,1:0:0:0:
248,309,48613,2,0,L|243:365,1,47.3000014434815,10|0,0:1|0:0,0:0:0:0:
262,184,48810,2,0,L|267:128,1,47.3000014434815,10|0,0:0|0:0,0:0:0:0:
108,204,49008,70,0,P|170:216|199:268,1,94.600002886963,0|0,1:0|0:0,0:0:0:0:
401,121,49403,2,0,B|364:105|328:132|328:132|284:154|233:121,1,141.900004330444,12|0,0:0|0:0,0:0:0:0:
255,123,49797,1,0,1:0:0:0:
381,198,49995,6,0,P|393:232|395:257,1,47.3000014434815,2|0,0:1|0:0,0:0:0:0:
383,323,50192,1,8,0:0:0:0:
312,246,50389,70,0,P|300:212|298:187,1,47.3000014434815,2|0,0:1|0:0,0:0:0:0:
313,121,50587,1,0,1:0:0:0:
461,292,50784,6,0,L|511:299,2,47.3000014434815,2|0|8,1:0|1:0|0:0,0:0:0:0:
236,147,51179,1,0,1:0:0:0:
352,346,51376,69,8,0:0:0:0:
374,318,51475,1,8,0:0:0:0:
381,284,51573,1,0,0:0:0:0:
372,250,51672,1,0,1:0:0:0:
348,225,51770,1,8,0:0:0:0:
315,213,51870,1,8,0:0:0:0:
280,218,51968,1,0,1:0:0:0:
252,239,52066,1,0,1:0:0:0:
236,270,52166,6,0,P|252:170|252:53,1,193.50000738144,14|0,1:0|0:0,0:0:0:0:
426,216,52560,70,0,P|364:194|270:199,1,154.799995275879,14|0,1:0|0:0,0:0:0:0:
373,47,52955,6,0,P|356:108|358:176,1,116.099996456909,14|0,1:0|0:0,0:0:0:0:
238,77,53350,70,0,P|289:95|328:96,1,77.3999976379395,14|0,1:0|0:0,0:0:0:0:
258,170,53745,5,4,1:2:0:0:
298,11,53942,1,0,0:0:0:0:
258,170,54139,2,0,P|261:213|275:263,1,94.600002886963,8|0,0:0|0:0,0:0:0:0:
351,352,54435,1,8,0:0:0:0:
351,352,54534,2,0,P|322:341|274:339,1,47.3000014434815,0|0,1:0|0:0,0:0:0:0:
225,332,54732,1,2,0:0:0:0:
360,264,54929,1,8,0:0:0:0:
225,332,55126,1,2,0:0:0:0:
285,115,55324,70,0,P|222:47|133:70,1,193.50000738144,14|0,1:0|0:0,0:0:0:0:
212,66,55718,6,0,P|149:88|143:182,1,154.799995275879,14|0,1:0|0:0,0:0:0:0:
156,125,56113,70,0,P|155:171|216:208,1,116.099996456909,14|0,1:0|0:0,0:0:0:0:
198,184,56508,6,0,P|240:187|271:159,1,77.3999976379395,14|0,1:0|0:0,0:0:0:0:
235,95,56903,69,4,1:2:0:0:
421,158,57100,1,2,0:1:0:0:
235,95,57297,1,8,0:0:0:0:
460,37,57495,1,2,0:1:0:0:
395,281,57692,1,2,1:0:0:0:
395,281,57791,2,0,L|387:230,1,47.3000014434815,8|0,0:0|0:0,0:0:0:0:
321,148,57988,1,10,0:1:0:0:
321,148,58087,2,0,L|313:199,1,47.3000014434815,0|0,1:0|0:0,0:0:0:0:
246,244,58284,1,10,0:1:0:0:
384,89,58482,6,0,L|223:118,1,141.900004330444,4|0,1:2|1:0,0:0:0:0:
235,100,58876,1,8,0:0:0:0:
441,155,59074,1,2,0:0:0:0:
289,297,59271,69,0,1:0:0:0:
323,170,59468,1,2,0:1:0:0:
323,170,59567,1,0,0:0:0:0:
323,170,59666,2,0,L|311:228,1,47.3000014434815,8|0,0:0|0:0,0:0:0:0:
414,349,59863,1,2,0:1:0:0:
295,296,60060,6,0,B|331:305|366:282|366:282|405:253|453:284,1,141.900004330444,2|0,1:2|1:0,0:0:0:0:
444,284,60455,1,10,0:0:0:0:
234,237,60653,69,2,0:1:0:0:
234,237,60751,1,0,0:0:0:0:
234,237,60850,2,0,L|175:251,1,47.3000014434815,0|0,1:0|0:0,0:0:0:0:
303,129,61047,2,0,L|296:192,1,47.3000014434815,2|0,0:0|0:0,0:0:0:0:
269,363,61245,5,10,0:1:0:0:
215,152,61442,1,8,0:0:0:0:
416,272,61639,69,0,1:0:0:0:
234,237,61837,1,0,0:0:0:0:
355,61,62034,2,0,P|301:67|270:102,1,94.600002886963,12|0,0:0|0:0,0:0:0:0:
372,262,62429,5,0,1:0:0:0:
342,141,62626,2,0,L|327:224,1,47.3000014434815,2|0,0:1|0:0,0:0:0:0:
372,262,62824,69,8,0:0:0:0:
412,378,63021,2,0,L|427:295,1,47.3000014434815,2|0,0:1|0:0,0:0:0:0:
452,174,63218,5,0,1:0:0:0:
287,255,63416,1,2,1:2:0:0:
452,174,63613,2,0,P|403:147|350:158,1,94.600002886963,10|0,0:1|0:0,0:0:0:0:
230,14,64008,1,8,0:0:0:0:
267,31,64106,1,8,0:0:0:0:
290,64,64205,1,0,0:0:0:0:
295,105,64304,1,0,1:0:0:0:
280,143,64402,1,8,0:0:0:0:
248,168,64501,1,8,0:0:0:0:
207,175,64600,1,0,1:0:0:0:
169,162,64698,1,0,1:0:0:0:
142,131,64797,69,12,0:2:0:0:
352,190,64995,1,0,0:0:0:0:
213,376,65192,5,8,0:0:0:0:
272,167,65390,1,0,0:0:0:0:
458,305,65587,69,8,0:0:0:0:
249,246,65785,1,0,0:0:0:0:
387,60,65982,5,8,0:0:0:0:
328,269,66180,1,0,0:0:0:0:
129,137,66376,70,0,B|165:127|183:97|183:97|207:128|277:127,1,141.900004330444,4|0,1:2|1:0,0:0:0:0:
257,116,66771,1,8,0:0:0:0:
92,13,66968,5,2,0:1:0:0:
92,13,67067,1,0,0:0:0:0:
92,13,67166,2,0,P|106:38|114:73,1,47.3000014434815,0|0,1:0|0:0,0:0:0:0:
193,196,67363,69,2,0:1:0:0:
190,67,67560,2,0,P|178:103|174:147,1,47.3000014434815,8|0,0:0|0:0,0:0:0:0:
88,267,67758,6,0,L|149:258,1,47.3000014434815,2|0,1:0|0:0,0:0:0:0:
250,209,67955,2,0,B|214:218|179:195|179:195|140:166|92:197,1,141.900004330444,4|0,1:2|1:0,0:0:0:0:
98,196,68350,2,0,L|116:62,1,94.600002886963,8|0,0:0|0:0,0:0:0:0:
141,267,68745,1,0,1:0:0:0:
59,37,68942,69,2,0:0:0:0:
207,150,69139,1,8,0:0:0:0:
60,267,69337,1,2,0:0:0:0:
407,282,69534,5,12,0:0:0:0:
126,213,69732,1,2,0:1:0:0:
422,158,69929,69,8,0:0:0:0:
143,296,70126,1,2,0:1:0:0:
321,351,70324,5,12,0:0:0:0:
326,302,70422,1,8,0:0:0:0:
293,265,70521,69,0,1:0:0:0:
281,217,70620,1,0,1:0:0:0:
307,175,70718,5,8,0:0:0:0:
316,130,70817,1,8,0:0:0:0:
285,93,70916,69,0,1:0:0:0:
271,47,71014,1,0,1:0:0:0:
300,11,71113,54,0,L|414:30,1,94.600002886963,4|0,1:2|0:0,0:0:0:0:
393,26,71409,1,0,0:0:0:0:
393,26,71508,1,8,0:0:0:0:
226,151,71705,2,0,L|171:159,2,47.3000014434815,0|0|0,0:0|0:0|1:0,0:0:0:0:
305,189,72100,1,0,0:0:0:0:
110,75,72297,2,0,L|94:176,1,94.600002886963,8|0,0:0|0:0,0:0:0:0:
186,318,72692,6,0,P|170:252|119:229,1,94.600002886963,0|0,1:0|0:0,0:0:0:0:
151,237,72988,1,0,0:0:0:0:
151,237,73087,1,8,0:0:0:0:
77,272,73284,1,0,0:0:0:0:
233,112,73482,70,0,L|117:94,1,111.799994882202,0|0,1:0|0:0,0:0:0:0:
122,94,73778,1,0,0:0:0:0:
122,94,73876,1,8,0:0:0:0:
166,22,74074,1,0,1:0:0:0:
333,216,74271,38,0,P|385:163|450:173,1,129.00000492096,4|0,1:2|0:0,0:0:0:0:
435,165,74567,1,0,0:0:0:0:
435,165,74666,1,8,0:0:0:0:
458,251,74863,1,0,0:0:0:0:
110,344,75060,70,0,L|125:187,1,146.200002788544,4|0,1:2|0:0,0:0:0:0:
123,198,75357,1,0,0:0:0:0:
123,198,75455,1,8,0:0:0:0:
98,114,75653,1,0,0:0:0:0:
442,28,75850,6,0,P|391:89|312:93,1,163.399995636749,4|0,1:2|0:0,0:0:0:0:
312,93,76146,1,0,0:0:0:0:
312,93,76245,1,8,0:0:0:0:
268,22,76442,1,0,1:0:0:0:
428,279,76639,69,8,0:0:0:0:
430,267,76737,1,8,0:0:0:0:
432,255,76836,1,0,0:0:0:0:
434,244,76935,1,8,0:0:0:0:
436,232,77033,1,8,0:0:0:0:
438,221,77132,1,0,0:0:0:0:
440,209,77231,1,0,1:0:0:0:
442,198,77329,1,0,0:0:0:0:
424,166,77429,54,0,P|470:193|529:181,1,94.600002886963,4|0,1:2|0:0,0:0:0:0:
294,333,77824,2,0,L|273:236,1,94.600002886963,4|0,1:2|0:0,0:0:0:0:
273,240,78120,1,0,1:0:0:0:
273,240,78218,1,8,0:0:0:0:
84,305,78416,1,0,0:0:0:0:
238,154,78613,1,8,0:0:0:0:
170,340,78810,5,0,1:0:0:0:
170,340,78909,1,0,1:0:0:0:
170,340,79008,1,4,1:2:0:0:
94,213,79205,1,0,0:0:0:0:
312,293,79403,1,4,1:2:0:0:
270,56,79600,69,0,1:0:0:0:
270,56,79699,1,0,1:0:0:0:
270,56,79797,1,8,0:0:0:0:
221,258,79995,1,0,0:0:0:0:
249,146,80192,1,8,0:0:0:0:
322,357,80389,5,0,1:0:0:0:
322,357,80488,1,0,1:0:0:0:
322,357,80587,1,4,1:2:0:0:
110,269,80784,1,0,0:0:0:0:
330,193,80982,1,4,1:2:0:0:
74,98,81179,69,0,1:0:0:0:
74,98,81278,1,0,1:0:0:0:
74,98,81376,1,8,0:0:0:0:
197,242,81574,1,0,0:0:0:0:
253,15,81771,1,8,0:0:0:0:
197,242,81968,1,0,0:0:0:0:
43,42,82166,5,0,1:0:0:0:
44,57,82264,1,0,1:0:0:0:
46,73,82363,1,0,1:0:0:0:
48,89,82462,1,0,1:0:0:0:
76,113,82560,69,0,1:0:0:0:
77,128,82658,1,0,1:0:0:0:
79,144,82757,1,0,1:0:0:0:
81,160,82856,1,0,1:0:0:0:
109,187,82955,6,0,L|177:179,1,47.3000014434815,4|8,1:2|0:0,0:0:0:0:
76,113,83251,2,0,L|144:105,1,47.3000014434815,0|8,1:2|0:0,0:0:0:0:
43,42,83547,1,8,0:0:0:0:
317,107,83745,6,0,P|303:172|299:251,1,129.00000492096,12|8,0:1|0:0,0:0:0:0:
267,67,84337,6,0,P|295:147|291:274,1,172,8|8,0:0|0:0,0:0:0:0:
341,27,84929,70,0,P|306:120|299:245,1,213.223147218031,8|12,0:0|0:0,0:0:0:0:
