osu file format v14

[General]
AudioFilename: audio.mp3
AudioLeadIn: 0
PreviewTime: 58366
Countdown: 1
SampleSet: Soft
StackLeniency: 0.7
Mode: 0
LetterboxInBreaks: 0
WidescreenStoryboard: 1

[Editor]
Bookmarks: 1700,15033,25033,31700,45033,58366,71700,85033,98366,111700,118366,125033,138366,145033
DistanceSpacing: 1.3
BeatDivisor: 6
GridSize: 4
TimelineZoom: 1.1

[Metadata]
Title:Journey into the Unicorn Forest
TitleUnicode:Journey into the Unicorn Forest
Artist:Limstella
ArtistUnicode:Limstella
Creator:ReFaller
Version:Hyper
Source:BMS
Tags:Mako Sakata
BeatmapID:1019108
BeatmapSetID:475583

[Difficulty]
HPDrainRate:5
CircleSize:4
OverallDifficulty:6
ApproachRate:7
SliderMultiplier:1.5
SliderTickRate:1

[Events]
//Background and Video events
0,0,"unicorn_water_forest_night_magic_68838_1280x720.jpg",0,0
//Break Periods
//Storyboard Layer 0 (Background)
//Storyboard Layer 1 (Fail)
//Storyboard Layer 2 (Pass)
//Storyboard Layer 3 (Foreground)
//Storyboard Layer 4 (Overlay)
//Storyboard Sound Samples

[TimingPoints]
1700,416.666666666667,4,2,0,40,1,0
1700,-125,4,2,0,40,0,0
23366,-111.111111111111,4,2,0,50,0,0
25033,-100,4,2,0,60,0,0
58366,-100,4,2,0,72,0,1
83783,-133.333333333333,4,2,0,72,0,1
84200,-100,4,2,0,72,0,1
85033,-100,4,2,0,60,0,0
98366,-111.111111111111,4,2,0,60,0,0
118366,-100,4,2,0,72,0,1
144981,-100,4,2,0,72,0,0
145033,-100,4,2,0,60,0,1
145085,-100,4,2,0,60,0,0

[Colours]
Combo1 : 28,238,255
Combo2 : 159,207,255
Combo3 : 18,124,255
Combo4 : 128,0,255

[HitObjects]
204,111,1700,6,0,P|122:87|66:152,1,180,2|0,0:0|0:0,0:0:0:0:
145,163,2533,2,0,P|176:218|157:276,1,120,2|0,0:0|0:0,0:0:0:0:
167,349,3158,2,0,P|92:309|97:224,1,180,2|0,0:0|0:0,0:0:0:0:
145,163,3991,6,0,L|149:119,2,30,0|2|0,0:0|0:0|0:0,0:0:0:0:
202,215,4408,1,2,0:0:0:0:
263,263,4616,2,0,P|277:234|280:207,1,60,0|0,0:0|0:0,0:0:0:0:
190,292,5033,6,0,P|265:341|337:287,1,180,2|0,0:0|0:0,0:0:0:0:
380,236,5866,2,0,P|411:291|392:349,1,120,2|0,0:0|0:0,0:0:0:0:
332,298,6491,6,0,L|276:188,2,120,2|2|2,0:0|0:0|0:0,0:0:0:0:
473,231,7741,1,2,0:0:0:0:
402,91,8158,1,0,0:0:0:0:
402,91,8366,6,0,P|331:42|247:68,1,180,2|2,0:0|0:0,0:0:0:0:
191,122,9200,2,0,P|147:145|77:120,1,120,2|0,0:0|0:0,0:0:0:0:
10,94,9825,6,0,L|1:219,2,120,2|2|2,0:0|0:0|0:0,0:0:0:0:
147,20,11075,1,2,0:0:0:0:
289,82,11491,1,0,0:0:0:0:
289,82,11700,1,2,0:0:0:0:
256,192,11908,12,2,13366,0:0:0:0:
264,300,15033,6,0,P|346:324|402:259,1,180,2|0,0:0|0:0,0:0:0:0:
323,248,15866,2,0,P|292:193|311:135,1,120,2|0,0:0|0:0,0:0:0:0:
370,187,16491,2,0,P|376:102|301:62,1,180,2|0,0:0|0:0,0:0:0:0:
236,107,17325,5,0,0:0:0:0:
236,107,17429,1,2,0:0:0:0:
236,107,17533,2,0,L|216:170,1,60,0|2,0:0|0:0,0:0:0:0:
140,172,17950,2,0,L|120:235,1,60
48,202,18366,6,0,P|64:285|147:304,1,180,2|0,0:0|0:0,0:0:0:0:
121,229,19200,2,0,L|244:211,1,120,2|0,0:0|0:0,0:0:0:0:
224,288,19825,6,0,L|346:269,2,120,2|2|2,0:0|0:0|0:0,0:0:0:0:
70,311,21075,1,2,0:0:0:0:
47,157,21491,1,0,0:0:0:0:
47,157,21700,6,0,P|102:91|190:94,1,180,2|0,0:0|0:0,0:0:0:0:
258,132,22534,2,0,P|306:142|367:100,1,120,2|0,0:0|0:0,0:0:0:0:
426,58,23158,1,0,0:0:0:0:
426,58,23366,5,2,3:2:0:0:
462,229,23783,1,2,3:2:0:0:
291,265,24200,2,0,L|190:287,1,101.249996910095,2|2,3:2|0:3,0:0:0:0:
170,290,24616,2,0,P|156:258|151:224,1,67.4999979400635,4|0,0:3|0:0,0:0:0:0:
188,65,25033,6,0,L|303:53,1,112.5,4|4,3:1|3:0,0:0:0:0:
323,53,25450,2,0,P|340:91|338:127,1,75,0|4,1:0|3:0,0:0:0:0:
294,202,25866,2,0,P|243:222|188:208,1,112.5,4|0,3:0|0:0,0:0:0:0:
169,198,26283,2,0,L|139:267,1,75,0|4,1:0|3:0,0:0:0:0:
226,339,26700,5,4,3:0:0:0:
359,356,27012,1,4,3:0:0:0:
359,356,27116,1,0,1:0:0:0:
436,310,27325,1,4,3:0:0:0:
357,266,27533,2,0,L|365:153,1,112.5,4|4,3:0|3:0,0:0:0:0:
384,117,27950,2,0,L|407:80,3,37.5,0|0|4|0,1:0|0:0|3:0|0:0,0:0:0:0:
344,118,28366,6,0,L|231:98,1,112.5,4|4,3:2|3:0,0:0:0:0:
210,96,28783,2,0,L|196:172,1,75,0|4,1:0|3:0,0:0:0:0:
234,251,29200,2,0,L|346:270,1,112.5,4|4,3:0|3:0,0:0:0:0:
368,273,29617,2,0,L|381:196,1,75,0|4,1:0|3:0,0:0:0:0:
344,118,30033,5,0,0:0:0:0:
247,61,30242,1,2,0:0:0:0:
247,174,30450,1,2,1:2:0:0:
150,118,30658,1,4,3:0:0:0:
150,230,30866,5,0,0:0:0:0:
150,230,30970,1,0,1:0:0:0:
53,175,31179,1,4,3:0:0:0:
53,175,31283,2,0,L|46:131,3,37.5,0|0|0|0,1:0|0:0|1:0|1:0,0:0:0:0:
40,93,31700,5,4,3:1:0:0:
40,93,32116,1,0,1:0:0:0:
104,40,32325,1,4,3:0:0:0:
179,73,32533,2,0,L|293:62,1,112.5,4|4,3:0|3:0,0:0:0:0:
308,77,32950,2,0,L|316:153,1,75,0|4,1:0|3:0,0:0:0:0:
243,264,33366,6,0,L|233:153,2,112.5,4|4|4,3:0|3:0|3:0,0:0:0:0:
193,330,34200,2,0,P|146:358|86:346,1,112.5,4|4,3:0|3:0,0:0:0:0:
89,348,34616,1,0,1:0:0:0:
129,275,34825,1,4,3:0:0:0:
57,233,35033,6,0,L|44:120,1,112.5,4|4,3:2|3:0,0:0:0:0:
44,121,35450,1,0,1:0:0:0:
93,55,35658,1,4,3:0:0:0:
93,55,35762,1,0,0:0:0:0:
93,55,35866,2,0,P|146:73|200:49,1,112.5,4|4,3:0|3:0,0:0:0:0:
214,40,36283,2,0,L|256:105,1,75,0|4,1:0|3:0,0:0:0:0:
251,185,36700,6,0,L|156:246,1,112.5,4|4,3:0|3:0,0:0:0:0:
143,264,37116,2,0,P|154:303|181:329,1,75,0|4,1:0|3:0,0:0:0:0:
255,354,37533,5,4,3:0:0:0:
255,354,37637,1,0,1:0:0:0:
327,314,37845,1,4,3:0:0:0:
327,314,37950,1,0,1:0:0:0:
396,358,38158,1,4,3:0:0:0:
465,313,38366,6,0,L|471:162,1,150,4|0,3:1|1:0,0:0:0:0:
418,99,38991,1,4,3:0:0:0:
352,149,39200,2,0,P|301:164|251:132,1,112.5,4|4,3:0|3:0,0:0:0:0:
244,115,39616,2,0,L|255:34,1,75,0|4,1:0|3:0,0:0:0:0:
161,110,40033,6,0,L|144:221,1,112.5,4|4,3:0|3:0,0:0:0:0:
141,244,40450,2,0,L|66:233,1,75,0|4,1:0|3:0,0:0:0:0:
133,328,40866,2,0,L|244:344,1,112.5,4|4,3:0|3:0,0:0:0:0:
273,315,41283,2,0,L|273:269,3,37.5,0|0|4|0,1:0|0:0|3:0|1:0,0:0:0:0:
284,355,41700,6,0,L|433:349,1,150,4|0,3:1|1:0,0:0:0:0:
346,261,42325,1,4,3:0:0:0:
346,261,42429,1,0,0:0:0:0:
346,261,42533,2,0,L|458:256,1,112.5,4|4,3:2|3:0,0:0:0:0:
458,256,42950,1,0,1:0:0:0:
489,180,43158,1,0,3:0:0:0:
256,192,43366,12,0,44616,1:0:0:0:
202,64,45033,6,0,L|168:50,2,37.5,2|0|0,0:0|0:0|0:0,0:0:0:0:
279,93,45450,2,0,P|318:98|355:88,1,75,2|0,0:0|0:0,0:0:0:0:
426,54,45866,2,0,L|413:12,2,37.5,2|0|0,0:0|0:0|0:0,0:0:0:0:
424,136,46283,2,0,L|450:210,1,75,2|0,0:0|0:0,0:0:0:0:
411,313,46700,6,0,L|336:307,1,75,2|0,0:0|0:0,0:0:0:0:
189,271,47116,2,0,L|264:265,1,75,2|0,0:0|0:0,0:0:0:0:
411,229,47533,2,0,L|336:223,1,75,2|0,0:0|0:0,0:0:0:0:
189,187,47950,2,0,L|264:181,1,75,2|0,0:0|0:0,0:0:0:0:
362,67,48366,5,6,0:0:0:0:
362,67,48470,1,0,0:0:0:0:
362,67,48575,1,0,0:0:0:0:
287,102,48783,1,2,0:0:0:0:
213,64,48991,2,0,L|208:16,2,37.5,2|0|0,0:0|0:0|0:0,0:0:0:0:
157,125,49408,1,2,0:0:0:0:
79,98,49616,2,0,P|40:92|5:107,1,75,2|0,0:0|0:0,0:0:0:0:
51,175,50033,6,0,L|58:230,2,37.5,2|0|0,0:0|0:0|0:0,0:0:0:0:
149,212,50450,2,0,L|156:267,2,37.5,2|0|0,0:0|0:0|0:0,0:0:0:0:
247,175,50866,1,2,0:0:0:0:
247,175,50970,1,0,0:0:0:0:
352,185,51179,1,2,0:0:0:0:
352,185,51283,1,0,0:0:0:0:
440,242,51491,1,2,0:0:0:0:
406,342,51700,6,0,L|291:354,1,112.5,6|2,0:0|0:0,0:0:0:0:
271,357,52116,1,0,0:0:0:0:
188,346,52325,2,0,P|109:329|83:258,1,150,2|0,0:0|0:0,0:0:0:0:
128,202,52950,2,0,P|153:229|164:264,1,75,2|0,0:0|0:0,0:0:0:0:
45,196,53366,6,0,P|64:147|115:120,1,112.5,2|2,0:0|0:0,0:0:0:0:
137,116,53783,1,0,0:0:0:0:
218,126,53991,2,0,P|287:148|345:105,1,150,2|0,0:0|0:0,0:0:0:0:
423,130,54616,2,0,L|433:174,3,37.5,2|0|2|0,0:0|0:0|0:0|0:0,0:0:0:0:
441,206,55033,6,0,L|455:356,1,150,6|2,0:0|0:0,0:0:0:0:
338,303,55658,1,0,0:0:0:0:
232,375,55866,2,0,L|218:225,1,150,6|2,0:0|0:0,0:0:0:0:
140,144,56491,1,0,0:0:0:0:
249,117,56700,5,6,0:0:0:0:
249,117,57116,2,0,L|374:108,1,125,2|2,0:0|0:0,0:0:0:0:
400,114,57533,2,0,P|415:148|411:204,1,75,0|2,0:0|0:0,0:0:0:0:
347,307,57950,2,0,P|331:272|330:235,1,75,0|2,0:0|0:0,0:0:0:0:
445,261,58366,6,0,L|452:375,1,112.5,4|4,3:1|3:0,0:0:0:0:
451,373,58783,1,0,1:0:0:0:
361,331,58991,1,4,3:0:0:0:
361,331,59200,2,0,L|354:218,1,112.5,4|4,3:0|3:0,0:0:0:0:
354,218,59616,1,0,1:0:0:0:
290,154,59825,1,4,3:0:0:0:
223,214,60033,6,0,P|158:236|86:207,1,150,4|0,3:0|1:0,0:0:0:0:
36,130,60658,1,4,3:0:0:0:
36,130,60762,1,0,0:0:0:0:
36,130,60866,2,0,L|46:52,1,75,4|0,3:0|0:0,0:0:0:0:
139,11,61283,2,0,L|130:86,1,75,0|4,1:0|3:0,0:0:0:0:
209,128,61700,6,0,L|360:113,1,150,4|0,3:1|1:0,0:0:0:0:
422,203,62325,1,4,3:0:0:0:
422,203,62533,2,0,L|272:217,1,150,4|0,3:0|1:0,0:0:0:0:
191,257,63158,1,4,3:0:0:0:
191,257,63366,6,0,P|176:312|192:368,1,112.5,4|4,3:0|3:0,0:0:0:0:
211,374,63783,2,0,L|289:374,1,75,0|4,1:0|3:0,0:0:0:0:
365,331,64200,5,4,3:0:0:0:
365,331,64304,1,0,1:0:0:0:
445,347,64512,1,4,3:0:0:0:
445,347,64616,2,0,L|479:327,3,37.5,0|0|4|4,1:0|1:0|3:0|3:0,0:0:0:0:
489,288,65033,6,0,L|497:138,1,150,4|0,3:1|1:0,0:0:0:0:
447,62,65658,1,4,3:0:0:0:
358,78,65866,2,0,P|326:144|367:217,1,150,4|0,3:0|1:0,0:0:0:0:
267,227,66491,1,4,3:0:0:0:
267,227,66700,6,0,P|297:293|281:330,1,112.5,4|4,3:0|3:0,0:0:0:0:
266,340,67116,2,0,L|192:347,1,75,0|4,1:0|3:0,0:0:0:0:
105,317,67533,1,4,3:0:0:0:
105,317,67637,2,0,P|90:283|94:227,1,75,0|4,1:0|3:0,0:0:0:0:
109,204,67950,2,0,L|183:197,1,75,0|4,1:0|3:0,0:0:0:0:
323,271,68366,6,0,L|436:260,1,112.5,4|4,3:1|3:0,0:0:0:0:
457,256,68783,2,0,P|466:217|455:182,1,75,0|4,1:0|3:0,0:0:0:0:
363,57,69200,2,0,P|331:123|361:189,1,150,4|0,3:0|1:0,0:0:0:0:
366,284,69825,2,0,L|374:326,2,37.5,8|0|4,0:3|0:0|0:0,0:0:0:0:
146,284,70450,6,0,L|138:326,2,37.5,0|0|4,1:0|0:0|3:0,0:0:0:0:
112,199,70866,2,0,L|81:228,2,37.5,8|8|4,0:3|0:3|0:3,0:0:0:0:
137,111,71283,2,0,L|94:115,2,37.5,4|4|4,0:3|0:3|0:3,0:0:0:0:
209,56,71700,6,0,P|266:63|314:35,1,112.5,4|4,3:1|3:0,0:0:0:0:
349,11,72116,2,0,L|386:77,1,75,0|4,1:0|3:0,0:0:0:0:
453,135,72533,2,0,P|387:166|319:137,1,150,4|0,3:0|1:0,0:0:0:0:
281,219,73158,1,0,0:0:0:0:
281,219,73366,6,0,P|235:199|176:222,1,112.5,4|4,3:0|3:0,0:0:0:0:
164,237,73783,2,0,L|158:315,1,75,0|4,1:0|3:0,0:0:0:0:
76,234,74200,2,0,L|84:122,2,112.5,4|4|4,3:0|3:0|3:0,0:0:0:0:
158,311,75033,6,0,L|269:319,1,112.5,4|4,3:1|3:0,0:0:0:0:
293,319,75450,2,0,P|311:288|306:245,1,75,0|4,1:0|3:0,0:0:0:0:
253,178,75866,2,0,P|225:117|262:42,1,150,4|0,3:0|1:0,0:0:0:0:
314,115,76491,1,4,3:0:0:0:
314,115,76700,6,0,P|370:121|418:93,1,112.5,4|4,3:0|3:0,0:0:0:0:
453,70,77116,2,0,L|490:136,1,75,0|0,1:0|0:0,0:0:0:0:
438,209,77533,2,0,L|461:249,1,37.5,4|0,3:0|1:0,0:0:0:0:
398,309,77845,2,0,L|421:349,4,37.5,4|0|0|4|0,3:0|1:0|1:0|3:0|1:0,0:0:0:0:
366,276,78366,6,0,P|315:258|259:271,2,112.5,4|4|4,3:1|3:0|3:0,0:0:0:0:
309,347,79200,1,0,3:0:0:0:
309,347,79304,1,0,1:0:0:0:
219,354,79512,1,0,3:0:0:0:
219,354,79616,2,0,L|141:357,1,75,0|0,1:0|3:0,0:0:0:0:
66,310,80033,6,0,P|48:259|61:203,2,112.5,4|4|4,3:1|3:0|3:0,0:0:0:0:
136,253,80866,2,0,P|195:231|254:242,1,125,4|0,0:0|1:0,0:0:0:0:
274,277,81283,2,0,L|276:320,3,37.5,8|8|4|4,0:3|0:3|0:3|0:3,0:0:0:0:
294,241,81700,6,0,P|306:182|295:129,1,112.5,4|4,3:1|3:0,0:0:0:0:
285,112,82116,2,0,L|201:111,1,75,0|4,1:0|3:0,0:0:0:0:
154,182,82533,2,0,P|142:241|153:294,1,112.5,4|4,3:0|3:0,0:0:0:0:
163,311,82949,2,0,L|247:312,1,75,0|4,1:0|3:0,0:0:0:0:
303,250,83366,5,0,1:0:0:0:
330,352,83575,1,8,0:3:0:0:
404,277,83783,2,0,L|415:190,1,84.3750032186509,0|0,1:0|1:0,0:0:0:0:
357,122,84304,5,0,1:0:0:0:
360,110,84408,1,0,1:0:0:0:
364,98,84512,1,0,1:0:0:0:
367,86,84616,2,0,L|378:41,3,37.5,0|8|4|0,0:0|0:3|0:3|1:0,0:0:0:0:
419,31,85033,5,4,3:1:0:0:
419,31,86491,5,4,3:0:0:0:
419,31,86700,1,4,3:0:0:0:
419,181,88158,5,4,3:0:0:0:
419,181,88366,1,4,3:1:0:0:
289,106,89825,5,4,3:0:0:0:
289,106,90033,1,4,3:0:0:0:
289,106,90866,5,4,3:0:0:0:
224,144,91283,1,4,3:0:0:0:
224,69,91491,2,0,L|202:31,2,37.5,0|0|4,1:0|1:0|3:1,0:0:0:0:
256,272,93158,5,4,3:0:0:0:
256,272,93366,1,4,3:2:0:0:
143,272,94200,1,4,3:2:0:0:
369,272,94825,5,4,3:0:0:0:
369,272,95033,1,4,3:2:0:0:
369,272,96491,5,4,3:0:0:0:
304,235,96699,1,4,3:0:0:0:
304,310,96907,1,0,1:0:0:0:
207,254,97116,1,0,1:0:0:0:
207,367,97324,1,0,1:0:0:0:
110,310,97533,1,4,3:2:0:0:
110,310,97845,5,0,1:0:0:0:
110,310,97950,2,0,B|102:262,3,37.5,8|8|4|4,0:3|0:3|0:3|0:3,0:0:0:0:
101,239,98366,6,0,P|118:167|171:139,1,134.999995880127,4|0,3:1|1:0,0:0:0:0:
229,86,98991,1,4,3:0:0:0:
229,86,99095,1,0,0:0:0:0:
229,86,99200,2,0,P|248:133|239:183,1,101.249996910095,4|4,3:0|3:0,0:0:0:0:
211,209,99616,2,0,L|203:280,1,67.4999979400635,0|4,1:0|3:0,0:0:0:0:
183,354,100033,6,0,P|255:337|283:284,1,134.999995880127,4|0,3:0|1:0,0:0:0:0:
285,205,100658,2,0,L|282:162,1,33.7499989700318,4|0,3:0|0:0,0:0:0:0:
286,131,100866,2,0,P|333:112|383:121,1,101.249996910095,4|4,3:0|3:0,0:0:0:0:
394,137,101282,2,0,L|398:210,1,67.4999979400635,0|4,1:0|3:0,0:0:0:0:
356,322,101700,5,4,3:2:0:0:
356,322,102116,1,0,1:0:0:0:
282,287,102325,1,4,3:0:0:0:
282,287,102429,1,0,0:0:0:0:
282,287,102533,2,0,P|228:277|181:287,1,101.249996910095,4|4,3:0|3:0,0:0:0:0:
165,296,102950,1,0,1:0:0:0:
73,318,103158,1,4,3:0:0:0:
100,227,103366,6,0,L|81:93,1,134.999995880127,4|0,3:0|1:0,0:0:0:0:
134,23,103991,1,4,3:0:0:0:
170,103,104200,1,4,3:0:0:0:
170,103,104304,2,0,L|241:103,1,67.4999979400635,0|4,1:0|3:0,0:0:0:0:
268,134,104616,2,0,L|272:169,3,33.7499989700318,0|0|4|0,1:0|1:0|3:0|1:0,0:0:0:0:
279,92,105033,6,0,P|328:77|378:83,2,101.249996910095,4|4|4,3:1|3:0|3:0,0:0:0:0:
228,163,105866,2,0,L|231:284,1,112.499996566773,0|0,1:0|1:0,0:0:0:0:
235,304,106283,2,0,L|216:345,3,33.7499989700318,8|8|4|4,0:3|0:3|0:3|0:3,0:0:0:0:
276,290,106700,6,0,P|325:276|379:286,2,101.249996910095,4|4|4,3:2|3:0|3:0,0:0:0:0:
216,354,107533,2,0,P|162:371|108:360,1,112.499996566773,0|8,1:0|0:3,0:0:0:0:
84,344,107950,2,0,L|77:303,3,33.7499989700318,0|0|0|0,1:0|3:0|3:0|1:0,0:0:0:0:
73,266,108367,6,0,L|69:163,1,101.249996910095,4|4,3:1|3:0,0:0:0:0:
73,145,108783,2,0,P|108:133|143:139,1,67.4999979400635,0|4,1:0|3:0,0:0:0:0:
205,193,109200,2,0,P|257:207|303:192,1,101.249996910095,0|0,0:0|0:0,0:0:0:0:
320,184,109616,2,0,L|340:301,1,112.499996566773,0|4,1:0|0:3,0:0:0:0:
338,294,110033,5,4,3:2:0:0:
256,192,110241,12,4,111700,3:2:0:0:
63,181,112950,5,4,0:1:0:0:
63,181,113158,2,0,P|126:201|193:177,1,134.999995880127,4|0,3:1|1:0,0:0:0:0:
239,108,113783,1,4,0:3:0:0:
276,188,113991,1,8,0:3:0:0:
326,116,114200,6,0,L|329:76,2,33.7499989700318,4|0|8,0:3|0:0|0:3,0:0:0:0:
363,195,114616,2,0,L|361:240,2,33.7499989700318,0|8|4,1:0|0:3|0:3,0:0:0:0:
413,123,115033,5,4,0:0:0:0:
413,123,115866,1,0,1:0:0:0:
361,229,116075,1,4,3:1:0:0:
479,221,116283,1,4,3:1:0:0:
320,143,116491,1,4,1:0:0:0:
320,143,116908,5,0,1:0:0:0:
242,89,117116,1,0,1:0:0:0:
188,167,117324,1,0,1:0:0:0:
266,221,117533,6,0,L|270:263,3,33.7499989700318,8|8|4|4,0:3|0:3|0:3|0:3,0:0:0:0:
313,251,117950,2,0,L|317:293,3,33.7499989700318,4|4|4|4,0:3|0:3|0:0|0:0,0:0:0:0:
352,318,118366,6,0,P|421:348|491:309,1,150,4|0,3:1|1:0,0:0:0:0:
418,256,118991,1,4,3:0:0:0:
484,194,119200,2,0,P|415:164|345:203,1,150,4|0,3:0|1:0,0:0:0:0:
286,256,119824,1,4,3:0:0:0:
286,256,120033,6,0,L|173:263,1,112.5,4|4,3:0|3:0,0:0:0:0:
151,268,120449,2,0,L|158:342,1,75,0|4,1:0|3:0,0:0:0:0:
72,314,120866,1,4,3:0:0:0:
72,314,120970,2,0,P|61:278|64:232,1,75,0|4,1:0|3:0,0:0:0:0:
77,198,121283,2,0,L|151:191,1,75,0|4,1:0|3:0,0:0:0:0:
296,255,121699,6,0,L|409:244,1,112.5,4|4,3:1|3:0,0:0:0:0:
430,240,122116,2,0,P|439:201|428:166,1,75,0|4,1:0|3:0,0:0:0:0:
336,41,122533,2,0,P|304:107|334:173,1,150,4|0,3:0|1:0,0:0:0:0:
339,268,123158,2,0,L|347:310,2,37.5,8|0|4,0:3|0:0|0:0,0:0:0:0:
146,284,123783,6,0,L|138:326,2,37.5,0|0|4,1:0|0:0|3:0,0:0:0:0:
112,199,124199,2,0,L|81:228,2,37.5,8|8|4,0:3|0:3|0:3,0:0:0:0:
137,111,124616,2,0,L|94:115,2,37.5,4|4|4,0:3|0:3|0:3,0:0:0:0:
209,56,125033,6,0,P|266:63|314:35,1,112.5,4|4,3:1|3:0,0:0:0:0:
349,11,125449,2,0,L|386:77,1,75,0|4,1:0|3:0,0:0:0:0:
453,135,125866,2,0,P|387:166|319:137,1,150,4|0,3:0|1:0,0:0:0:0:
281,219,126491,1,4,3:0:0:0:
281,219,126699,6,0,P|235:199|176:222,1,112.5,4|4,3:0|3:0,0:0:0:0:
164,237,127116,2,0,L|158:315,1,75,0|4,1:0|3:0,0:0:0:0:
76,234,127533,2,0,L|84:122,2,112.5,4|4|4,3:0|3:0|3:0,0:0:0:0:
158,311,128366,6,0,L|269:319,1,112.5,4|4,3:1|3:0,0:0:0:0:
293,319,128783,2,0,P|311:288|306:245,1,75,0|4,1:0|3:0,0:0:0:0:
253,178,129199,2,0,P|225:117|262:42,1,150,4|0,3:0|1:0,0:0:0:0:
314,115,129824,1,4,3:0:0:0:
314,115,130033,6,0,P|370:121|418:93,1,112.5,4|4,3:0|3:0,0:0:0:0:
453,70,130449,2,0,L|490:136,1,75,0|4,1:0|3:0,0:0:0:0:
438,209,130866,2,0,L|461:249,1,37.5,4|0,3:0|1:0,0:0:0:0:
398,309,131178,2,0,L|421:349,4,37.5,4|0|0|4|0,3:0|1:0|1:0|3:0|1:0,0:0:0:0:
366,276,131700,6,0,P|315:258|259:271,2,112.5,4|4|4,3:1|3:0|3:0,0:0:0:0:
309,346,132533,2,0,P|254:358|202:340,1,112.5,4|4,3:0|3:0,0:0:0:0:
183,328,132950,2,0,L|113:367,1,75,0|4,1:0|3:0,0:0:0:0:
117,274,133366,6,0,L|19:328,2,112.5,4|4|4,3:1|3:0|3:0,0:0:0:0:
197,233,134200,2,0,P|256:211|315:222,1,125,4|0,0:0|1:0,0:0:0:0:
335,257,134617,2,0,L|337:300,3,37.5,8|0|0|0,0:3|0:0|0:0|0:0,0:0:0:0:
355,221,135034,6,0,P|367:162|356:109,1,112.5,4|4,3:1|3:0,0:0:0:0:
346,92,135450,2,0,L|262:91,1,75,0|4,1:0|3:0,0:0:0:0:
215,162,135867,2,0,P|203:221|214:274,1,112.5,4|4,3:0|3:0,0:0:0:0:
224,291,136283,2,0,L|308:292,1,75,0|4,1:0|3:0,0:0:0:0:
364,230,136700,5,4,3:0:0:0:
391,332,136909,1,0,0:0:0:0:
465,257,137117,2,0,L|479:138,1,112.5,0|0,1:0|0:0,0:0:0:0:
467,125,137533,6,0,L|471:80,3,37.5,8|8|4|4,0:3|0:3|0:3|0:3,0:0:0:0:
426,77,137950,2,0,L|430:32,3,37.5,4|4|4|4,0:3|0:3|0:3|0:3,0:0:0:0:
393,12,138366,6,0,L|277:7,2,112.5,4|4|4,3:1|3:0|3:0,0:0:0:0:
477,46,139200,2,0,P|501:97|481:151,1,112.5,4|4,3:0|3:0,0:0:0:0:
468,164,139616,2,0,L|387:168,1,75,0|4,1:0|3:0,0:0:0:0:
323,225,140033,6,0,L|207:231,2,112.5,4|4|4,3:1|3:0|3:0,0:0:0:0:
391,284,140866,2,0,P|411:226|392:167,1,125,4|0,0:0|1:0,0:0:0:0:
369,149,141283,2,0,L|333:138,3,37.5,8|8|4|4,0:3|0:3|0:3|0:3,0:0:0:0:
291,121,141700,6,0,L|179:120,1,112.5,4|4,3:1|3:0,0:0:0:0:
159,131,142116,2,0,L|158:215,1,75,0|4,1:0|3:0,0:0:0:0:
209,280,142533,2,0,P|268:292|321:281,1,112.5,4|4,3:0|3:0,0:0:0:0:
338,271,142949,2,0,L|339:187,1,75,0|4,1:0|3:0,0:0:0:0:
408,138,143366,5,4,0:0:0:0:
381,37,143575,1,8,0:3:0:0:
306,111,143783,2,0,L|187:97,1,112.5,0|0,1:0|1:0,0:0:0:0:
153,116,144199,6,0,L|145:160,3,37.5,8|0|4|0,0:3|0:0|0:3|0:0,0:0:0:0:
101,152,144616,2,0,L|93:196,3,37.5,0|0|4|4,1:0|1:0|0:3|0:3,0:0:0:0:
58,216,145033,5,4,3:1:0:0:
