osu file format v14

[General]
AudioFilename: audio.mp3
AudioLeadIn: 0
PreviewTime: 52446
Countdown: 0
SampleSet: Soft
StackLeniency: 0.4
Mode: 0
LetterboxInBreaks: 0
WidescreenStoryboard: 1

[Editor]
Bookmarks: 354,10788,21223,31658,52527,72093,92962,112527,125571,146440,156875,166006,176440,188506
DistanceSpacing: 1.2
BeatDivisor: 4
GridSize: 4
TimelineZoom: 1.8

[Metadata]
Title:(please) replay
TitleUnicode:(please) replay
Artist:Limonene
ArtistUnicode:Limonène
Creator:Realazy
Version:(meiikyuu's) hard
Source:
Tags:-[Shady]- Mimilie Suzuhara Lulu Hitsukuya meiikyuu Lasse kamome sano サノカモメ mikanzil 月島春果 evergreen japanese rock
BeatmapID:2673450
BeatmapSetID:1279941

[Difficulty]
HPDrainRate:5
CircleSize:4
OverallDifficulty:5
ApproachRate:8
SliderMultiplier:1.5
SliderTickRate:1

[Events]
//Background and Video events
0,0,"happy birthday.jpg",0,0
//Break Periods
2,112728,119603
//Storyboard Layer 0 (Background)
//Storyboard Layer 1 (Fail)
//Storyboard Layer 2 (Pass)
//Storyboard Layer 3 (Foreground)
//Storyboard Layer 4 (Overlay)
//Storyboard Sound Samples

[TimingPoints]
-950,326.086956521739,4,2,1,40,1,0
190,-100,4,2,1,40,0,0
680,-133.333333333333,4,2,1,40,0,0
2799,-100,4,2,1,40,0,0
3288,-133.333333333333,4,2,1,40,0,0
3886,-133.333333333333,4,2,1,5,0,0
3940,-133.333333333333,4,2,1,40,0,0
4538,-133.333333333333,4,2,1,5,0,0
4593,-133.333333333333,4,2,1,40,0,0
5571,-117.647058823529,4,2,1,50,0,0
8180,-117.647058823529,4,2,1,60,0,0
10136,-117.647058823529,4,2,1,50,0,0
10788,-100,4,2,1,80,0,0
11359,-100,4,2,1,5,0,0
11440,-100,4,2,1,80,0,0
13968,-100,4,2,1,5,0,0
14049,-100,4,2,1,80,0,0
16576,-100,4,2,1,5,0,0
16658,-100,4,2,1,80,0,0
19185,-100,4,2,1,5,0,0
19267,-100,4,2,1,80,0,0
20408,-100,4,2,1,5,0,0
20571,-117.647058823529,4,2,1,50,0,0
21223,-105.263157894737,4,2,1,60,0,0
24076,-105.263157894737,4,2,1,5,0,0
24158,-105.263157894737,4,2,1,60,0,0
30598,-105.263157894737,4,2,1,5,0,0
30680,-105.263157894737,4,2,1,60,0,0
31658,-100,4,2,1,70,0,0
33859,-100,4,2,1,5,0,0
33940,-100,4,2,1,70,0,0
34511,-100,4,2,1,5,0,0
34593,-100,4,2,1,70,0,0
38261,-100,4,2,1,5,0,0
38343,-100,4,2,1,70,0,0
39076,-100,4,2,1,5,0,0
39158,-100,4,2,1,70,0,0
39728,-100,4,2,1,5,0,0
39810,-100,4,2,1,70,0,0
42093,-117.647058823529,4,2,1,60,0,0
47147,-100,4,2,1,70,0,0
48696,-100,4,2,1,5,0,0
48777,-100,4,2,1,70,0,0
49919,-100,4,2,1,80,0,0
51875,-100,4,2,1,70,0,0
52528,-95.2380952380952,4,2,1,90,0,1
52772,-95.2380952380952,4,2,1,5,0,1
52853,-95.2380952380952,4,2,1,90,0,1
59131,-95.2380952380952,4,2,1,5,0,1
59212,-95.2380952380952,4,2,1,90,0,1
60435,-95.2380952380952,4,2,1,5,0,1
60517,-95.2380952380952,4,2,1,90,0,1
61739,-95.2380952380952,4,2,1,5,0,1
61821,-95.2380952380952,4,2,1,90,0,1
62881,-95.2380952380952,4,2,1,5,0,1
62962,-95.2380952380952,4,2,1,90,0,1
63207,-95.2380952380952,4,2,1,5,0,1
63288,-95.2380952380952,4,2,1,90,0,1
66142,-95.2380952380952,4,2,1,5,0,1
66223,-95.2380952380952,4,2,1,90,0,1
69565,-95.2380952380952,4,2,1,5,0,1
69647,-95.2380952380952,4,2,1,90,0,1
70218,-95.2380952380952,4,2,1,5,0,1
70299,-95.2380952380952,4,2,1,90,0,1
72093,-105.263157894737,4,2,1,60,0,0
80163,-105.263157894737,4,2,1,5,0,0
80245,-105.263157894737,4,2,1,60,0,0
80652,-105.263157894737,4,2,1,5,0,0
80734,-105.263157894737,4,2,1,60,0,0
82527,-105.263157894737,4,2,1,70,0,0
82772,-105.263157894737,4,2,1,5,0,0
82853,-105.263157894737,4,2,1,70,0,0
85381,-105.263157894737,4,2,1,5,0,0
85462,-105.263157894737,4,2,1,70,0,0
87582,-100,4,2,1,60,0,0
90353,-100,4,2,1,70,0,0
92228,-100,4,2,1,60,0,0
92881,-100,4,2,1,5,0,0
92963,-95.2380952380952,4,2,1,90,0,1
93207,-95.2380952380952,4,2,1,5,0,1
93288,-95.2380952380952,4,2,1,90,0,1
96142,-95.2380952380952,4,2,1,5,0,1
96223,-95.2380952380952,4,2,1,90,0,1
99566,-95.2380952380952,4,2,1,5,0,1
99647,-95.2380952380952,4,2,1,90,0,1
100870,-95.2380952380952,4,2,1,5,0,1
100952,-95.2380952380952,4,2,1,90,0,1
102174,-95.2380952380952,4,2,1,5,0,1
102256,-95.2380952380952,4,2,1,90,0,1
103316,-95.2380952380952,4,2,1,5,0,1
103397,-95.2380952380952,4,2,1,90,0,1
103642,-95.2380952380952,4,2,1,5,0,1
103723,-95.2380952380952,4,2,1,90,0,1
104783,-95.2380952380952,4,2,1,5,0,1
104864,-95.2380952380952,4,2,1,90,0,1
106577,-95.2380952380952,4,2,1,5,0,1
106658,-95.2380952380952,4,2,1,90,0,1
110000,-95.2380952380952,4,2,1,5,0,1
110082,-95.2380952380952,4,2,1,90,0,1
110653,-95.2380952380952,4,2,1,5,0,1
110734,-95.2380952380952,4,2,1,90,0,1
112528,-100,4,2,1,70,0,0
115381,-100,4,2,1,5,0,0
115462,-100,4,2,1,70,0,0
122881,-100,4,2,1,5,0,0
122962,-100,4,2,1,70,0,0
125571,-95.2380952380952,4,2,1,90,0,1
125816,-95.2380952380952,4,2,1,5,0,1
125897,-95.2380952380952,4,2,1,90,0,1
128424,-95.2380952380952,4,2,1,5,0,1
128506,-95.2380952380952,4,2,1,90,0,1
128750,-95.2380952380952,4,2,1,5,0,1
128832,-95.2380952380952,4,2,1,90,0,1
132175,-95.2380952380952,4,2,1,5,0,1
132256,-95.2380952380952,4,2,1,90,0,1
133479,-95.2380952380952,4,2,1,5,0,1
133561,-95.2380952380952,4,2,1,90,0,1
134783,-95.2380952380952,4,2,1,5,0,1
134864,-95.2380952380952,4,2,1,90,0,1
135925,-95.2380952380952,4,2,1,5,0,1
136006,-95.2380952380952,4,2,1,90,0,1
136251,-95.2380952380952,4,2,1,5,0,1
136332,-95.2380952380952,4,2,1,90,0,1
137392,-95.2380952380952,4,2,1,5,0,1
137473,-95.2380952380952,4,2,1,90,0,1
138859,-95.2380952380952,4,2,1,5,0,1
138940,-95.2380952380952,4,2,1,90,0,1
139186,-95.2380952380952,4,2,1,5,0,1
139267,-95.2380952380952,4,2,1,90,0,1
142609,-95.2380952380952,4,2,1,5,0,1
142691,-95.2380952380952,4,2,1,90,0,1
143262,-95.2380952380952,4,2,1,5,0,1
143343,-95.2380952380952,4,2,1,90,0,1
145136,-100,4,2,1,60,0,0
146359,-100,4,2,1,5,0,0
146440,-100,4,2,1,70,0,0
149620,-100,4,2,1,5,0,0
149701,-100,4,2,1,70,0,0
155652,-100,4,2,1,5,0,0
155734,-100,4,2,1,70,0,0
156794,-100,4,2,1,5,0,0
156875,-100,4,2,1,70,0,0
158261,-100,4,2,1,5,0,0
158343,-100,4,2,1,70,0,0
160055,-100,4,2,1,5,0,0
160136,-100,4,2,1,70,0,0
163478,-100,4,2,1,5,0,0
163560,-100,4,2,1,70,0,0
164131,-100,4,2,1,5,0,0
164212,-100,4,2,1,70,0,0
165924,-100,4,2,1,5,0,0
166006,-100,4,2,1,80,0,0
166576,-100,4,2,1,5,0,0
166658,-100,4,2,1,80,0,0
167392,-100,4,2,1,5,0,0
167473,-100,4,2,1,80,0,0
168696,-100,4,2,1,5,0,0
168777,-100,4,2,1,80,0,0
172609,-100,4,2,1,5,0,0
172690,-100,4,2,1,80,0,0
173261,-100,4,2,1,5,0,0
173343,-100,4,2,1,80,0,0
173913,-100,4,2,1,5,0,0
173995,-100,4,2,1,80,0,0
174402,-100,4,2,1,5,0,0
174484,-100,4,2,1,80,0,0
177011,-100,4,2,1,5,0,0
177093,-100,4,2,1,80,0,0
179131,-100,4,2,1,5,0,0
179212,-100,4,2,1,80,0,0
181739,-100,4,2,1,5,0,0
181821,-100,4,2,1,80,0,0
183044,-100,4,2,1,5,0,0
183125,-100,4,2,1,80,0,0
183696,-100,4,2,1,5,0,0
183777,-100,4,2,1,80,0,0
184348,-100,4,2,1,5,0,0
184430,-100,4,2,1,80,0,0
188506,-100,4,2,1,5,0,0

[Colours]
Combo1 : 227,121,242
Combo2 : 125,183,230
Combo3 : 245,234,154
Combo4 : 94,112,236

[HitObjects]
223,279,190,6,0,P|217:299|202:317,3,25,2|0|0|2,0:0|0:0|0:0|0:0,0:0:0:0:
223,279,680,6,0,B|264:292|264:292|300:280|300:280|328:308|368:312|400:288|400:288|404:228,1,225.000008583069,0|0,1:0|1:0,0:0:0:0:
311,136,1658,2,0,P|340:73|384:84,1,112.500004291535,2|0,0:0|1:0,0:0:0:0:
252,184,2310,2,0,P|182:188|164:141,1,112.500004291535,2|0,0:0|1:0,0:0:0:0:
168,68,2799,6,0,L|163:34,3,25,2|2|2|2,0:0|0:0|0:0|0:0,0:0:0:0:
168,68,3288,6,0,B|126:62|90:86|52:76,2,112.500004291535,0|0|2,0:0|0:0|1:2,0:0:0:0:
292,40,4267,2,0,B|334:34|370:58|408:48,1,112.500004291535,0|2,0:0|1:2,0:0:0:0:
368,196,4919,2,0,L|372:136,1,56.2500021457673,8|8,0:3|0:3,0:0:0:0:
460,172,5245,2,0,L|456:228,1,56.2500021457673,4|4,0:3|0:3,0:0:0:0:
448,344,5571,5,4,0:1:0:0:
448,344,5897,2,0,P|392:332|300:336,1,127.50000243187,0|0,1:0|0:0,0:0:0:0:
156,344,6549,1,0,1:0:0:0:
156,344,6875,2,0,P|140:272|104:220,1,127.50000243187,0|0,0:0|1:0,0:0:0:0:
248,216,7527,2,0,P|240:160|360:180,1,223.125004255772,8|0,1:2|0:0,0:0:0:0:
368,188,8180,6,0,L|448:180,1,63.7500012159348,10|10,1:2|1:2,0:0:0:0:
240,300,8669,2,0,L|160:292,1,63.7500012159348,10|10,1:2|1:2,0:0:0:0:
244,68,9158,2,0,L|236:140,1,63.7500012159348,10|10,1:2|1:2,0:0:0:0:
460,196,9647,2,0,L|452:132,1,63.7500012159348,10|10,1:2|1:2,0:0:0:0:
224,228,10136,6,0,L|216:272,3,31.8750006079674,0|0|0|0,1:0|0:0|3:0|3:0,0:0:0:0:
240,276,10462,2,0,L|248:316,3,31.8750006079674,8|0|8|0,3:2|0:0|3:0|0:0,0:0:0:0:
268,332,10788,6,0,B|320:316|320:316|372:324|372:324|424:312,1,150,6|10,1:2|1:2,0:0:0:0:
460,236,11277,1,0,0:0:0:0:
396,172,11440,2,0,L|392:96,1,75,10|0,1:2|1:0,0:0:0:0:
320,24,11767,2,0,P|356:16|396:20,1,75,10|2,1:2|1:2,0:0:0:0:
244,84,12093,2,0,L|240:8,2,75,8|2|10,1:2|1:2|1:2,0:0:0:0:
284,164,12582,1,0,1:0:0:0:
264,256,12745,2,0,L|348:244,1,75,10|0,1:2|1:0,0:0:0:0:
200,192,13071,2,0,L|125:202,1,75,10|0,1:2|1:0,0:0:0:0:
187,103,13397,6,0,B|219:147|219:147|231:251,1,150,10|10,1:2|1:2,0:0:0:0:
400,302,14049,2,0,B|368:258|368:258|356:154,1,150,10|8,1:2|1:2,0:0:0:0:
369,42,14538,2,0,B|353:86|353:86|297:72|246:97,1,150,2|0,1:2|1:0,0:0:0:0:
194,158,15027,2,0,P|173:123|168:80,1,75,10|0,1:2|1:2,0:0:0:0:
280,177,15353,2,0,P|280:221|269:257,1,75,10|0,1:2|1:0,0:0:0:0:
293,338,15680,1,10,1:2:0:0:
293,338,15843,1,0,1:0:0:0:
203,326,16006,6,0,B|167:318|167:318|83:338,1,112.5,10|0,1:2|0:0,0:0:0:0:
59,342,16332,2,0,P|39:302|31:254,1,75,10|0,1:2|0:0,0:0:0:0:
122,207,16658,2,0,L|254:219,1,112.5,10|0,1:2|0:0,0:0:0:0:
266,231,16984,2,0,P|285:194|294:143,1,75,10|2,1:2|1:2,0:0:0:0:
325,77,17310,2,0,P|366:59|407:58,2,75,8|2|10,1:2|1:2|1:2,0:0:0:0:
236,91,17799,1,0,1:0:0:0:
147,76,17962,2,0,P|112:55|91:28,1,75,10|0,1:2|1:0,0:0:0:0:
84,141,18288,2,0,L|100:275,1,112.5,10|0,1:2|0:0,0:0:0:0:
88,285,18614,5,10,1:2:0:0:
209,344,18940,1,10,1:2:0:0:
300,208,19267,1,10,1:2:0:0:
253,276,19430,1,8,3:0:0:0:
215,204,19593,1,4,3:0:0:0:
260,132,19756,5,6,1:2:0:0:
344,60,20571,2,0,L|352:108,3,31.8750006079674,8|0|0|8,1:3|0:0|3:0|0:0,0:0:0:0:
356,124,20897,2,0,P|396:144|456:128,1,95.6250018239022,8|0,0:0|0:0,0:0:0:0:
472,116,21223,6,0,B|488:200|488:200|478:262,1,142.49999619484,6|8,1:2|0:0,0:0:0:0:
421,319,21712,1,2,0:0:0:0:
336,320,21875,2,0,B|268:303|268:303|194:317,1,142.49999619484,2|10,1:2|0:0,0:0:0:0:
120,277,22364,2,0,P|111:236|115:200,2,71.2499980974198,2|0|0,1:2|0:0|1:0,0:0:0:0:
192,176,22853,1,8,0:0:0:0:
126,120,23017,1,2,0:0:0:0:
172,48,23180,2,0,L|244:37,1,71.2499980974198,0|2,1:2|1:2,0:0:0:0:
332,132,23506,2,0,L|259:120,1,71.2499980974198,10|2,0:0|0:0,0:0:0:0:
228,200,23832,6,0,B|216:252|216:252|248:292|233:339,1,142.49999619484,2|10,1:2|0:0,0:0:0:0:
164,303,24321,2,0,P|223:261|293:281,1,142.49999619484,2|2,0:0|1:2,0:0:0:0:
358,322,24810,1,10,0:0:0:0:
441,303,24973,2,0,P|479:255|449:180,1,142.49999619484,2|2,1:2|1:2,0:0:0:0:
373,205,25462,1,8,0:0:0:0:
396,131,25625,1,2,0:3:0:0:
396,131,25707,1,2,0:3:0:0:
396,131,25788,2,0,P|401:78|395:52,1,71.2499980974198,2|0,1:2|0:0,0:0:0:0:
304,23,26114,2,0,P|301:60|306:96,1,71.2499980974198,10|0,0:0|0:0,0:0:0:0:
293,195,26440,6,0,P|236:224|161:192,1,142.49999619484,2|8,1:2|0:0,0:0:0:0:
232,136,26930,1,2,0:0:0:0:
232,136,27093,2,0,L|228:294,1,142.49999619484,2|10,1:2|0:0,0:0:0:0:
320,336,27582,2,0,L|324:189,1,142.49999619484,2|0,1:2|1:0,0:0:0:0:
402,159,28071,1,8,0:0:0:0:
376,80,28234,1,2,0:3:0:0:
376,80,28315,1,2,0:3:0:0:
376,80,28397,2,0,L|298:95,1,71.2499980974198,2|0,1:2|1:0,0:0:0:0:
228,161,28723,2,0,L|213:86,1,71.2499980974198,10|0,0:0|0:0,0:0:0:0:
120,68,29049,6,0,B|136:133|136:133|136:175|136:175|153:226,1,142.49999619484,2|8,1:2|0:0,0:0:0:0:
175,287,29538,1,2,0:0:0:0:
260,283,29701,2,0,B|304:259|304:259|405:278,1,142.49999619484,2|8,1:2|0:0,0:0:0:0:
438,202,30190,1,2,1:2:0:0:
364,116,30353,2,0,P|360:160|350:194,1,71.2499980974198,2|0,1:2|0:0,0:0:0:0:
248,204,30680,2,0,P|237:168|234:132,1,71.2499980974198,10|8,0:0|0:0,0:0:0:0:
232,117,30924,1,8,0:0:0:0:
232,97,31006,1,0,1:0:0:0:
170,38,31169,1,0,1:0:0:0:
88,63,31332,2,0,L|54:44,2,35.6249990487099,8|8|0,1:2|1:2|1:0,0:0:0:0:
92,164,31658,6,0,L|252:172,1,150,4|0,1:2|0:0,0:0:0:0:
312,228,32147,1,2,0:0:0:0:
384,172,32310,2,0,B|396:128|396:128|380:88|380:88|380:52|412:20,1,150,2|10,1:2|0:2,0:0:0:0:
308,36,32799,2,0,P|280:60|236:64,1,75,2|0,1:2|0:0,0:0:0:0:
164,24,33125,1,2,0:1:0:0:
120,104,33288,1,10,0:0:0:0:
176,176,33451,1,2,0:1:0:0:
176,176,33533,1,2,0:0:0:0:
176,176,33614,2,0,P|224:176|252:184,1,75,2|0,1:2|0:0,0:0:0:0:
164,256,33940,2,0,P|112:260|44:228,1,112.5,10|0,0:0|0:0,0:0:0:0:
24,228,34267,6,0,L|16:320,1,75,2|0,1:2|0:0,0:0:0:0:
120,156,34593,1,10,0:0:0:0:
120,156,34756,2,0,L|128:240,2,75,2|0|2,0:0|1:0|1:2,0:0:0:0:
212,176,35245,1,10,0:2:0:0:
308,120,35408,2,0,L|296:200,1,75,2|0,1:2|0:0,0:0:0:0:
336,276,35734,1,2,0:1:0:0:
420,244,35897,1,10,0:1:0:0:
456,328,36060,1,2,1:0:0:0:
448,240,36223,2,0,P|448:192|456:152,1,75,2|2,1:0|1:0,0:0:0:0:
372,80,36549,2,0,P|372:128|364:168,1,75,10|2,0:1|0:1,0:0:0:0:
368,256,36875,6,0,P|333:194|263:204,1,150,0|10,1:0|1:0,0:0:0:0:
224,308,37364,1,0,0:0:0:0:
224,308,37527,2,0,L|236:148,1,150,0|10,1:0|0:2,0:0:0:0:
156,100,38017,2,0,L|144:249,1,150,2|2,1:2|0:0,0:0:0:0:
84,316,38506,1,10,0:0:0:0:
164,356,38669,2,0,L|216:364,2,37.5,2|2|2,0:0|0:0|1:2,0:0:0:0:
244,288,38995,1,0,0:0:0:0:
244,288,39158,2,0,B|328:304|328:304|412:296,1,150,10|2,0:0|1:2,0:0:0:0:
412,212,39647,5,0,0:0:0:0:
344,156,39810,1,10,0:0:0:0:
344,156,39973,2,0,L|336:72,2,75,2|0|2,0:0|1:0|1:2,0:0:0:0:
252,108,40462,2,0,L|412:120,1,150,10|2,0:0|0:0,0:0:0:0:
256,240,41114,1,8,0:0:0:0:
256,240,41277,2,0,L|96:252,1,150,2|0,0:3|1:0,0:0:0:0:
56,176,41767,1,8,1:2:0:0:
136,132,41930,1,8,0:3:0:0:
60,84,42093,6,0,P|96:40|176:40,1,127.50000243187,2|10,1:2|0:0,0:0:0:0:
240,196,42745,1,2,1:2:0:0:
240,196,42908,2,0,P|292:192|316:180,1,63.7500012159348,2|10,1:2|0:0,0:0:0:0:
384,220,43234,2,0,P|424:180|436:96,1,127.50000243187,2|2,1:2|1:2,0:0:0:0:
360,68,43723,2,0,B|320:60|284:88|220:72,1,127.50000243187,10|0,0:0|1:0,0:0:0:0:
108,228,44375,1,10,0:0:0:0:
108,228,44701,6,0,P|180:244|244:240,1,127.50000243187,2|8,1:2|0:0,0:0:0:0:
308,196,45190,1,2,0:0:0:0:
380,252,45353,2,0,P|424:252|452:244,2,63.7500012159348,2|0|10,1:2|1:0|0:0,0:0:0:0:
396,164,45843,2,0,B|392:116|392:116|404:72|404:72|408:20,1,127.50000243187,2|2,1:2|1:2,0:0:0:0:
320,84,46332,2,0,B|256:96|256:96|184:88,1,127.50000243187,10|0,0:0|1:0,0:0:0:0:
116,48,46821,1,10,0:0:0:0:
116,48,46984,1,10,0:0:0:0:
80,136,47147,6,0,B|96:188|96:188|96:292,1,150,6|0,1:2|0:0,0:0:0:0:
184,332,47636,2,0,L|184:252,1,75,10|2,0:0|0:3,0:0:0:0:
260,208,47962,2,0,L|260:283,1,75,2|0,0:0|1:0,0:0:0:0:
352,348,48288,2,0,L|352:268,1,75,8|2,0:0|0:0,0:0:0:0:
440,200,48614,6,0,L|440:275,1,75,0|2,0:0|1:2,0:0:0:0:
380,128,48940,2,0,L|456:112,1,75,10|0,0:0|0:0,0:0:0:0:
288,176,49267,2,0,L|208:160,1,75,2|2,1:2|1:2,0:0:0:0:
124,80,49593,2,0,L|108:160,1,75,8|0,0:0|1:0,0:0:0:0:
88,268,49919,5,10,1:2:0:0:
88,268,50082,1,10,1:2:0:0:
216,240,50408,1,10,1:2:0:0:
216,240,50571,1,10,1:2:0:0:
328,320,50897,1,10,1:2:0:0:
328,320,51060,1,10,1:2:0:0:
444,224,51386,1,10,1:2:0:0:
444,224,51549,1,10,1:2:0:0:
388,88,51875,5,0,1:0:0:0:
388,88,52038,2,0,L|428:72,2,37.5,0|8|8,0:0|0:0|0:0,0:0:0:0:
304,144,52364,1,0,1:0:0:0:
304,144,52528,6,0,B|224:108|224:108|152:108,1,157.499995193482,6|10,1:2|1:2,0:0:0:0:
100,176,53017,1,0,0:0:0:0:
92,264,53180,2,0,P|88:304|92:348,2,78.7499975967408,2|2|10,1:2|1:2|1:2,0:0:0:0:
180,336,53669,2,0,B|232:312|292:348|344:324,1,157.499995193482,2|0,1:2|1:0,0:0:0:0:
356,244,54158,1,8,0:0:0:0:
444,252,54321,2,0,B|468:172|468:172|452:96,1,157.499995193482,2|2,0:0|1:2,0:0:0:0:
384,52,54810,1,10,1:2:0:0:
384,52,54973,1,2,1:2:0:0:
308,92,55136,5,2,1:2:0:0:
240,256,55462,2,0,L|320:248,1,78.7499975967408,10|0,1:2|0:0,0:0:0:0:
220,168,55788,2,0,L|141:175,1,78.7499975967408,10|8,1:2|0:3,0:0:0:0:
104,252,56114,1,4,0:3:0:0:
156,323,56277,2,0,B|204:315|240:327|240:327|228:275|248:231,1,157.499995193482,6|6,1:2|1:2,0:0:0:0:
303,100,56930,2,0,B|255:108|219:96|219:96|231:148|211:192,2,157.499995193482,6|6|6,1:2|1:2|1:2,0:0:0:0:
468,48,57908,5,0,0:0:0:0:
468,48,58071,2,0,P|480:100|480:132,1,78.7499975967408,8|2,1:2|0:3,0:0:0:0:
404,168,58397,1,2,0:0:0:0:
452,240,58560,1,2,1:2:0:0:
416,320,58723,1,10,1:2:0:0:
416,320,58886,2,0,P|356:304|252:308,1,157.499995193482,2|2,1:2|1:2,0:0:0:0:
184,344,59375,1,10,1:2:0:0:
116,292,59538,2,0,P|96:240|100:200,2,78.7499975967408,2|0|2,0:2|1:0|1:2,0:0:0:0:
188,232,60027,1,8,1:2:0:0:
244,144,60190,6,0,P|284:196|264:296,1,157.499995193482,2|2,1:2|0:0,0:0:0:0:
384,244,60680,2,0,P|372:188|376:156,1,78.7499975967408,10|2,1:2|0:0,0:0:0:0:
424,96,61006,1,2,1:0:0:0:
460,176,61169,1,2,1:0:0:0:
348,96,61332,1,10,0:0:0:0:
348,96,61495,2,0,B|272:108|272:108|188:92,1,157.499995193482,2|2,0:1|1:0,0:0:0:0:
104,40,61984,2,0,L|112:124,1,78.7499975967408,10|0,1:0|1:0,0:0:0:0:
188,208,62310,2,0,P|200:168|200:128,1,78.7499975967408,10|0,1:0|1:0,0:0:0:0:
96,200,62636,2,2,P|107:240|129:273,1,78.7499975967408,10|0,1:0|0:0,1:0:0:0:
180,344,62962,6,0,P|244:308|340:320,1,157.499995193482,6|10,1:2|1:2,0:0:0:0:
412,308,63451,1,0,0:0:0:0:
444,228,63614,2,0,P|456:172|456:144,2,78.7499975967408,2|2|10,1:2|1:2|1:2,0:0:0:0:
372,156,64103,2,0,B|364:104|364:104|376:64|376:64|368:0,1,157.499995193482,2|0,1:2|0:0,0:0:0:0:
292,60,64593,1,8,0:0:0:0:
208,40,64756,1,2,0:0:0:0:
148,104,64919,2,0,B|112:116|112:116|60:108,1,78.7499975967408,2|2,1:2|1:2,0:0:0:0:
160,196,65245,1,10,1:2:0:0:
160,196,65408,6,0,B|236:168|236:168|320:180,1,157.499995193482,2|0,0:0|0:0,0:0:0:0:
364,248,65897,1,10,1:2:0:0:
432,196,66060,1,0,0:0:0:0:
436,296,66223,2,0,B|428:332|428:332|456:368,2,78.7499975967408,8|8|4,1:2|0:3|0:3,0:0:0:0:
468,204,66712,2,0,B|484:160|484:160|456:112|460:40,1,157.499995193482,6|6,1:2|1:2,0:0:0:0:
240,204,67364,2,0,P|304:180|400:212,1,157.499995193482,6|6,1:2|1:2,0:0:0:0:
164,252,68017,6,0,B|148:208|148:208|176:160|172:88,1,157.499995193482,6|0,1:2|0:0,0:0:0:0:
228,36,68506,1,8,1:2:0:0:
296,88,68669,1,2,0:0:0:0:
296,88,68750,1,2,0:0:0:0:
296,88,68832,2,0,P|344:88|376:84,1,78.7499975967408,2|2,0:0|1:2,0:0:0:0:
456,56,69158,1,10,1:2:0:0:
472,140,69321,2,0,B|484:216|484:216|472:296,1,157.499995193482,2|2,1:2|1:2,0:0:0:0:
392,328,69810,1,10,1:2:0:0:
312,296,69973,2,0,B|232:320|232:320|160:304,1,157.499995193482,2|2,0:0|1:2,0:0:0:0:
128,204,70462,1,10,1:2:0:0:
228,232,70625,6,0,B|244:196|224:152|224:152|268:144|308:172,1,157.499995193482,2|2,1:2|0:0,0:0:0:0:
152,104,71114,1,8,1:2:0:0:
230,49,71277,1,0,1:0:0:0:
230,49,71359,1,0,1:0:0:0:
230,49,71440,2,0,P|266:65|310:65,1,78.7499975967408,8|8,1:2|0:3,0:0:0:0:
200,132,71767,2,0,P|164:116|120:116,1,78.7499975967408,8|0,0:3|0:0,0:0:0:0:
200,216,72093,6,0,P|260:248|311:187,1,142.49999619484,6|8,1:2|0:0,0:0:0:0:
344,126,72582,1,2,0:0:0:0:
412,176,72745,2,0,B|420:232|420:232|416:280|416:280|424:330,1,142.49999619484,2|10,1:2|0:0,0:0:0:0:
340,360,73234,2,0,L|327:281,2,71.2499980974198,2|0|0,1:2|0:0|1:0,0:0:0:0:
252,252,73723,2,0,P|280:220|314:207,1,71.2499980974198,8|8,0:0|0:0,0:0:0:0:
228,328,74049,2,0,P|184:324|152:301,1,71.2499980974198,2|0,1:2|1:0,0:0:0:0:
132,229,74375,2,0,L|120:103,1,106.87499714613,10|0,0:0|0:0,0:0:0:0:
117,87,74701,6,0,P|73:95|36:90,1,71.2499980974198,2|0,1:2|0:0,0:0:0:0:
192,40,75027,1,10,0:0:0:0:
192,40,75190,2,0,P|236:32|273:35,2,71.2499980974198,2|0|0,0:0|1:0|1:0,0:0:0:0:
256,116,75680,1,8,0:0:0:0:
256,116,75843,2,0,L|243:279,1,142.49999619484,2|2,1:2|1:2,0:0:0:0:
324,304,76332,2,0,L|329:226,1,71.2499980974198,8|0,0:0|0:0,0:0:0:0:
380,164,76658,1,2,1:2:0:0:
448,220,76821,1,0,1:0:0:0:
448,220,76984,2,0,L|444:294,1,71.2499980974198,10|0,1:2|0:0,0:0:0:0:
380,164,77310,6,0,B|372:120|396:84|396:84|355:71|333:40,1,142.49999619484,2|8,1:2|0:0,0:0:0:0:
276,105,77799,1,2,0:0:0:0:
192,88,77962,2,0,P|159:73|108:78,2,71.2499980974198,2|0|10,1:2|0:0|0:0,0:0:0:0:
56,136,78451,2,0,L|49:56,1,71.2499980974198,2|0,1:2|0:0,0:0:0:0:
136,168,78777,1,2,1:2:0:0:
126,252,78940,2,0,L|119:324,1,71.2499980974198,8|8,0:0|0:0,0:0:0:0:
208,280,79267,2,0,P|264:268|352:284,1,142.49999619484,2|10,1:2|0:0,0:0:0:0:
424,68,79919,6,0,P|444:124|432:207,1,142.49999619484,2|10,1:2|0:0,0:0:0:0:
288,168,80408,2,0,L|367:181,1,71.2499980974198,2|0,0:0|0:0,0:0:0:0:
212,216,80734,1,2,1:2:0:0:
212,216,80897,2,0,P|200:163|204:128,1,71.2499980974198,10|0,0:0|1:0,0:0:0:0:
240,52,81223,2,0,P|208:88|120:49,1,142.49999619484,2|8,0:0|0:0,0:0:0:0:
80,136,81712,2,0,B|96:180|96:180|72:232|93:282,1,142.49999619484,0|0,1:0|1:0,0:0:0:0:
153,330,82201,1,8,0:0:0:0:
224,284,82364,1,8,1:2:0:0:
224,284,82446,1,8,1:2:0:0:
224,284,82527,6,0,B|302:297|302:297|382:280,1,142.49999619484,2|10,1:2|0:0,0:0:0:0:
417,216,83017,1,2,0:0:0:0:
356,156,83180,1,2,1:2:0:0:
404,88,83343,2,0,L|417:9,1,71.2499980974198,2|10,1:2|0:0,0:0:0:0:
320,80,83669,2,0,L|157:86,1,142.49999619484,2|0,1:2|1:0,0:0:0:0:
104,168,84158,2,0,P|100:120|88:88,1,71.2499980974198,10|0,0:0|1:0,0:0:0:0:
192,172,84484,2,0,P|181:207|179:241,1,71.2499980974198,8|0,0:0|1:0,0:0:0:0:
220,340,84810,1,10,0:0:0:0:
220,340,85136,6,0,L|379:319,1,142.49999619484,2|10,1:2|0:0,0:0:0:0:
332,132,85788,1,2,1:2:0:0:
348,212,85951,1,0,1:0:0:0:
428,224,86114,1,10,0:0:0:0:
472,156,86277,2,0,B|488:116|488:116|456:76|472:8,1,142.49999619484,2|0,1:2|1:0,0:0:0:0:
384,68,86767,2,0,L|308:76,1,71.2499980974198,10|0,0:0|1:0,0:0:0:0:
192,48,87093,2,0,P|222:81|239:115,1,71.2499980974198,2|2,1:2|1:2,0:0:0:0:
235,189,87419,1,8,0:0:0:0:
200,264,87582,6,0,P|224:316|360:268,1,225,6|2,1:2|0:3,0:0:0:0:
432,248,88234,2,0,B|404:212|412:168|412:168|380:148|380:100,1,150,6|2,1:2|0:0,0:0:0:0:
460,100,88723,2,0,L|288:80,1,150,6|8,1:2|0:0,0:0:0:0:
244,144,89212,2,0,B|292:88|292:88|312:0,1,150,14|0,0:2|1:0,0:0:0:0:
220,24,89701,1,2,1:2:0:0:
344,208,90027,1,10,0:0:0:0:
168,328,90353,5,10,1:2:0:0:
168,328,90517,1,10,1:2:0:0:
358,254,90843,1,10,1:2:0:0:
358,254,91006,1,10,1:2:0:0:
148,180,91332,1,10,1:2:0:0:
148,180,91495,1,10,1:2:0:0:
356,104,91821,1,10,1:2:0:0:
356,104,91984,1,10,1:2:0:0:
112,280,92310,6,0,L|192:268,1,75,0|0,1:0|1:0,0:0:0:0:
256,212,92636,2,0,L|256:80,1,112.5,8|0,0:2|0:0,0:0:0:0:
256,64,92963,6,0,B|340:80|340:80|424:64,1,157.499995193482,6|10,1:2|1:2,0:0:0:0:
460,140,93451,1,0,0:0:0:0:
412,212,93614,2,0,P|400:264|404:300,2,78.7499975967408,2|2|10,1:2|1:2|1:2,0:0:0:0:
348,152,94103,2,0,P|276:196|200:168,1,157.499995193482,2|0,1:2|1:0,0:0:0:0:
268,96,94593,1,8,0:0:0:0:
268,96,94756,2,0,L|296:256,1,157.499995193482,2|2,0:0|1:2,0:0:0:0:
312,336,95245,1,10,1:2:0:0:
384,288,95408,1,2,1:2:0:0:
452,340,95571,5,2,1:2:0:0:
464,120,95897,2,0,P|416:136|372:136,1,78.7499975967408,10|0,1:2|0:0,0:0:0:0:
300,136,96223,2,0,P|260:132|224:118,1,78.7499975967408,10|8,1:2|0:3,0:0:0:0:
348,68,96549,1,4,0:3:0:0:
344,200,96712,2,0,B|332:252|332:252|348:296|348:296|344:356,1,157.499995193482,6|6,1:2|1:2,0:0:0:0:
140,264,97364,2,0,B|128:212|128:212|144:168|144:168|140:108,2,157.499995193482,6|6|6,1:2|1:2|1:2,0:0:0:0:
308,344,98343,5,0,0:0:0:0:
308,344,98506,2,0,L|392:332,1,78.7499975967408,8|2,1:2|0:3,0:0:0:0:
448,232,98832,2,0,P|460:280|460:316,2,78.7499975967408,2|2|10,0:0|1:2|1:2,0:0:0:0:
360,224,99321,2,0,P|344:176|352:64,1,157.499995193482,2|2,1:2|1:2,0:0:0:0:
436,76,99810,1,10,1:2:0:0:
420,160,99973,2,0,P|360:180|260:152,1,157.499995193482,2|2,0:2|1:2,0:0:0:0:
208,80,100462,1,8,1:2:0:0:
192,164,100625,6,0,P|164:200|156:308,1,157.499995193482,2|2,1:2|0:0,0:0:0:0:
220,364,101114,2,0,P|260:336|280:304,1,78.7499975967408,10|2,1:2|0:0,0:0:0:0:
344,384,101440,1,2,1:0:0:0:
436,340,101603,1,2,1:0:0:0:
400,248,101767,1,10,0:0:0:0:
400,248,101930,2,0,B|376:164|376:164|400:80,1,157.499995193482,2|2,0:1|1:0,0:0:0:0:
332,32,102419,2,0,L|304:112,1,78.7499975967408,10|0,1:0|1:0,0:0:0:0:
244,196,102745,2,0,L|216:116,1,78.7499975967408,10|0,1:0|1:0,0:0:0:0:
336,200,103071,2,2,P|316:248|316:288,1,78.7499975967408,10|0,1:0|0:0,1:0:0:0:
344,364,103397,6,0,P|416:344|504:364,1,157.499995193482,6|10,1:2|1:2,0:0:0:0:
204,348,104049,1,2,1:2:0:0:
152,280,104212,1,2,1:2:0:0:
176,196,104375,1,10,1:2:0:0:
176,196,104538,2,0,B|200:148|164:108|164:108|180:72|228:72,1,157.499995193482,2|0,1:2|1:0,0:0:0:0:
280,128,105027,2,0,P|328:128|360:116,1,78.7499975967408,8|2,0:0|0:0,0:0:0:0:
448,80,105353,2,0,P|436:124|440:172,2,78.7499975967408,2|2|10,1:2|1:2|1:2,0:0:0:0:
368,200,105843,6,0,P|372:268|428:344,1,157.499995193482,2|0,0:0|0:0,0:0:0:0:
316,336,106332,1,10,1:2:0:0:
240,272,106495,2,0,L|228:356,2,78.7499975967408,0|8|8,0:0|1:2|0:3,0:0:0:0:
168,196,106984,1,4,0:3:0:0:
168,196,107147,2,0,B|160:264|160:264|132:304|132:304|124:356,1,157.499995193482,6|6,1:2|1:2,0:0:0:0:
392,240,107799,2,0,B|312:220|312:220|224:240,1,157.499995193482,6|6,1:2|1:2,0:0:0:0:
464,312,108451,6,0,P|480:224|456:148,1,157.499995193482,6|0,1:2|0:0,0:0:0:0:
408,92,108940,1,8,1:2:0:0:
332,132,109103,1,2,0:0:0:0:
332,132,109185,1,2,0:0:0:0:
332,132,109267,2,0,L|244:140,1,78.7499975967408,2|2,0:0|1:2,0:0:0:0:
240,52,109593,1,10,1:2:0:0:
324,40,109756,2,0,L|320:200,1,157.499995193482,2|2,1:2|1:2,0:0:0:0:
316,284,110245,1,10,1:2:0:0:
380,356,110408,2,0,P|312:312|236:344,1,157.499995193482,2|2,0:0|1:2,0:0:0:0:
152,284,110897,1,10,1:2:0:0:
232,220,111060,6,0,B|240:172|240:172|168:160|156:100,1,157.499995193482,2|2,1:2|0:0,0:0:0:0:
120,228,111549,1,8,1:2:0:0:
184,316,111712,1,0,1:0:0:0:
184,316,111794,1,0,1:0:0:0:
184,316,111875,2,0,P|220:300|264:300,1,78.7499975967408,8|0,1:2|1:0,0:0:0:0:
120,228,112202,2,0,P|84:244|40:244,1,78.7499975967408,8|0,1:2|0:0,0:0:0:0:
20,140,112528,1,6,1:2:0:0:
256,192,120353,12,10,122636,0:0:0:0:
164,120,122962,5,10,1:2:0:0:
164,120,123125,1,10,1:2:0:0:
348,264,123451,1,10,1:2:0:0:
348,264,123614,1,10,1:2:0:0:
172,276,123940,1,10,1:2:0:0:
172,276,124103,1,10,1:2:0:0:
340,108,124430,1,10,1:2:0:0:
340,108,124593,1,10,1:2:0:0:
408,304,124919,6,0,L|412:244,3,37.5,0|0|2|0,1:0|1:0|1:3|1:0,0:0:0:0:
384,244,125245,2,0,P|384:196|392:164,1,75,2|0,1:3|1:0,0:0:0:0:
412,64,125571,6,0,P|368:92|256:92,1,157.499995193482,6|10,1:2|1:2,0:0:0:0:
116,284,126223,2,0,P|172:292|208:304,2,78.7499975967408,2|2|10,1:2|1:2|1:2,0:0:0:0:
280,288,126712,2,0,B|328:260|328:260|384:272|448:264,1,157.499995193482,2|0,1:2|1:0,0:0:0:0:
476,192,127201,1,8,0:0:0:0:
412,136,127364,2,0,P|404:88|412:52,2,78.7499975967408,2|2|2,0:0|1:3|1:2,0:0:0:0:
496,100,127853,1,10,1:2:0:0:
409,58,128017,6,0,B|317:46|317:46|245:62,1,157.499995193482,2|0,1:2|0:0,0:0:0:0:
184,136,128506,2,0,P|176:92|160:56,1,78.7499975967408,10|0,1:2|0:0,0:0:0:0:
132,224,128832,2,0,L|216:216,1,78.7499975967408,10|8,1:2|0:3,0:0:0:0:
280,168,129158,1,4,0:3:0:0:
324,244,129321,2,0,B|368:252|388:284|388:284|428:256|464:260,1,157.499995193482,6|6,1:2|1:2,0:0:0:0:
188,244,129973,2,0,B|144:252|124:284|124:284|84:256|48:260,2,157.499995193482,6|6|6,1:2|1:2|1:2,0:0:0:0:
256,72,130951,5,0,0:0:0:0:
256,72,131114,2,0,L|256:156,1,78.7499975967408,8|2,1:2|0:3,0:0:0:0:
316,228,131440,2,0,P|344:200|356:160,2,78.7499975967408,2|2|10,0:0|1:2|1:2,0:0:0:0:
368,84,131930,2,0,P|412:96|476:184,1,157.499995193482,2|2,1:2|1:2,0:0:0:0:
480,268,132419,1,10,1:2:0:0:
432,340,132582,2,0,P|348:360|272:344,1,157.499995193482,2|2,0:2|1:2,0:0:0:0:
224,280,133071,1,8,1:2:0:0:
308,192,133234,6,0,P|312:232|308:276,2,78.7499975967408,2|0|2,1:2|0:0|0:0,0:0:0:0:
224,172,133723,2,0,P|228:120|240:80,1,78.7499975967408,10|2,1:2|0:0,0:0:0:0:
316,68,134049,1,2,1:0:0:0:
384,124,134212,1,2,1:0:0:0:
444,60,134375,1,10,0:0:0:0:
376,4,134538,2,0,B|364:60|400:112|380:168,1,157.499995193482,2|2,0:1|1:0,0:0:0:0:
392,248,135027,2,0,P|436:232|468:232,1,78.7499975967408,10|0,1:0|1:0,0:0:0:0:
364,332,135353,2,0,P|320:316|288:316,1,78.7499975967408,10|0,1:0|1:0,0:0:0:0:
204,352,135680,2,2,L|216:224,1,118.124996395111,10|0,1:0|0:0,1:0:0:0:
224,200,136006,6,0,P|180:216|136:132,2,157.499995193482,6|10|2,1:2|1:2|1:2,0:0:0:0:
276,128,136821,1,2,1:2:0:0:
352,84,136984,1,10,1:2:0:0:
428,124,137147,2,0,B|440:168|440:168|424:220|424:220|436:280,1,157.499995193482,2|0,1:2|1:0,0:0:0:0:
460,360,137636,1,8,0:0:0:0:
376,336,137799,2,0,P|332:328|292:328,2,78.7499975967408,2|2|2,0:0|1:2|1:2,0:0:0:0:
264,252,138288,1,10,1:2:0:0:
264,252,138451,6,0,P|192:256|104:292,1,157.499995193482,2|0,0:0|0:0,0:0:0:0:
80,208,138940,1,10,1:2:0:0:
144,108,139104,2,0,L|160:188,2,78.7499975967408,0|8|8,1:0|1:2|0:3,0:0:0:0:
192,36,139593,1,4,0:3:0:0:
268,76,139756,2,0,B|284:144|284:144|308:184|308:184|308:236,1,157.499995193482,6|6,1:2|1:2,0:0:0:0:
448,360,140408,2,0,B|464:292|464:292|488:252|488:252|488:200,2,157.499995193482,6|6|6,1:2|1:2|1:2,0:0:0:0:
236,296,141386,5,0,0:0:0:0:
236,296,141549,2,0,P|284:300|316:312,1,78.7499975967408,8|2,1:2|0:0,0:0:0:0:
160,336,141875,2,0,P|136:300|128:260,2,78.7499975967408,2|2|10,0:0|1:2|1:2,0:0:0:0:
192,216,142364,2,0,L|184:48,1,157.499995193482,2|2,1:2|1:2,0:0:0:0:
272,56,142853,1,10,1:2:0:0:
264,144,143017,2,0,P|208:160|116:124,1,157.499995193482,2|2,0:0|1:2,0:0:0:0:
96,44,143506,1,10,1:2:0:0:
184,58,143669,6,0,B|208:114|208:114|188:182|188:182|216:240|204:294,1,236.249992790222,2|8,1:2|1:2,0:0:0:0:
292,344,144321,1,0,1:0:0:0:
292,344,144402,1,8,1:0:0:0:
292,344,144484,2,0,P|304:300|304:252,1,78.7499975967408,8|4,1:0|0:3,0:0:0:0:
376,192,144810,2,0,P|388:236|388:284,1,78.7499975967408,4|8,0:3|0:3,0:0:0:0:
396,304,145299,6,0,P|440:300|480:304,1,75,0|2,0:0|0:3,0:0:0:0:
488,220,145625,2,0,B|492:172|492:172|468:132|472:56,1,150,0|0,0:0|1:0,0:0:0:0:
396,40,146114,1,8,1:2:0:0:
396,40,146277,1,0,0:0:0:0:
328,88,146440,5,6,1:2:0:0:
132,56,146767,1,10,1:2:0:0:
252,216,147093,2,0,P|256:160|252:120,2,75,2|2|10,1:2|1:2|1:2,0:0:0:0:
240,304,147582,2,0,P|288:288|388:300,1,150,2|0,1:2|1:0,0:0:0:0:
456,244,148071,1,8,0:0:0:0:
432,156,148234,1,2,0:0:0:0:
480,80,148397,2,0,L|404:48,1,75,2|2,1:3|1:2,0:0:0:0:
316,24,148723,2,0,B|336:76|336:76|332:144,1,112.5,10|0,1:2|0:0,0:0:0:0:
304,152,149049,5,2,1:2:0:0:
464,236,149375,1,10,1:2:0:0:
320,344,149701,2,0,L|240:332,1,75,10|8,1:2|0:3,0:0:0:0:
156,348,150027,1,4,0:3:0:0:
68,324,150190,2,0,B|60:292|88:252|88:252|64:216|84:176,1,150,6|6,1:2|1:2,0:0:0:0:
228,72,150843,2,0,B|244:105|220:141|220:141|248:181|240:213,2,150,6|6|6,1:2|1:2|1:2,0:0:0:0:
352,216,151821,5,0,0:0:0:0:
352,216,151984,2,0,P|324:256|292:272,1,75,8|2,1:2|0:3,0:0:0:0:
216,292,152310,2,0,P|180:284|140:284,1,75,2|2,0:0|1:2,0:0:0:0:
116,196,152636,1,10,1:2:0:0:
152,112,152799,2,0,P|204:128|292:80,1,150,2|2,1:2|1:2,0:0:0:0:
360,40,153288,1,10,1:2:0:0:
440,76,153451,2,0,P|472:124|456:216,1,150,2|2,0:2|1:2,0:0:0:0:
400,280,153940,1,8,1:2:0:0:
324,324,154103,6,0,L|240:300,1,75,2|0,1:2|0:0,0:0:0:0:
160,336,154430,1,2,0:0:0:0:
160,336,154593,2,0,L|168:256,1,75,10|2,1:2|0:0,0:0:0:0:
140,172,154919,2,0,B|96:152|96:152|76:112,2,75,2|2|10,1:0|1:0|0:0,0:0:0:0:
228,176,155408,2,0,B|276:152|276:152|308:52,1,150,2|2,0:1|1:0,0:0:0:0:
396,48,155897,1,10,1:0:0:0:
412,136,156060,1,0,1:0:0:0:
412,136,156142,1,0,1:0:0:0:
412,136,156223,2,0,L|440:228,1,75,10|0,1:0|1:0,0:0:0:0:
368,280,156549,2,2,L|346:208,1,75,10|0,1:0|0:0,1:0:0:0:
276,304,156875,5,6,1:2:0:0:
328,112,157201,2,0,P|372:116|416:108,1,75,10|0,1:2|0:0,0:0:0:0:
288,36,157527,1,2,1:2:0:0:
288,36,157690,2,0,P|236:40|200:48,1,75,2|10,1:2|1:2,0:0:0:0:
124,40,158017,2,0,P|104:100|108:196,1,150,2|2,1:2|1:2,0:0:0:0:
132,272,158506,1,8,0:0:0:0:
220,252,158669,1,2,0:0:0:0:
220,252,158750,1,2,0:0:0:0:
220,252,158832,2,0,P|264:240|296:240,1,75,2|2,1:2|1:2,0:0:0:0:
380,292,159158,2,0,L|392:172,1,112.5,10|0,1:2|0:0,0:0:0:0:
404,148,159484,6,0,P|376:120|364:80,1,75,2|0,1:2|0:0,0:0:0:0:
280,112,159810,2,0,P|280:60|288:24,1,75,10|0,1:2|0:0,0:0:0:0:
208,168,160136,1,8,1:2:0:0:
272,232,160299,1,8,0:3:0:0:
352,192,160462,1,4,0:3:0:0:
352,192,160625,2,0,B|396:184|396:184|436:208|436:208|496:200,2,150,6|6|6,1:2|1:2|1:2,0:0:0:0:
192,272,161603,2,0,B|148:264|148:264|108:288|108:288|48:280,1,150,6|6,1:2|1:2,0:0:0:0:
184,120,162256,5,0,0:0:0:0:
184,120,162419,2,0,P|204:160|208:200,1,75,8|2,1:2|0:0,0:0:0:0:
292,236,162745,2,0,P|298:199|316:166,1,75,2|2,0:0|1:2,0:0:0:0:
388,112,163071,1,10,1:2:0:0:
436,188,163234,2,0,B|448:264|448:264|436:344,1,150,2|2,1:2|1:2,0:0:0:0:
348,336,163723,1,10,1:2:0:0:
260,360,163886,2,0,L|176:348,1,75,2|0,0:0|0:0,0:0:0:0:
148,256,164212,2,0,L|222:266,2,75,2|10|2,1:2|1:2|1:2,0:0:0:0:
228,176,164701,5,0,1:0:0:0:
312,208,164864,1,2,1:2:0:0:
384,156,165027,2,0,P|392:108|376:44,1,112.5,8|0,1:2|1:0,0:0:0:0:
352,28,165353,2,0,L|268:40,1,75,8|0,1:2|1:0,0:0:0:0:
228,132,165680,2,0,L|302:121,1,75,8|0,1:2|0:0,0:0:0:0:
171,67,166006,6,0,B|100:77|100:77|63:95|63:95|7:95,2,150,4|10|10,1:2|1:2|1:2,0:0:0:0:
214,145,166821,1,0,1:0:0:0:
161,218,166984,2,0,L|169:295,1,75,8|2,1:2|1:2,0:0:0:0:
106,382,167310,2,0,B|146:367|146:367|186:367,1,75,0|2,0:0|1:2,0:0:0:0:
268,361,167636,1,10,1:2:0:0:
312,284,167799,1,2,1:2:0:0:
400,308,167962,2,0,B|416:272|416:272|416:224,1,75,10|0,1:2|1:0,0:0:0:0:
456,144,168288,1,8,1:2:0:0:
456,144,168451,6,0,B|372:156|372:156|300:144,1,150,2|0,1:2|1:0,0:0:0:0:
304,56,168940,2,0,B|388:44|388:44|460:56,2,150,10|8|10,1:2|1:2|1:2,0:0:0:0:
228,108,169756,2,0,P|200:148|112:108,1,150,6|6,1:2|1:2,0:0:0:0:
284,276,170408,2,0,P|312:236|400:276,2,150,6|6|6,1:2|1:2|1:2,0:0:0:0:
460,192,171386,5,0,1:0:0:0:
460,192,171549,2,0,P|464:144|456:104,1,75,10|0,1:2|1:0,0:0:0:0:
376,52,171875,2,0,P|372:100|380:140,1,75,10|0,1:2|1:0,0:0:0:0:
284,184,172201,2,0,P|288:136|280:96,1,75,10|2,1:2|1:2,0:0:0:0:
200,44,172527,2,0,P|196:92|204:132,1,75,8|0,1:2|1:2,0:0:0:0:
212,228,172853,1,8,1:2:0:0:
212,228,173017,2,0,P|172:272|80:244,1,150,2|0,1:2|1:0,0:0:0:0:
144,172,173506,1,8,1:2:0:0:
144,172,173669,6,0,L|264:264,1,150,2|2,1:2|1:2,0:0:0:0:
300,360,174158,2,0,P|320:324|344:300,1,75,10|0,1:2|1:0,0:0:0:0:
396,200,174484,2,0,P|416:244|420:288,1,75,8|0,1:2|1:0,0:0:0:0:
312,200,174810,1,10,1:2:0:0:
300,112,174973,1,2,1:2:0:0:
388,104,175136,2,0,B|432:104|432:104|472:84,2,75,8|2|8,1:2|1:2|1:2,0:0:0:0:
300,112,175625,1,8,0:3:0:0:
212,112,175788,2,0,B|136:96|136:96|44:108,1,150,4|8,0:3|1:0,0:0:0:0:
68,196,176277,1,8,0:3:0:0:
68,196,176359,1,8,0:3:0:0:
68,196,176440,6,0,B|104:232|104:232|116:280|96:344,1,150,6|10,1:2|1:2,0:0:0:0:
280,356,177093,2,0,P|272:308|272:268,1,75,10|0,1:2|1:0,0:0:0:0:
344,228,177419,2,0,P|344:180|336:144,1,75,10|2,1:2|1:2,0:0:0:0:
284,64,177745,2,0,P|328:72|368:68,1,75,8|0,1:2|1:0,0:0:0:0:
448,76,178071,2,0,P|452:28|464:0,2,75,10|2|8,1:2|1:2|1:2,0:0:0:0:
488,156,178560,1,2,1:2:0:0:
476,244,178723,2,0,P|468:284|456:320,1,75,8|2,1:2|1:2,0:0:0:0:
372,284,179049,5,8,1:2:0:0:
372,284,179212,1,0,1:2:0:0:
288,316,179375,1,10,1:2:0:0:
288,316,179538,1,2,1:2:0:0:
240,200,179701,2,0,P|288:216|312:244,2,75,10|2|10,1:2|1:2|1:2,0:0:0:0:
328,140,180190,2,0,P|392:144|460:84,1,150,2|2,1:2|1:2,0:0:0:0:
184,140,180843,2,0,P|120:144|52:84,2,150,2|2|6,1:2|1:2|1:2,0:0:0:0:
168,328,181821,5,0,1:2:0:0:
168,328,181984,2,0,L|148:236,1,75,10|0,1:2|1:0,0:0:0:0:
256,292,182310,2,0,L|256:216,1,75,10|0,1:2|1:0,0:0:0:0:
344,328,182636,2,0,L|364:236,1,75,10|2,1:2|1:2,0:0:0:0:
388,160,182962,2,0,B|400:120|400:120|432:104,2,75,8|0|8,1:2|1:2|1:2,0:0:0:0:
308,116,183451,2,0,P|224:128|164:92,1,150,2|0,1:2|1:0,0:0:0:0:
116,24,183940,1,8,1:2:0:0:
72,104,184103,1,2,1:2:0:0:
100,192,184267,6,0,P|76:220|64:260,2,75,8|0|10,1:2|1:2|1:2,0:0:0:0:
180,236,184756,1,8,0:3:0:0:
224,160,184919,1,4,0:3:0:0:
148,112,185082,2,0,L|144:68,2,37.5,0|8|8,1:0|1:0|1:0,0:0:0:0:
224,28,185408,1,6,1:2:0:0:
256,192,185489,12,0,188506,0:0:0:0:
