osu file format v14

[General]
AudioFilename: audio.mp3
AudioLeadIn: 0
PreviewTime: 52446
Countdown: 0
SampleSet: Soft
StackLeniency: 0.7
Mode: 0
LetterboxInBreaks: 0
WidescreenStoryboard: 1

[Editor]
DistanceSpacing: 0.9
BeatDivisor: 4
GridSize: 32
TimelineZoom: 2.1

[Metadata]
Title:(please) replay
TitleUnicode:(please) replay
Artist:Limonene
ArtistUnicode:Limonène
Creator:Realazy
Version:(lasse's) insane
Source:
Tags:-[Shady]- Mimilie Suzuhara Lulu Hitsukuya meiikyuu Lasse kamome sano サノカモメ mikanzil 月島春果 evergreen japanese rock
BeatmapID:2661092
BeatmapSetID:1279941

[Difficulty]
HPDrainRate:5
CircleSize:4
OverallDifficulty:8
ApproachRate:9
SliderMultiplier:1.6
SliderTickRate:1

[Events]
//Background and Video events
0,0,"happy birthday.jpg",0,0
//Break Periods
//Storyboard Layer 0 (Background)
//Storyboard Layer 1 (Fail)
//Storyboard Layer 2 (Pass)
//Storyboard Layer 3 (Foreground)
//Storyboard Layer 4 (Overlay)
//Storyboard Sound Samples

[TimingPoints]
-950,326.086956521739,4,2,1,40,1,0
354,-133.333333333333,4,2,1,40,0,0
680,-133.333333333333,4,2,1,40,0,0
2799,-100,4,2,1,40,0,0
3288,-200,4,2,1,40,0,0
3886,-200,4,2,1,5,0,0
3940,-166.666666666667,4,2,1,40,0,0
4538,-200,4,2,1,5,0,0
4593,-142.857142857143,4,2,1,40,0,0
5571,-133.333333333333,4,2,1,50,0,0
7201,-117.647058823529,4,2,1,50,0,0
8180,-133.333333333333,4,2,1,60,0,0
10136,-133.333333333333,4,2,1,50,0,0
10788,-100,4,2,1,80,0,0
11033,-66.6666666666667,4,2,1,30,0,0
11114,-100,4,2,1,80,0,0
11359,-100,4,2,1,5,0,0
11440,-100,4,2,1,80,0,0
13642,-66.6666666666667,4,2,1,30,0,0
13723,-100,4,2,1,80,0,0
13968,-100,4,2,1,5,0,0
14049,-100,4,2,1,80,0,0
16250,-66.6666666666667,4,2,1,30,0,0
16332,-100,4,2,1,80,0,0
16576,-100,4,2,1,5,0,0
16658,-100,4,2,1,80,0,0
18614,-111.111111111111,4,2,1,80,0,0
18859,-66.6666666666667,4,2,1,30,0,0
18940,-111.111111111111,4,2,1,80,0,0
19185,-100,4,2,1,5,0,0
19267,-100,4,2,1,80,0,0
19756,-200,4,2,1,80,0,0
20408,-200,4,2,1,5,0,0
20571,-166.666666666667,4,2,1,50,0,0
21223,-133.333333333333,4,2,1,60,0,0
24076,-133.333333333333,4,2,1,5,0,0
24158,-133.333333333333,4,2,1,60,0,0
30598,-133.333333333333,4,2,1,5,0,0
30680,-133.333333333333,4,2,1,60,0,0
31658,-100,4,2,1,70,0,0
33614,-100,4,2,1,70,0,0
33859,-100,4,2,1,30,0,0
33940,-100,4,2,1,70,0,0
34511,-100,4,2,1,5,0,0
34593,-100,4,2,1,70,0,0
36875,-133.333333333333,4,2,1,70,0,0
37201,-66.6666666666667,4,2,1,70,0,0
37690,-100,4,2,1,70,0,0
38261,-100,4,2,1,5,0,0
38343,-100,4,2,1,70,0,0
39076,-100,4,2,1,5,0,0
39158,-100,4,2,1,70,0,0
39728,-100,4,2,1,5,0,0
39810,-100,4,2,1,70,0,0
42093,-133.333333333333,4,2,1,60,0,0
47147,-100,4,2,1,70,0,0
48696,-100,4,2,1,30,0,0
48777,-100,4,2,1,70,0,0
49919,-100,4,2,1,80,0,0
51875,-200,4,2,1,70,0,0
52038,-200,4,2,1,40,0,0
52120,-200,4,2,1,70,0,0
52528,-86.9565217391304,4,2,1,90,0,1
52772,-86.9565217391304,4,2,1,30,0,1
52853,-86.9565217391304,4,2,1,90,0,1
53098,-66.6666666666667,4,2,1,30,0,1
53180,-86.9565217391304,4,2,1,90,0,1
55381,-66.6666666666667,4,2,1,30,0,1
55462,-86.9565217391304,4,2,1,90,0,1
56277,-86.9565217391304,4,2,1,90,0,1
57582,-66.6666666666667,4,2,1,90,0,1
58071,-86.9565217391304,4,2,1,90,0,1
59131,-86.9565217391304,4,2,1,30,0,1
59212,-86.9565217391304,4,2,1,90,0,1
60435,-86.9565217391304,4,2,1,30,0,1
60517,-86.9565217391304,4,2,1,90,0,1
61739,-66.6666666666667,4,2,1,30,0,1
61821,-86.9565217391304,4,2,1,90,0,1
62962,-86.9565217391304,4,2,1,90,0,1
63207,-66.6666666666667,4,2,1,30,0,1
63288,-86.9565217391304,4,2,1,90,0,1
63533,-66.6666666666667,4,2,1,30,0,1
63614,-86.9565217391304,4,2,1,90,0,1
65815,-66.6666666666667,4,2,1,30,0,1
65897,-86.9565217391304,4,2,1,90,0,1
66223,-86.9565217391304,4,2,1,90,0,1
66712,-86.9565217391304,4,2,1,90,0,1
68017,-66.6666666666667,4,2,1,90,0,1
68506,-86.9565217391304,4,2,1,90,0,1
69565,-66.6666666666667,4,2,1,30,0,1
69647,-86.9565217391304,4,2,1,90,0,1
70218,-66.6666666666667,4,2,1,30,0,1
70299,-86.9565217391304,4,2,1,90,0,1
70870,-66.6666666666667,4,2,1,30,0,1
70951,-86.9565217391304,4,2,1,90,0,1
72093,-133.333333333333,4,2,1,60,0,0
80245,-133.333333333333,4,2,1,60,0,0
80652,-133.333333333333,4,2,1,5,0,0
80734,-133.333333333333,4,2,1,60,0,0
82527,-100,4,2,1,70,0,0
85381,-100,4,2,1,5,0,0
85462,-100,4,2,1,70,0,0
87582,-100,4,2,1,60,0,0
87826,-100,4,2,1,30,0,0
87908,-100,4,2,1,60,0,0
88723,-90.9090909090909,4,2,1,60,0,0
90353,-100,4,2,1,70,0,0
92228,-100,4,2,1,60,0,0
92881,-100,4,2,1,5,0,0
92963,-86.9565217391304,4,2,1,90,0,1
93207,-86.9565217391304,4,2,1,30,0,1
93288,-86.9565217391304,4,2,1,90,0,1
93533,-86.9565217391304,4,2,1,30,0,1
93614,-86.9565217391304,4,2,1,90,0,1
95815,-86.9565217391304,4,2,1,30,0,1
95897,-86.9565217391304,4,2,1,90,0,1
96142,-86.9565217391304,4,2,1,5,0,1
96223,-86.9565217391304,4,2,1,90,0,1
96712,-86.9565217391304,4,2,1,90,0,1
98017,-66.6666666666667,4,2,1,90,0,1
98506,-86.9565217391304,4,2,1,90,0,1
99565,-86.9565217391304,4,2,1,30,0,1
99647,-86.9565217391304,4,2,1,90,0,1
100870,-86.9565217391304,4,2,1,30,0,1
100952,-86.9565217391304,4,2,1,90,0,1
102174,-86.9565217391304,4,2,1,30,0,1
102256,-86.9565217391304,4,2,1,90,0,1
103642,-86.9565217391304,4,2,1,30,0,1
103723,-86.9565217391304,4,2,1,90,0,1
103968,-86.9565217391304,4,2,1,30,0,1
104049,-86.9565217391304,4,2,1,90,0,1
104864,-86.9565217391304,4,2,1,90,0,1
106250,-86.9565217391304,4,2,1,30,0,1
106332,-86.9565217391304,4,2,1,90,0,1
106658,-86.9565217391304,4,2,1,90,0,1
107147,-86.9565217391304,4,2,1,90,0,1
108451,-66.6666666666667,4,2,1,90,0,1
108940,-86.9565217391304,4,2,1,90,0,1
110000,-86.9565217391304,4,2,1,30,0,1
110082,-86.9565217391304,4,2,1,90,0,1
110653,-86.9565217391304,4,2,1,30,0,1
110734,-86.9565217391304,4,2,1,90,0,1
112528,-100,4,2,1,70,0,0
115381,-100,4,2,1,30,0,0
115462,-100,4,2,1,70,0,0
117989,-86.9565217391304,4,2,1,30,0,0
118071,-100,4,2,1,70,0,0
120353,-133.333333333333,4,2,1,70,0,0
124919,-100,4,2,1,70,0,0
125571,-80,4,2,1,90,0,1
125816,-80,4,2,1,30,0,1
125897,-80,4,2,1,90,0,1
126142,-80,4,2,1,30,0,1
126223,-80,4,2,1,90,0,1
128424,-80,4,2,1,30,0,1
128506,-80,4,2,1,90,0,1
128750,-80,4,2,1,5,0,1
128832,-80,4,2,1,90,0,1
129321,-80,4,2,1,90,0,1
130625,-62.5,4,2,1,90,0,1
131114,-80,4,2,1,90,0,1
132175,-80,4,2,1,30,0,1
132256,-80,4,2,1,90,0,1
133479,-80,4,2,1,30,0,1
133561,-80,4,2,1,90,0,1
134783,-80,4,2,1,30,0,1
134864,-80,4,2,1,90,0,1
135925,-80,4,2,1,5,0,1
136006,-80,4,2,1,90,0,1
136251,-80,4,2,1,30,0,1
136332,-80,4,2,1,90,0,1
136576,-80,4,2,1,30,0,1
136658,-80,4,2,1,90,0,1
137392,-80,4,2,1,5,0,1
137473,-80,4,2,1,90,0,1
138859,-80,4,2,1,30,0,1
138940,-80,4,2,1,90,0,1
139186,-80,4,2,1,5,0,1
139267,-80,4,2,1,90,0,1
139756,-80,4,2,1,90,0,1
141060,-62.5,4,2,1,90,0,1
141549,-80,4,2,1,90,0,1
142609,-80,4,2,1,30,0,1
142691,-80,4,2,1,90,0,1
143262,-80,4,2,1,30,0,1
143343,-80,4,2,1,90,0,1
143913,-80,4,2,1,30,0,1
143995,-80,4,2,1,90,0,1
145136,-100,4,2,1,60,0,0
145951,-66.6666666666667,4,2,1,60,0,0
146359,-66.6666666666667,4,2,1,30,0,0
146440,-100,4,2,1,70,0,0
146685,-66.6666666666667,4,2,1,30,0,0
146767,-100,4,2,1,70,0,0
149294,-66.6666666666667,4,2,1,30,0,0
149375,-100,4,2,1,70,0,0
149620,-100,4,2,1,5,0,0
149701,-100,4,2,1,70,0,0
150190,-80,4,2,1,70,0,0
151495,-100,4,2,1,70,0,0
154348,-66.6666666666667,4,2,1,30,0,0
154430,-100,4,2,1,70,0,0
154756,-83.3333333333333,4,2,1,70,0,0
155652,-66.6666666666667,4,2,1,30,0,0
155734,-83.3333333333333,4,2,1,70,0,0
156549,-66.6666666666667,4,2,1,70,0,0
156794,-66.6666666666667,4,2,1,30,0,0
156875,-100,4,2,1,70,0,0
157120,-66.6666666666667,4,2,1,30,0,0
157201,-100,4,2,1,70,0,0
158261,-100,4,2,1,5,0,0
158343,-100,4,2,1,70,0,0
159728,-66.6666666666667,4,2,1,30,0,0
159810,-100,4,2,1,70,0,0
160055,-100,4,2,1,30,0,0
160136,-100,4,2,1,70,0,0
160625,-80,4,2,1,70,0,0
161930,-100,4,2,1,70,0,0
163478,-100,4,2,1,30,0,0
163560,-100,4,2,1,70,0,0
164131,-100,4,2,1,5,0,0
164212,-100,4,2,1,70,0,0
165924,-100,4,2,1,30,0,0
166006,-86.9565217391304,4,2,1,80,0,0
166250,-66.6666666666667,4,2,1,30,0,0
166332,-86.9565217391304,4,2,1,80,0,0
166576,-86.9565217391304,4,2,1,30,0,0
166658,-86.9565217391304,4,2,1,80,0,0
167392,-86.9565217391304,4,2,1,30,0,0
167473,-86.9565217391304,4,2,1,80,0,0
168696,-86.9565217391304,4,2,1,30,0,0
168777,-86.9565217391304,4,2,1,80,0,0
169756,-71.4285714285714,4,2,1,80,0,0
171060,-86.9565217391304,4,2,1,80,0,0
172609,-86.9565217391304,4,2,1,30,0,0
172690,-86.9565217391304,4,2,1,80,0,0
173261,-86.9565217391304,4,2,1,30,0,0
173343,-86.9565217391304,4,2,1,80,0,0
173913,-86.9565217391304,4,2,1,30,0,0
173995,-86.9565217391304,4,2,1,80,0,0
174402,-86.9565217391304,4,2,1,30,0,0
174484,-86.9565217391304,4,2,1,80,0,0
176685,-66.6666666666667,4,2,1,30,0,0
176767,-86.9565217391304,4,2,1,80,0,0
177011,-86.9565217391304,4,2,1,5,0,0
177093,-86.9565217391304,4,2,1,80,0,0
179131,-86.9565217391304,4,2,1,30,0,0
179212,-86.9565217391304,4,2,1,80,0,0
180190,-71.4285714285714,4,2,1,80,0,0
181495,-86.9565217391304,4,2,1,80,0,0
181739,-86.9565217391304,4,2,1,30,0,0
181821,-86.9565217391304,4,2,1,80,0,0
183044,-86.9565217391304,4,2,1,30,0,0
183125,-86.9565217391304,4,2,1,80,0,0
183696,-86.9565217391304,4,2,1,30,0,0
183777,-86.9565217391304,4,2,1,80,0,0
184348,-86.9565217391304,4,2,1,30,0,0
184430,-86.9565217391304,4,2,1,80,0,0
185408,-200,4,2,1,80,0,0
185489,-200,4,2,1,5,0,0
188506,-200,4,2,1,5,0,0

[Colours]
Combo1 : 227,121,242
Combo2 : 125,183,230
Combo3 : 245,234,154
Combo4 : 94,112,236

[HitObjects]
5,145,190,6,0,L|3:173,3,26.6666666666667,2|2|2|2,0:0|0:0|0:0|0:0,0:0:0:0:
5,145,680,2,0,P|100:186|129:319,1,240.000009155274,0|0,1:0|1:0,0:0:0:0:
286,166,1658,2,0,P|227:170|177:125,1,120.000004577637,2|0,0:0|1:0,0:0:0:0:
269,362,2310,2,0,P|295:308|356:285,1,120.000004577637,2|0,0:0|1:0,0:0:0:0:
431,306,2799,2,0,L|442:343,3,26.6666666666667,2|2|2|2,0:0|0:0|0:0|0:0,0:0:0:0:
431,306,3288,6,0,P|454:262|446:222,1,80,0|0,0:0|0:0,0:0:0:0:
512,146,3940,2,0,B|504:165|504:165|415:149,1,95.9999970703126,2|0,1:2|0:0,0:0:0:0:
320,113,4593,2,0,L|313:53,1,55.9999982910157,2|0,1:2|0:0,0:0:0:0:
235,0,4919,5,8,0:3:0:0:
179,75,5082,1,8,0:3:0:0:
192,156,5245,1,4,0:3:0:0:
209,167,5408,1,4,0:3:0:0:
150,234,5571,6,0,L|74:241,1,60.0000022888184,4|0,0:1|0:0,0:0:0:0:
53,312,5897,2,0,P|129:352|193:296,1,180.000006866455,0|0,1:0|0:0,0:0:0:0:
176,212,6549,2,0,L|49:223,1,120.000004577637,0|0,1:0|0:0,0:0:0:0:
56,223,7201,5,0,1:0:0:0:
110,135,7364,1,2,0:3:0:0:
110,135,7446,1,2,0:3:0:0:
110,135,7527,2,0,P|108:100|100:46,1,68.0000012969971,8|8,1:2|0:3,0:0:0:0:
242,0,7853,2,0,P|237:33|236:67,1,68.0000012969971,8|4,0:3|0:3,0:0:0:0:
295,177,8180,5,10,1:2:0:0:
420,136,8343,1,10,1:2:0:0:
426,122,8669,5,10,1:2:0:0:
482,251,8832,1,10,1:2:0:0:
496,259,9158,5,10,1:2:0:0:
350,315,9321,1,10,1:2:0:0:
345,336,9647,5,10,1:2:0:0:
328,171,9810,1,10,1:2:0:0:
444,198,10055,5,8,0:3:0:0:
453,206,10136,2,0,P|467:171|462:127,1,60.0000022888184,2|0,1:2|3:0,0:0:0:0:
483,143,10381,1,0,3:0:0:0:
492,135,10462,2,0,P|489:93|477:70,1,60.0000022888184,8|8,3:2|3:0,0:0:0:0:
342,0,10788,6,0,B|320:26|320:26|331:135,1,120,6|0,1:2|0:0,0:0:0:0:
311,184,11114,2,0,P|350:188|386:157,1,80,10|0,1:2|0:0,0:0:0:0:
240,58,11440,1,10,1:2:0:0:
219,188,11603,1,0,1:0:0:0:
243,48,11767,1,10,1:2:0:0:
126,111,11930,6,0,P|71:111|46:95,1,80,2|8,1:2|1:2,0:0:0:0:
227,199,12256,2,0,P|254:246|253:276,1,80,2|10,1:2|1:2,0:0:0:0:
223,364,12582,1,0,1:0:0:0:
223,364,12663,1,0,1:0:0:0:
223,364,12745,1,10,1:2:0:0:
155,292,12908,1,0,1:0:0:0:
253,270,13071,1,10,1:2:0:0:
321,342,13234,1,0,1:0:0:0:
450,311,13397,6,0,P|471:256|452:200,1,120,10|0,1:2|0:0,0:0:0:0:
392,155,13723,2,0,L|283:172,1,80,10|0,1:2|0:0,0:0:0:0:
193,138,14049,1,10,1:2:0:0:
303,179,14212,2,0,L|382:166,1,80,2|8,1:2|1:2,0:0:0:0:
269,11,14538,6,0,P|274:50|256:85,1,80,2|8,1:2|0:0,0:0:0:0:
121,176,14864,2,0,L|42:163,1,80,2|8,1:2|1:2,0:0:0:0:
197,284,15190,1,0,1:2:0:0:
197,284,15272,1,0,1:0:0:0:
197,284,15353,2,0,P|215:320|210:359,1,80,10|0,1:2|1:0,0:0:0:0:
89,279,15680,1,10,1:2:0:0:
121,176,15843,1,0,1:0:0:0:
197,284,16006,6,0,P|262:292|298:251,1,120,10|0,1:2|0:0,0:0:0:0:
317,184,16332,2,0,L|295:99,1,80,10|0,1:2|0:0,0:0:0:0:
477,127,16658,1,10,1:2:0:0:
390,75,16821,1,0,1:0:0:0:
469,29,16984,1,10,1:2:0:0:
492,143,17147,6,0,P|488:177|474:223,1,80,2|8,1:2|1:2,0:0:0:0:
398,341,17473,2,0,L|376:256,1,80,2|10,1:2|1:2,0:0:0:0:
287,172,17799,1,2,1:2:0:0:
287,172,17881,1,0,1:0:0:0:
287,172,17962,1,8,1:2:0:0:
193,210,18125,1,0,1:0:0:0:
284,266,18288,1,10,1:2:0:0:
196,114,18451,1,0,1:0:0:0:
86,197,18614,6,0,P|69:142|100:79,1,107.999996704102,10|0,1:2|0:0,0:0:0:0:
129,38,18940,2,0,B|141:46|141:46|206:27,1,71.9999978027344,10|0,1:2|0:0,0:0:0:0:
312,34,19267,1,10,1:2:0:0:
196,114,19430,1,8,3:0:0:0:
303,139,19593,1,4,3:0:0:0:
232,204,19756,6,0,B|221:226|221:226|260:358,1,160,6|0,1:2|0:0,0:0:0:0:
356,384,20571,6,0,L|362:321,1,47.9999985351563,8|0,1:3|3:0,0:0:0:0:
368,324,20815,1,8,0:0:0:0:
368,324,20897,2,0,P|389:335|421:324,1,47.9999985351563,8|0,0:0|1:0,0:0:0:0:
512,239,21223,6,0,B|503:209|503:209|508:177|508:177|488:102,1,120.000004577637,6|8,1:2|0:0,0:0:0:0:
377,105,21712,1,2,0:0:0:0:
423,185,21875,2,0,P|401:199|353:193,1,60.0000022888184,2|0,1:2|1:0,0:0:0:0:
377,105,22201,1,10,0:0:0:0:
426,33,22364,2,0,P|404:19|356:25,1,60.0000022888184,2|0,1:2|0:0,0:0:0:0:
287,81,22690,2,0,P|282:110|292:138,1,60.0000022888184,0|8,1:0|0:0,0:0:0:0:
377,219,23017,5,2,0:0:0:0:
377,219,23098,1,2,0:3:0:0:
377,219,23180,1,0,1:2:0:0:
299,264,23343,1,2,1:2:0:0:
379,304,23506,1,10,0:0:0:0:
312,357,23669,1,2,0:0:0:0:
217,316,23832,6,0,P|170:303|87:299,1,120.000004577637,2|10,1:2|0:0,0:0:0:0:
0,225,24321,2,0,L|59:212,1,60.0000022888184,2|0,0:0|1:0,0:0:0:0:
158,193,24647,1,2,1:2:0:0:
158,193,24810,1,10,0:0:0:0:
75,128,24973,2,0,P|65:101|73:55,1,60.0000022888184,2|0,1:2|0:0,0:0:0:0:
199,102,25299,2,0,P|201:72|191:44,1,60.0000022888184,2|8,1:2|0:0,0:0:0:0:
285,169,25625,5,2,0:3:0:0:
285,169,25707,1,2,0:3:0:0:
285,169,25788,2,0,P|283:198|293:226,1,60.0000022888184,2|0,1:2|0:0,0:0:0:0:
418,207,26114,2,0,P|420:178|410:150,1,60.0000022888184,10|0,0:0|0:0,0:0:0:0:
358,304,26440,6,0,P|420:284|481:283,1,120.000004577637,2|8,1:2|0:0,0:0:0:0:
474,282,26930,1,2,0:0:0:0:
403,207,27093,2,0,P|391:179|393:149,1,60.0000022888184,2|0,1:2|1:0,0:0:0:0:
392,150,27419,1,10,0:0:0:0:
446,82,27582,2,0,L|512:90,1,60.0000022888184,2|0,1:2|0:0,0:0:0:0:
382,13,27908,2,0,L|316:5,1,60.0000022888184,0|8,1:0|0:0,0:0:0:0:
252,95,28234,5,2,0:3:0:0:
252,95,28315,1,2,0:3:0:0:
252,95,28397,2,0,L|180:102,1,60.0000022888184,2|0,1:2|1:0,0:0:0:0:
332,142,28723,2,0,L|391:149,1,60.0000022888184,10|0,0:0|0:0,0:0:0:0:
275,243,29049,2,0,P|292:307|274:381,1,120.000004577637,2|8,1:2|0:0,0:0:0:0:
283,359,29538,1,2,0:0:0:0:
183,305,29701,2,0,P|146:291|44:294,1,120.000004577637,2|8,1:2|0:0,0:0:0:0:
153,207,30190,5,2,1:2:0:0:
77,150,30353,2,0,B|62:135|62:135|57:90|91:22,1,120.000004577637,2|10,1:2|0:0,0:0:0:0:
203,0,30843,5,8,0:0:0:0:
203,0,30924,1,8,0:0:0:0:
203,0,31006,1,0,1:0:0:0:
288,66,31169,5,0,1:0:0:0:
299,64,31250,1,0,1:0:0:0:
322,59,31332,5,8,1:2:0:0:
333,57,31413,1,8,1:2:0:0:
357,51,31495,5,0,1:0:0:0:
460,0,31658,6,0,P|495:35|473:153,1,160,4|8,1:2|0:0,0:0:0:0:
372,209,32147,1,2,0:0:0:0:
436,282,32310,2,0,P|475:285|513:299,1,80,2|0,1:2|1:0,0:0:0:0:
372,378,32636,1,10,0:2:0:0:
290,326,32799,2,0,P|277:289|289:221,1,80,2|0,1:2|0:0,0:0:0:0:
350,120,33125,6,0,L|401:113,1,40,2|0,0:1|0:0,0:0:0:0:
344,110,33288,2,0,L|391:90,1,40,10|0,0:0|0:0,0:0:0:0:
335,101,33451,2,0,L|375:69,1,40,2|0,0:1|0:0,0:0:0:0:
280,36,33614,6,0,P|231:21|175:75,1,120,2|0,1:2|0:0,0:0:0:0:
160,129,33940,2,0,L|182:223,1,80,10|0,0:0|0:0,0:0:0:0:
138,334,34267,2,0,P|93:371|10:305,1,160,2|10,1:2|0:0,0:0:0:0:
99,221,34756,2,0,L|204:201,1,80,2|0,0:0|1:0,0:0:0:0:
285,187,35082,1,2,1:2:0:0:
285,187,35163,1,0,1:0:0:0:
285,187,35245,1,10,0:2:0:0:
180,224,35408,2,0,L|101:238,1,80,2|0,1:2|0:0,0:0:0:0:
11,171,35734,6,0,P|5:153|5:133,1,40,2|0,0:1|0:0,0:0:0:0:
25,165,35897,2,0,P|18:146|18:126,1,40,10|0,0:1|0:0,0:0:0:0:
90,60,36060,5,2,1:0:0:0:
90,60,36142,1,0,1:0:0:0:
90,60,36223,2,0,L|129:66,1,40,2|0,1:0|0:0,0:0:0:0:
152,96,36386,2,0,L|191:102,1,40,2|0,1:0|0:0,0:0:0:0:
281,137,36549,6,0,L|320:131,1,40,10|0,0:1|0:0,0:0:0:0:
343,101,36712,2,0,L|382:95,1,40,2|0,0:1|0:0,0:0:0:0:
442,37,36875,5,0,1:0:0:0:
442,37,37201,2,2,B|400:88|444:152|504:111|522:207|475:252,1,240.000009155274,10|0,1:0|1:0,1:0:0:0:
436,312,37690,1,0,1:0:0:0:
356,314,37853,1,10,0:2:0:0:
293,266,38017,2,0,L|273:165,1,80,2|0,1:2|0:0,0:0:0:0:
210,102,38343,5,2,0:0:0:0:
169,174,38506,1,10,0:0:0:0:
90,134,38669,1,2,0:0:0:0:
90,134,38750,1,2,0:0:0:0:
90,134,38832,2,0,P|80:95|95:44,1,80,2|0,1:2|0:0,0:0:0:0:
183,179,39158,2,0,P|198:216|192:257,1,80,10|0,0:0|0:0,0:0:0:0:
118,326,39484,6,0,B|90:301|27:317|27:317|51:348|96:345,1,160,2|10,1:2|0:0,0:0:0:0:
217,308,39973,2,0,P|217:258|244:213,1,80,2|0,0:0|1:0,0:0:0:0:
292,186,40299,1,2,1:2:0:0:
397,282,40462,2,0,P|397:232|370:187,1,80,10|0,0:0|0:0,0:0:0:0:
272,109,40788,6,0,B|243:116|223:142|223:142|167:155|125:79,1,160,2|8,0:0|0:0,0:0:0:0:
90,22,41277,1,2,0:3:0:0:
90,22,41359,1,2,0:3:0:0:
90,22,41440,1,0,1:0:0:0:
19,120,41603,1,0,1:0:0:0:
19,120,41685,1,0,1:0:0:0:
19,120,41767,1,8,1:2:0:0:
138,101,41930,1,8,0:3:0:0:
52,209,42093,5,2,1:2:0:0:
67,219,42419,2,0,L|208:196,1,120.000004577637,10|2,0:0|1:2,0:0:0:0:
258,227,42908,1,2,1:2:0:0:
201,280,43071,1,10,0:0:0:0:
279,354,43234,2,0,P|318:370|395:323,1,120.000004577637,2|2,1:2|1:2,0:0:0:0:
433,272,43723,2,0,P|418:239|417:196,1,60.0000022888184,10|2,0:0|0:3,0:0:0:0:
418,204,43968,1,2,0:3:0:0:
420,192,44049,2,0,P|433:165|437:135,1,60.0000022888184,0|0,1:0|1:0,0:0:0:0:
286,67,44375,6,0,P|334:78|347:158,2,120.000004577637,10|2|8,0:0|1:2|0:0,0:0:0:0:
214,97,45190,1,2,0:0:0:0:
197,173,45353,1,2,1:2:0:0:
126,207,45517,1,0,1:0:0:0:
48,198,45680,1,10,0:0:0:0:
1,134,45843,2,0,B|-16:100|-16:100|11:22,1,120.000004577637,2|2,1:2|1:2,0:0:0:0:
131,84,46332,2,0,P|161:95|203:79,1,60.0000022888184,10|2,0:0|0:3,0:0:0:0:
187,89,46576,1,2,0:3:0:0:
187,89,46658,1,0,1:0:0:0:
298,30,46821,5,10,0:0:0:0:
282,161,46984,1,10,0:0:0:0:
389,91,47147,6,0,P|448:86|518:165,1,160,6|0,1:2|0:0,0:0:0:0:
454,250,47636,2,0,L|353:260,1,80,10|2,0:0|0:3,0:0:0:0:
374,257,47881,1,2,0:3:0:0:
374,257,47962,1,2,0:0:0:0:
342,339,48125,1,0,1:0:0:0:
254,343,48288,1,8,0:0:0:0:
203,249,48451,6,0,P|209:194|219:109,1,120,2|0,0:0|0:0,0:0:0:0:
217,112,48777,1,2,1:2:0:0:
292,190,48940,2,0,P|331:188|369:172,1,80,10|0,0:0|0:0,0:0:0:0:
475,99,49267,5,2,1:2:0:0:
378,70,49430,1,2,1:2:0:0:
463,195,49593,1,8,0:0:0:0:
500,95,49756,5,0,1:0:0:0:
500,95,49837,1,0,1:0:0:0:
500,95,49919,1,10,1:2:0:0:
368,173,50082,1,10,1:2:0:0:
377,188,50408,5,10,1:2:0:0:
239,118,50571,1,10,1:2:0:0:
256,106,50897,5,10,1:2:0:0:
122,174,51060,1,10,1:2:0:0:
134,186,51386,5,10,1:2:0:0:
0,129,51549,1,10,1:2:0:0:
45,65,51875,6,0,L|102:55,1,40,0|0,1:0|0:0,0:0:0:0:
95,62,52120,1,8,0:0:0:0:
105,68,52201,1,8,0:0:0:0:
173,11,52364,1,0,1:0:0:0:
245,112,52528,6,0,P|228:177|249:242,1,138.000002632141,6|0,1:2|0:0,0:0:0:0:
306,293,52853,2,0,B|320:277|320:277|459:300,1,138.000002632141,10|0,1:2|0:0,0:0:0:0:
452,301,53180,1,2,1:2:0:0:
511,219,53343,1,2,1:2:0:0:
503,114,53506,1,10,1:2:0:0:
410,69,53669,6,0,B|406:125|364:137|364:137|234:89,1,184.000003509522,2|0,1:2|1:0,0:0:0:0:
227,32,54158,1,8,0:0:0:0:
211,163,54321,1,2,0:0:0:0:
211,163,54402,1,2,0:3:0:0:
211,163,54484,1,2,1:3:0:0:
114,85,54647,1,2,1:2:0:0:
227,32,54810,1,10,1:2:0:0:
211,163,54973,1,2,1:2:0:0:
75,201,55136,6,0,B|45:209|45:209|20:260|57:313,1,138.000002632141,2|0,1:2|0:0,0:0:0:0:
113,362,55462,2,0,P|150:341|215:333,1,92.0000017547608,10|0,1:2|0:0,0:0:0:0:
351,358,55788,1,10,1:2:0:0:
208,316,55951,1,8,0:3:0:0:
329,279,56114,1,4,0:3:0:0:
217,226,56277,6,0,L|203:122,1,92.0000017547608,6|0,1:2|0:0,0:0:0:0:
201,219,56603,2,0,L|188:127,1,92.0000017547608,6|0,1:2|0:0,0:0:0:0:
362,190,56930,6,0,L|376:86,1,92.0000017547608,6|0,1:2|0:0,0:0:0:0:
377,183,57256,2,0,L|389:91,1,92.0000017547608,6|0,1:2|0:0,0:0:0:0:
259,31,57582,6,0,B|221:98|221:98|113:116|77:18,1,240.000009155274,6|0,1:2|1:0,0:0:0:0:
232,149,58071,2,0,P|248:181|234:252,1,92.0000017547608,8|2,1:2|0:3,0:0:0:0:
243,235,58315,1,2,0:3:0:0:
243,235,58397,1,2,0:0:0:0:
174,319,58560,1,2,1:2:0:0:
259,384,58723,1,10,1:2:0:0:
341,313,58886,6,0,P|396:299|492:324,1,138.000002632141,2|0,1:2|0:0,0:0:0:0:
490,328,59212,1,2,1:2:0:0:
408,260,59375,1,10,1:2:0:0:
503,160,59538,2,0,P|520:100|510:69,1,92.0000017547608,2|0,0:2|1:0,0:0:0:0:
381,71,59864,2,0,P|362:30|322:-4,1,92.0000017547608,2|8,1:2|1:2,0:0:0:0:
251,90,60190,2,0,P|179:95|153:185,1,138.000002632141,2|0,1:2|0:0,0:0:0:0:
149,163,60517,1,2,1:2:0:0:
82,77,60680,1,10,1:2:0:0:
24,138,60843,6,0,L|10:197,1,46.0000008773804,2|0,0:0|0:0,0:0:0:0:
22,195,61006,2,0,L|8:254,1,46.0000008773804,2|0,1:0|0:0,0:0:0:0:
4,302,61169,2,0,L|18:243,1,46.0000008773804,2|0,1:0|0:0,0:0:0:0:
26,254,61332,2,0,L|40:195,1,46.0000008773804,10|0,0:0|0:0,0:0:0:0:
122,343,61495,6,0,B|179:327|216:371|216:371|261:354,1,138.000002632141,2|0,0:1|0:0,0:0:0:0:
262,367,61821,1,2,1:0:0:0:
288,270,61984,2,0,L|304:163,1,92.0000017547608,10|0,1:0|1:0,0:0:0:0:
424,103,62310,2,0,L|442:209,1,92.0000017547608,10|0,1:0|1:0,0:0:0:0:
234,32,62636,2,0,L|216:138,1,92.0000017547608,10|0,1:0|0:0,0:0:0:0:
134,253,62962,6,0,B|104:212|36:229|36:229|84:263,1,138.000002632141,6|0,1:2|0:0,0:0:0:0:
140,273,63288,2,0,L|288:254,1,138.000002632141,10|0,1:2|0:0,0:0:0:0:
290,268,63614,1,2,1:2:0:0:
375,198,63777,1,2,1:2:0:0:
293,123,63940,1,10,1:2:0:0:
370,27,64103,6,0,P|431:19|481:130,1,184.000003509522,2|0,1:2|1:0,0:0:0:0:
512,188,64593,1,8,0:0:0:0:
383,205,64756,1,2,0:0:0:0:
383,205,64837,1,2,0:0:0:0:
383,205,64919,1,2,1:2:0:0:
462,262,65082,1,2,1:2:0:0:
333,279,65245,1,10,1:2:0:0:
412,336,65408,1,2,0:0:0:0:
288,373,65571,6,0,B|269:359|269:359|155:347,1,138.000002632141,2|0,1:2|0:0,0:0:0:0:
86,384,65897,2,0,P|77:336|106:288,1,92.0000017547608,10|0,1:2|0:0,0:0:0:0:
193,211,66223,1,8,1:2:0:0:
233,320,66386,1,8,0:3:0:0:
188,195,66549,1,4,0:3:0:0:
318,254,66712,6,0,P|403:243|423:216,1,92.0000017547608,6|0,1:2|0:0,0:0:0:0:
318,277,67038,2,0,P|403:266|423:239,1,92.0000017547608,6|0,1:2|0:0,0:0:0:0:
228,339,67364,6,0,P|143:328|123:301,1,92.0000017547608,6|0,1:2|0:0,0:0:0:0:
228,362,67690,2,0,P|143:351|123:324,1,92.0000017547608,6|0,1:2|0:0,0:0:0:0:
53,197,68017,6,0,B|125:155|83:40|83:40|42:61|42:108,1,240.000009155274,6|0,1:2|1:0,0:0:0:0:
150,211,68506,2,0,B|177:219|196:217|196:217|220:208|235:190,1,92.0000017547608,8|2,1:2|0:0,0:0:0:0:
233,192,68750,1,2,0:0:0:0:
233,192,68832,1,2,0:0:0:0:
280,91,68995,1,2,1:2:0:0:
340,219,69158,1,10,1:2:0:0:
438,133,69321,6,0,B|404:76|454:20|454:20|467:47,1,138.000002632141,2|0,1:2|0:0,0:0:0:0:
468,45,69647,1,2,1:2:0:0:
376,87,69810,1,10,1:2:0:0:
320,24,69973,2,0,P|263:13|205:69,1,138.000002632141,2|0,0:0|0:0,0:0:0:0:
205,79,70299,5,2,1:2:0:0:
283,165,70462,1,10,1:2:0:0:
220,253,70625,2,0,B|185:274|185:274|137:254|91:246,1,138.000002632141,2|0,1:2|0:0,0:0:0:0:
26,285,70951,2,0,P|15:235|34:193,1,92.0000017547608,2|8,0:0|1:2,0:0:0:0:
108,107,71277,5,0,1:0:0:0:
108,107,71359,1,0,1:0:0:0:
108,107,71440,1,8,1:2:0:0:
170,157,71603,1,8,0:3:0:0:
237,118,71767,1,8,0:3:0:0:
237,118,72093,6,0,B|214:150|214:150|238:232,1,120.000004577637,6|8,1:2|0:0,0:0:0:0:
328,297,72582,1,2,0:0:0:0:
262,356,72745,2,0,L|188:348,1,60.0000022888184,2|0,1:2|1:0,0:0:0:0:
328,297,73071,1,10,0:0:0:0:
406,360,73234,2,0,P|441:361|473:338,1,60.0000022888184,2|0,1:2|0:0,0:0:0:0:
512,263,73560,2,0,L|501:203,1,60.0000022888184,0|8,1:0|0:0,0:0:0:0:
419,116,73886,5,8,0:0:0:0:
419,116,73968,1,8,0:0:0:0:
419,116,74049,2,0,P|420:158|402:183,1,60.0000022888184,2|0,1:2|1:0,0:0:0:0:
311,238,74375,2,0,P|299:210|303:181,1,60.0000022888184,10|0,0:0|0:0,0:0:0:0:
192,85,74701,6,0,P|248:92|284:47,1,120.000004577637,2|10,1:2|0:0,0:0:0:0:
178,166,75190,2,0,P|168:202|173:237,1,60.0000022888184,2|0,0:0|1:0,0:0:0:0:
238,303,75517,2,0,L|310:312,1,60.0000022888184,0|8,1:0|0:0,0:0:0:0:
159,365,75843,2,0,L|87:374,1,60.0000022888184,2|0,1:2|0:0,0:0:0:0:
4,316,76169,2,0,P|3:286|12:257,1,60.0000022888184,2|8,1:2|0:0,0:0:0:0:
72,156,76495,5,0,1:0:0:0:
72,156,76576,1,0,1:0:0:0:
72,156,76658,2,0,L|140:147,1,60.0000022888184,2|0,1:2|1:0,0:0:0:0:
197,258,76984,2,0,P|165:250|129:249,1,60.0000022888184,10|0,1:2|0:0,0:0:0:0:
287,150,77310,2,0,P|272:207|298:260,1,120.000004577637,2|8,1:2|0:0,0:0:0:0:
360,308,77799,1,2,0:0:0:0:
288,338,77962,1,2,1:2:0:0:
298,260,78125,1,0,0:0:0:0:
360,308,78288,1,10,0:0:0:0:
433,332,78451,2,0,P|464:332|496:314,1,60.0000022888184,2|0,1:2|0:0,0:0:0:0:
398,236,78777,2,0,P|417:204|418:174,1,60.0000022888184,2|8,1:2|0:0,0:0:0:0:
359,92,79103,5,8,0:0:0:0:
359,92,79185,1,8,0:0:0:0:
359,92,79267,2,0,L|296:84,1,60.0000022888184,2|0,1:2|0:0,0:0:0:0:
213,180,79593,2,0,P|249:168|279:165,1,60.0000022888184,10|0,0:0|0:0,0:0:0:0:
162,33,79919,6,0,P|155:100|110:122,1,120.000004577637,2|10,1:2|0:0,0:0:0:0:
27,195,80408,2,0,L|13:125,1,60.0000022888184,2|0,0:0|0:0,0:0:0:0:
128,218,80734,1,2,1:2:0:0:
62,277,80897,2,0,L|-16:292,1,60.0000022888184,10|0,0:0|1:0,0:0:0:0:
124,351,81223,6,0,P|178:363|251:320,1,120.000004577637,2|8,0:0|0:0,0:0:0:0:
315,258,81712,1,0,1:0:0:0:
315,258,81794,1,0,1:0:0:0:
315,258,81875,1,8,0:0:0:0:
237,174,82038,1,0,1:0:0:0:
237,174,82120,1,8,0:0:0:0:
237,174,82201,1,8,0:0:0:0:
312,73,82364,5,8,1:2:0:0:
312,73,82446,1,8,1:2:0:0:
312,73,82527,2,0,P|371:82|463:29,1,160,6|10,1:2|0:0,0:0:0:0:
411,122,83017,1,2,0:0:0:0:
504,158,83180,1,2,1:2:0:0:
504,158,83343,1,2,1:2:0:0:
393,214,83506,1,10,0:0:0:0:
495,293,83669,6,0,B|518:314|518:314|498:378|389:377,1,160,2|0,1:2|1:0,0:0:0:0:
296,268,84158,2,0,P|304:207|288:171,1,80,10|0,0:0|1:0,0:0:0:0:
298,190,84402,1,8,0:0:0:0:
298,190,84484,1,8,0:0:0:0:
213,232,84647,1,0,1:0:0:0:
177,135,84810,1,10,0:0:0:0:
177,135,85136,6,0,L|270:112,1,80,2|0,1:2|0:0,0:0:0:0:
167,52,85462,2,0,P|111:34|39:55,1,120,10|0,0:0|0:0,0:0:0:0:
37,58,85788,1,2,1:2:0:0:
87,138,85951,1,0,1:0:0:0:
3,187,86114,1,10,0:0:0:0:
91,267,86277,6,0,P|148:244|262:250,1,160,2|0,1:2|1:0,0:0:0:0:
317,364,86767,2,0,P|281:357|233:349,1,80,10|0,0:0|1:0,0:0:0:0:
238,349,87011,1,0,1:0:0:0:
238,349,87093,1,2,1:2:0:0:
333,271,87256,1,2,1:2:0:0:
407,340,87419,1,8,0:0:0:0:
503,278,87582,6,0,B|508:267|508:267|473:141,1,120,6|0,1:2|0:0,0:0:0:0:
421,113,87908,2,0,P|371:131|336:112,1,80,10|2,0:0|0:3,0:0:0:0:
348,122,88152,1,2,0:3:0:0:
348,122,88234,1,6,1:2:0:0:
296,55,88397,1,2,0:0:0:0:
215,130,88560,1,2,0:0:0:0:
283,221,88723,5,6,1:2:0:0:
174,274,88886,2,0,L|77:251,1,88.000002685547,10|8,0:0|0:0,0:0:0:0:
88,253,89131,1,8,0:0:0:0:
88,253,89212,1,14,0:2:0:0:
181,162,89375,2,0,P|198:132|182:59,1,88.000002685547,10|0,0:0|1:0,0:0:0:0:
180,57,89620,1,0,1:0:0:0:
163,36,89701,6,0,L|64:42,1,88.000002685547,2|0,1:2|0:0,0:0:0:0:
199,184,90027,2,0,L|298:190,1,88.000002685547,10|8,0:0|0:3,0:0:0:0:
451,97,90353,5,10,1:2:0:0:
482,259,90517,1,10,1:2:0:0:
497,268,90843,5,10,1:2:0:0:
383,183,91006,1,10,1:2:0:0:
393,170,91332,5,10,1:2:0:0:
388,337,91495,1,10,1:2:0:0:
400,352,91821,5,10,1:2:0:0:
268,259,91984,1,10,1:2:0:0:
147,370,92228,5,0,1:0:0:0:
143,357,92310,1,0,1:0:0:0:
78,310,92473,1,0,1:0:0:0:
140,265,92636,1,8,0:2:0:0:
22,63,92963,6,0,B|-9:94|-9:94|16:185,1,138.000002632141,6|0,1:2|0:0,0:0:0:0:
75,232,93288,2,0,B|125:223|125:223|137:225|137:225|222:210,1,138.000002632141,10|0,1:2|0:0,0:0:0:0:
223,205,93614,1,2,1:2:0:0:
281,298,93777,1,2,1:2:0:0:
390,313,93940,1,10,1:2:0:0:
489,244,94103,6,0,B|493:204|493:204|436:143|452:59,1,184.000003509522,2|0,1:2|1:0,0:0:0:0:
403,0,94593,1,8,0:0:0:0:
370,120,94756,1,2,0:0:0:0:
370,120,94837,1,2,0:3:0:0:
370,120,94919,1,2,1:3:0:0:
288,32,95082,1,2,1:2:0:0:
403,0,95245,1,10,1:2:0:0:
370,120,95408,1,2,1:2:0:0:
272,27,95571,6,0,P|203:9|145:84,1,138.000002632141,2|0,1:2|0:0,0:0:0:0:
143,121,95897,2,0,P|162:142|170:221,1,92.0000017547608,10|0,1:2|1:0,0:0:0:0:
111,358,96223,1,10,1:2:0:0:
62,257,96386,1,8,0:3:0:0:
209,313,96549,1,4,0:3:0:0:
286,237,96712,6,0,L|272:133,1,92.0000017547608,6|0,1:2|0:0,0:0:0:0:
306,249,97038,2,0,L|292:145,1,92.0000017547608,6|0,1:2|0:0,0:0:0:0:
86,158,97364,6,0,L|100:54,1,92.0000017547608,6|0,1:2|0:0,0:0:0:0:
66,170,97690,2,0,L|80:66,1,92.0000017547608,6|0,1:2|0:0,0:0:0:0:
256,32,98017,6,0,B|407:72|334:7|509:48,1,240.000009155274,6|0,1:2|1:0,0:0:0:0:
431,154,98506,2,0,P|460:175|477:242,1,92.0000017547608,8|2,1:2|0:3,0:0:0:0:
478,226,98750,1,2,0:3:0:0:
478,226,98832,1,2,0:0:0:0:
429,339,98995,1,2,1:2:0:0:
512,384,99158,1,10,1:2:0:0:
419,324,99321,6,0,P|369:294|269:306,1,138.000002632141,2|0,1:2|0:0,0:0:0:0:
277,308,99647,1,2,1:2:0:0:
384,260,99810,1,10,1:2:0:0:
296,186,99973,2,0,P|277:145|281:91,1,92.0000017547608,2|0,0:2|1:0,0:0:0:0:
388,17,100299,2,0,P|407:58|405:103,1,92.0000017547608,2|8,1:2|1:2,0:0:0:0:
229,29,100625,2,0,P|169:38|139:118,1,138.000002632141,2|0,1:2|0:0,0:0:0:0:
138,119,100951,1,2,1:2:0:0:
278,99,101114,1,10,1:2:0:0:
336,167,101277,6,0,P|350:198|352:230,1,46.0000008773804,2|0,0:0|0:0,0:0:0:0:
364,228,101440,2,0,P|351:259|330:283,1,46.0000008773804,2|0,1:0|0:0,0:0:0:0:
328,286,101603,2,0,P|297:272|265:270,1,46.0000008773804,2|0,1:0|0:0,0:0:0:0:
264,260,101767,2,0,P|232:272|208:293,1,46.0000008773804,10|0,0:0|0:0,0:0:0:0:
169,345,101930,6,0,B|151:368|151:368|37:345,1,138.000002632141,2|0,0:1|0:0,0:0:0:0:
34,356,102256,1,2,1:0:0:0:
112,273,102419,2,0,P|126:209|122:165,1,92.0000017547608,10|0,1:0|1:0,0:0:0:0:
32,70,102745,2,0,P|11:128|13:166,1,92.0000017547608,10|0,1:0|1:0,0:0:0:0:
208,100,103071,2,0,P|205:54|187:12,1,92.0000017547608,10|0,1:0|0:0,0:0:0:0:
299,169,103397,6,0,P|356:214|451:184,1,138.000002632141,6|0,1:2|0:0,0:0:0:0:
487,172,103723,2,0,B|483:142|483:142|511:102|493:38,1,138.000002632141,10|0,1:2|0:0,0:0:0:0:
486,25,104049,1,2,1:2:0:0:
403,83,104212,1,2,1:2:0:0:
313,35,104375,1,10,1:2:0:0:
212,108,104538,6,0,B|202:167|202:167|213:200|213:200|196:303,1,184.000003509522,2|0,1:2|1:0,0:0:0:0:
181,383,105027,1,8,0:0:0:0:
112,322,105190,1,2,0:0:0:0:
112,322,105272,1,2,0:0:0:0:
112,322,105353,1,2,1:2:0:0:
198,288,105517,1,2,1:2:0:0:
270,346,105680,1,10,1:2:0:0:
181,383,105843,1,2,0:0:0:0:
83,328,106006,6,0,B|74:282|74:282|85:256|85:256|65:172,1,138.000002632141,2|0,1:2|0:0,0:0:0:0:
19,139,106332,2,0,P|-5:176|3:228,1,92.0000017547608,10|0,1:2|1:0,0:0:0:0:
128,92,106658,1,8,1:2:0:0:
175,214,106821,1,8,0:3:0:0:
122,77,106984,1,4,0:3:0:0:
184,229,107147,6,0,P|225:248|272:238,1,92.0000017547608,6|0,1:2|0:0,0:0:0:0:
193,244,107473,2,0,P|234:263|281:253,1,92.0000017547608,6|0,1:2|0:0,0:0:0:0:
354,347,107799,6,0,P|395:366|442:356,1,92.0000017547608,6|0,1:2|0:0,0:0:0:0:
363,362,108125,2,0,P|404:381|451:371,1,92.0000017547608,6|0,1:2|0:0,0:0:0:0:
382,238,108451,6,0,B|472:199|460:93|460:93|418:69|377:92,1,240.000009155274,6|0,1:2|0:0,0:0:0:0:
298,9,108940,2,0,P|275:65|226:69,1,92.0000017547608,8|2,1:2|0:0,0:0:0:0:
248,73,109185,1,2,0:0:0:0:
248,73,109267,1,2,0:0:0:0:
127,84,109430,1,2,1:2:0:0:
231,181,109593,1,10,1:2:0:0:
135,230,109756,6,0,B|65:244|65:244|11:205,1,138.000002632141,2|0,1:2|0:0,0:0:0:0:
0,193,110082,1,2,1:2:0:0:
58,286,110245,1,10,1:2:0:0:
146,221,110408,2,0,L|168:72,1,138.000002632141,2|0,0:0|0:0,0:0:0:0:
181,75,110734,5,2,1:2:0:0:
258,160,110897,1,10,1:2:0:0:
338,78,111060,1,2,1:2:0:0:
338,78,111142,1,0,1:0:0:0:
338,78,111223,1,8,0:0:0:0:
448,116,111386,1,2,0:0:0:0:
368,198,111549,1,8,1:2:0:0:
448,260,111712,5,0,1:0:0:0:
448,260,111794,1,0,1:0:0:0:
448,260,111875,1,8,1:2:0:0:
365,301,112038,1,0,1:0:0:0:
282,250,112201,1,8,1:2:0:0:
94,384,112528,6,0,P|143:378|190:377,1,80,6|0,1:2|0:0,0:0:0:0:
56,305,112853,1,8,0:0:0:0:
132,233,113017,2,0,P|150:178|146:137,1,80,2|0,0:0|1:0,0:0:0:0:
16,67,113343,1,2,1:2:0:0:
45,165,113506,1,10,0:0:0:0:
146,136,113669,2,0,P|145:96|164:44,1,80,2|0,1:2|0:0,0:0:0:0:
265,135,113995,2,0,P|266:175|247:227,1,80,2|8,1:2|0:0,0:0:0:0:
191,289,114321,1,2,0:0:0:0:
191,289,114402,1,2,0:0:0:0:
191,289,114484,1,2,1:2:0:0:
263,227,114647,1,0,1:0:0:0:
307,313,114810,2,0,P|345:329|404:325,1,80,10|0,1:2|0:0,0:0:0:0:
512,233,115136,6,0,P|507:174|487:87,1,120,2|0,1:2|0:0,0:0:0:0:
481,104,115462,2,0,B|448:127|448:127|401:115,1,80,10|0,1:2|0:0,0:0:0:0:
287,83,115788,1,2,1:2:0:0:
401,132,115951,1,2,1:2:0:0:
340,16,116114,1,8,0:0:0:0:
319,170,116277,2,0,L|344:273,1,80,2|0,1:2|0:0,0:0:0:0:
259,366,116603,2,0,L|240:288,1,80,0|10,1:0|0:0,0:0:0:0:
147,236,116930,1,2,1:2:0:0:
147,236,117011,1,2,1:2:0:0:
147,236,117093,1,2,1:2:0:0:
119,369,117256,1,0,1:0:0:0:
24,330,117419,1,8,0:0:0:0:
162,220,117745,6,0,B|148:234|148:234|42:224,1,120,2|0,1:2|0:0,0:0:0:0:
32,227,118071,2,0,P|19:176|38:132,1,80,10|0,0:0|0:0,0:0:0:0:
136,54,118397,1,2,1:2:0:0:
244,106,118560,2,0,L|259:190,1,80,2|10,0:0|0:0,0:0:0:0:
396,59,118886,2,0,L|315:29,1,80,2|0,1:2|0:0,0:0:0:0:
360,214,119212,2,0,L|425:159,1,80,2|8,0:0|0:0,0:0:0:0:
334,128,119538,5,8,0:0:0:0:
334,128,119620,1,8,0:0:0:0:
334,128,119701,1,0,1:0:0:0:
421,162,119864,1,8,0:0:0:0:
320,31,120027,1,0,1:0:0:0:
258,184,120190,1,8,0:0:0:0:
173,152,120353,6,0,P|108:146|59:196,1,120.000004577637,4|2,1:2|0:3,0:0:0:0:
95,276,120843,2,0,P|160:282|209:232,1,120.000004577637,8|0,0:3|0:0,0:0:0:0:
258,184,121332,1,2,1:2:0:0:
422,371,121658,5,4,0:3:0:0:
357,305,121821,1,8,0:3:0:0:
472,265,121984,1,4,0:3:0:0:
343,205,122147,5,0,1:0:0:0:
343,205,122228,1,0,1:0:0:0:
343,205,122310,1,8,1:0:0:0:
463,240,122473,1,0,1:0:0:0:
424,144,122636,1,10,0:0:0:0:
236,254,122962,5,10,1:2:0:0:
254,105,123125,1,10,1:2:0:0:
263,119,123451,5,10,1:2:0:0:
128,62,123614,1,10,1:2:0:0:
115,47,123940,5,10,1:2:0:0:
142,216,124103,1,10,1:2:0:0:
157,207,124430,5,10,1:2:0:0:
0,162,124593,1,10,1:2:0:0:
235,63,124919,5,0,1:0:0:0:
235,63,125000,1,0,1:0:0:0:
235,63,125082,2,0,L|243:10,1,40,2|0,1:3|1:0,0:0:0:0:
299,116,125245,2,0,L|291:169,1,40,2|0,1:3|1:0,0:0:0:0:
369,66,125408,2,0,L|377:13,1,40,2|0,1:3|1:0,0:0:0:0:
455,121,125571,6,0,P|503:141|506:239,1,150,6|0,1:2|0:0,0:0:0:0:
464,286,125897,2,0,B|412:277|412:277|382:292|382:292|301:279,1,150,10|0,1:2|0:0,0:0:0:0:
307,295,126223,1,2,1:2:0:0:
263,205,126386,1,2,1:2:0:0:
325,126,126549,1,10,1:2:0:0:
218,44,126712,6,0,P|158:28|78:131,1,200,2|0,1:2|1:0,0:0:0:0:
19,186,127201,1,8,0:0:0:0:
148,219,127364,1,2,0:0:0:0:
148,219,127446,1,2,0:3:0:0:
148,219,127527,1,2,1:3:0:0:
19,186,127690,1,2,1:2:0:0:
58,308,127853,1,10,1:2:0:0:
148,219,128017,1,2,1:2:0:0:
216,351,128180,6,0,B|289:370|289:370|367:325,1,150,2|0,1:2|0:0,0:0:0:0:
410,284,128506,2,0,L|419:184,1,100,10|0,1:2|0:0,0:0:0:0:
305,110,128832,1,10,1:2:0:0:
418,56,128995,1,8,0:3:0:0:
323,3,129158,1,4,0:3:0:0:
291,124,129321,6,0,L|283:234,1,100,6|0,1:2|0:0,0:0:0:0:
268,236,129647,2,0,L|276:126,1,100,6|0,1:2|0:0,0:0:0:0:
104,34,129973,6,0,L|96:144,1,100,6|0,1:2|0:0,0:0:0:0:
81,146,130299,2,0,L|89:36,1,100,6|0,1:2|0:0,0:0:0:0:
258,148,130625,6,0,B|294:225|430:251|426:98|337:116,1,256,6|0,1:2|1:0,0:0:0:0:
228,247,131114,2,0,P|219:296|242:351,1,100,8|2,1:2|0:3,0:0:0:0:
235,342,131359,1,2,0:3:0:0:
235,342,131440,1,2,0:0:0:0:
336,307,131603,1,2,1:2:0:0:
404,382,131767,1,10,1:2:0:0:
494,293,131930,6,0,P|510:243|482:138,1,150,2|0,1:2|0:0,0:0:0:0:
481,137,132256,1,2,1:2:0:0:
397,204,132419,1,10,1:2:0:0:
321,132,132582,2,0,L|307:13,1,100,2|0,0:2|1:0,0:0:0:0:
192,194,132908,2,0,L|291:220,1,100,2|8,1:2|1:2,0:0:0:0:
208,74,133234,2,0,P|138:98|68:74,1,150,2|0,1:2|0:0,0:0:0:0:
57,57,133560,1,2,1:2:0:0:
129,140,133723,1,10,1:2:0:0:
32,201,133886,6,0,L|17:263,1,50,2|0,0:0|0:0,0:0:0:0:
29,261,134049,2,0,L|17:309,1,50,2|0,1:0|0:0,0:0:0:0:
10,374,134212,2,0,L|24:311,1,50,2|0,1:0|0:0,0:0:0:0:
34,323,134375,2,0,L|48:260,1,50,10|0,0:0|0:0,0:0:0:0:
141,229,134538,6,0,B|212:256|212:256|294:216,1,150,2|0,0:1|0:0,0:0:0:0:
293,214,134864,1,2,1:0:0:0:
377,288,135027,2,0,P|357:328|360:396,1,100,10|0,1:0|1:0,0:0:0:0:
512,263,135353,2,0,P|512:213|491:169,1,100,10|0,1:0|1:0,0:0:0:0:
365,68,135680,2,0,P|312:96|256:83,1,100,10|0,1:0|0:0,0:0:0:0:
82,31,136006,6,0,B|192:18|192:18|141:52,1,150,6|0,1:2|0:0,0:0:0:0:
114,102,136332,2,0,P|81:161|108:240,1,150,10|0,1:2|0:0,0:0:0:0:
115,251,136658,1,2,1:2:0:0:
216,204,136821,1,2,1:2:0:0:
184,332,136984,1,10,1:2:0:0:
338,288,137147,6,0,B|424:269|424:269|495:281|500:353,1,200,2|0,1:2|1:0,0:0:0:0:
424,384,137636,1,8,0:0:0:0:
435,248,137799,1,2,0:0:0:0:
435,248,137881,1,2,0:0:0:0:
435,248,137962,1,2,1:2:0:0:
498,340,138125,1,2,1:2:0:0:
435,248,138288,1,10,1:2:0:0:
424,384,138451,1,2,0:0:0:0:
342,283,138614,6,0,B|307:263|307:263|186:255,1,150,2|0,1:2|0:0,0:0:0:0:
136,305,138940,2,0,P|119:257|138:205,1,100,10|0,1:2|0:0,0:0:0:0:
231,120,139267,1,8,1:2:0:0:
112,72,139430,1,8,0:3:0:0:
188,0,139593,1,4,0:3:0:0:
243,142,139756,6,0,P|291:146|334:122,1,100,6|0,1:2|0:0,0:0:0:0:
345,143,140082,2,0,P|302:167|253:162,1,100,6|0,1:2|0:0,0:0:0:0:
37,267,140408,6,0,P|85:271|128:247,1,100,6|0,1:2|0:0,0:0:0:0:
139,268,140734,2,0,P|96:292|47:287,1,100,6|0,1:2|0:0,0:0:0:0:
268,184,141060,6,0,B|241:299|352:342|352:342|377:323|432:309,1,256,6|0,1:2|1:0,0:0:0:0:
505,378,141549,2,0,B|514:255,1,100,8|2,1:2|0:0,0:0:0:0:
512,278,141794,1,2,0:0:0:0:
512,278,141875,1,2,0:0:0:0:
445,199,142038,1,2,1:2:0:0:
512,121,142201,1,10,1:2:0:0:
419,25,142364,6,0,B|391:60|391:60|282:37,1,150,2|0,1:2|0:0,0:0:0:0:
270,35,142690,1,2,1:2:0:0:
321,133,142853,1,10,1:2:0:0:
247,212,143017,2,0,P|203:277|226:358,1,150,2|0,0:0|0:0,0:0:0:0:
226,360,143343,5,2,1:2:0:0:
160,261,143506,1,10,1:2:0:0:
303,305,143669,2,0,L|468:284,1,150,2|0,1:2|0:0,0:0:0:0:
466,298,143995,1,2,1:2:0:0:
512,199,144158,1,8,1:2:0:0:
425,125,144321,5,0,1:0:0:0:
425,125,144402,1,0,1:0:0:0:
425,125,144484,1,8,1:0:0:0:
348,201,144647,5,4,0:3:0:0:
250,153,144810,5,4,0:3:0:0:
141,178,144973,5,8,0:3:0:0:
512,384,145951,1,0,1:0:0:0:
447,336,146114,2,0,B|418:299|448:245|458:266|478:211|443:159,1,180.000006866455,8|0,1:2|0:0,0:0:0:0:
483,90,146440,6,0,P|427:129|369:81,1,120,6|0,1:2|0:0,0:0:0:0:
309,77,146767,2,0,P|315:44|284:-5,1,80,10|0,1:2|0:0,0:0:0:0:
215,115,147093,1,2,1:2:0:0:
303,177,147256,1,2,1:2:0:0:
204,107,147419,1,10,1:2:0:0:
314,189,147582,6,0,L|413:179,1,80,2|0,1:2|0:0,0:0:0:0:
231,256,147908,2,0,L|132:246,1,80,2|10,1:2|0:0,0:0:0:0:
254,355,148234,1,2,0:0:0:0:
254,355,148315,1,2,0:3:0:0:
254,355,148397,1,2,1:3:0:0:
342,291,148560,1,2,1:2:0:0:
410,362,148723,2,0,B|444:380|444:380|482:365,1,80,10|0,1:2|1:2,0:0:0:0:
469,255,149049,6,0,B|501:232|501:232|510:192|487:149,1,120,2|0,1:2|0:0,0:0:0:0:
444,90,149375,2,0,L|354:80,1,80,10|0,1:2|0:0,0:0:0:0:
250,127,149701,1,10,1:2:0:0:
298,20,149864,1,8,0:3:0:0:
329,170,150027,1,4,0:3:0:0:
164,161,150190,6,0,P|159:112|181:68,1,100,6|0,1:2|0:0,0:0:0:0:
141,156,150517,2,0,P|136:107|158:63,1,100,6|0,1:2|0:0,0:0:0:0:
274,241,150843,6,0,P|278:191|257:147,1,100,6|0,1:2|0:0,0:0:0:0:
297,236,151169,2,0,P|301:186|280:142,1,100,6|0,1:2|0:0,0:0:0:0:
136,282,151495,6,0,B|94:249|16:268|16:268|57:292,1,160,6|0,1:2|0:0,0:0:0:0:
143,370,151984,2,0,P|178:357|249:356,1,80,8|2,1:2|0:3,0:0:0:0:
220,352,152228,1,2,0:3:0:0:
220,352,152310,1,2,0:0:0:0:
349,382,152473,1,2,1:2:0:0:
368,268,152636,1,10,1:2:0:0:
489,291,152799,6,0,P|493:330|483:368,1,80,2|0,1:2|0:0,0:0:0:0:
350,269,153125,2,0,P|345:229|355:191,1,80,2|8,1:2|1:2,0:0:0:0:
434,107,153451,1,2,1:2:0:0:
434,107,153533,1,0,1:0:0:0:
434,107,153614,1,0,1:0:0:0:
357,7,153777,1,2,1:2:0:0:
278,91,153940,1,8,1:2:0:0:
185,39,154103,6,0,B|131:18|131:18|69:31,1,120,2|0,1:2|0:0,0:0:0:0:
55,38,154430,1,2,0:0:0:0:
158,120,154593,1,10,1:2:0:0:
65,186,154756,6,0,L|6:194,1,47.9999985351563,2|0,0:0|0:0,0:0:0:0:
59,206,154919,2,0,L|0:214,1,47.9999985351563,2|0,1:0|0:0,0:0:0:0:
53,226,155082,2,0,L|-6:234,1,47.9999985351563,2|0,1:0|0:0,0:0:0:0:
47,246,155245,2,0,L|-12:254,1,47.9999985351563,10|0,0:0|0:0,0:0:0:0:
105,321,155408,6,0,B|187:323|150:369|238:383,1,143.999995605469,2|0,0:1|0:0,0:0:0:0:
249,377,155734,1,2,1:0:0:0:
170,305,155897,2,0,P|159:249|187:203,1,95.9999970703126,10|0,1:0|1:0,0:0:0:0:
355,288,156223,2,0,P|354:240|327:202,1,95.9999970703126,10|0,1:0|1:0,0:0:0:0:
193,135,156549,6,0,B|154:178|154:178|83:177|56:101,1,180.000006866455,10|0,1:0|0:0,0:0:0:0:
72,32,156875,6,0,L|204:5,1,120,6|0,1:2|0:0,0:0:0:0:
246,58,157201,2,0,L|353:66,1,80,10|0,1:2|0:0,0:0:0:0:
466,27,157527,1,2,1:2:0:0:
430,138,157690,1,2,1:2:0:0:
471,15,157853,1,10,1:2:0:0:
328,80,158017,6,0,L|235:87,1,80,2|0,1:2|0:0,0:0:0:0:
433,154,158343,2,0,L|526:161,1,80,2|8,1:2|0:0,0:0:0:0:
398,243,158669,1,2,0:0:0:0:
398,243,158750,1,2,0:0:0:0:
398,243,158832,1,2,1:2:0:0:
454,327,158995,1,2,1:2:0:0:
375,381,159158,2,0,L|282:374,1,80,10|2,1:2|0:0,0:0:0:0:
230,259,159484,6,0,P|253:190|229:119,1,120,2|0,1:2|0:0,0:0:0:0:
195,87,159810,2,0,B|158:96|158:96|110:77,1,80,10|0,1:2|0:0,0:0:0:0:
27,12,160136,1,8,1:2:0:0:
43,154,160299,1,8,0:3:0:0:
119,80,160462,1,4,0:3:0:0:
184,199,160625,6,0,P|190:247|170:310,1,100,6|0,1:2|0:0,0:0:0:0:
198,308,160951,2,0,P|210:259|204:210,1,100,6|0,1:2|0:0,0:0:0:0:
283,69,161277,6,0,P|277:117|297:180,1,100,6|0,1:2|0:0,0:0:0:0:
308,168,161603,2,0,P|295:119|301:70,1,100,6|0,1:2|0:0,0:0:0:0:
432,158,161930,6,0,P|486:183|497:306,1,160,6|0,1:2|0:0,0:0:0:0:
434,336,162419,2,0,L|345:324,1,80,8|2,1:2|0:0,0:0:0:0:
354,325,162663,1,2,0:0:0:0:
354,325,162745,1,2,0:0:0:0:
301,242,162908,1,2,1:2:0:0:
261,384,163071,1,10,1:2:0:0:
184,260,163234,6,0,L|198:170,1,80,2|0,1:2|0:0,0:0:0:0:
378,195,163560,2,0,L|364:105,1,80,2|10,1:2|1:2,0:0:0:0:
114,161,163886,2,0,L|128:71,1,80,2|0,0:0|1:0,0:0:0:0:
152,0,164212,1,2,1:2:0:0:
67,21,164375,1,10,1:2:0:0:
220,60,164538,1,2,1:2:0:0:
220,60,164620,1,2,0:0:0:0:
220,60,164701,1,0,1:0:0:0:
126,81,164864,1,2,1:2:0:0:
152,0,165027,1,8,1:2:0:0:
199,151,165190,5,0,1:0:0:0:
199,151,165272,1,0,1:0:0:0:
199,151,165353,2,0,L|206:242,1,80,8|0,1:2|1:0,0:0:0:0:
304,339,165680,2,0,B|334:280|283:279|307:224,1,120,8|0,1:2|0:0,0:0:0:0:
386,209,166006,6,0,B|413:262|473:252|473:252|510:199,1,138.000002632141,4|0,1:2|0:0,0:0:0:0:
512,150,166332,2,0,L|494:45,1,92.0000017547608,10|0,1:2|0:0,0:0:0:0:
374,17,166658,1,10,1:2:0:0:
413,119,166821,1,0,1:0:0:0:
366,2,166984,1,8,1:2:0:0:
317,121,167147,6,0,L|296:227,1,92.0000017547608,2|8,1:2|0:0,0:0:0:0:
198,112,167473,2,0,L|180:21,1,92.0000017547608,2|8,1:2|1:2,0:0:0:0:
78,121,167799,1,2,1:2:0:0:
78,121,167881,1,0,1:0:0:0:
78,121,167962,1,10,1:2:0:0:
194,135,168125,1,0,1:0:0:0:
79,210,168288,1,8,1:2:0:0:
209,231,168451,6,0,L|313:207,1,92.0000017547608,2|8,1:2|0:0,0:0:0:0:
435,263,168777,1,0,1:0:0:0:
316,222,168940,1,10,1:2:0:0:
233,318,169103,2,0,L|137:304,1,92.0000017547608,2|8,1:2|1:2,0:0:0:0:
298,210,169430,2,0,L|394:196,1,92.0000017547608,2|10,1:2|1:2,0:0:0:0:
503,128,169756,6,0,P|514:74|495:22,1,111.999996582031,6|0,1:2|0:0,0:0:0:0:
480,127,170082,2,0,P|491:72|472:20,1,111.999996582031,6|0,1:2|0:0,0:0:0:0:
288,193,170408,6,0,P|276:138|295:86,1,111.999996582031,6|0,1:2|0:0,0:0:0:0:
311,191,170734,2,0,P|299:136|318:84,1,111.999996582031,6|0,1:2|0:0,0:0:0:0:
459,220,171060,6,0,B|507:251|507:251|512:316|456:373,1,184.000003509522,6|0,1:2|1:0,0:0:0:0:
328,296,171549,2,0,P|285:282|220:296,1,92.0000017547608,10|0,1:2|1:0,0:0:0:0:
91,363,171875,1,10,1:2:0:0:
121,239,172038,1,0,1:0:0:0:
89,384,172201,1,10,1:2:0:0:
10,270,172364,6,0,L|4:167,1,92.0000017547608,2|8,1:2|0:0,0:0:0:0:
141,35,172690,2,0,L|135:126,1,92.0000017547608,2|8,1:2|1:2,0:0:0:0:
236,200,173017,1,2,1:2:0:0:
236,200,173098,1,0,1:0:0:0:
236,200,173180,1,8,0:0:0:0:
343,175,173343,1,0,1:0:0:0:
411,256,173506,1,8,1:2:0:0:
506,198,173669,6,0,P|515:164|498:92,1,92.0000017547608,2|8,1:2|0:0,0:0:0:0:
386,36,173995,1,2,1:2:0:0:
336,153,174158,2,0,L|328:292,1,138.000002632141,10|0,1:2|0:0,0:0:0:0:
326,311,174484,1,8,1:2:0:0:
234,380,174647,1,0,1:0:0:0:
145,318,174810,1,10,1:2:0:0:
207,230,174973,6,0,P|222:191|207:121,1,92.0000017547608,2|8,1:2|1:2,0:0:0:0:
43,177,175299,2,0,P|37:222|53:265,1,92.0000017547608,2|8,1:2|1:2,0:0:0:0:
198,127,175625,1,8,0:3:0:0:
96,80,175788,1,4,0:3:0:0:
183,13,175951,1,0,1:0:0:0:
183,13,176033,1,0,1:0:0:0:
183,13,176114,1,8,1:0:0:0:
285,64,176277,1,8,0:3:0:0:
403,14,176440,6,0,P|469:18|511:70,1,138.000002632141,6|0,1:2|0:0,0:0:0:0:
487,144,176767,2,0,L|385:128,1,92.0000017547608,10|0,1:2|0:0,0:0:0:0:
285,64,177093,1,10,1:2:0:0:
306,186,177256,1,0,1:0:0:0:
396,129,177419,1,10,1:2:0:0:
456,250,177582,6,0,P|468:282|455:354,1,92.0000017547608,2|8,1:2|1:2,0:0:0:0:
303,384,177908,2,0,L|292:279,1,92.0000017547608,0|10,1:0|1:2,0:0:0:0:
208,193,178234,1,2,1:2:0:0:
208,193,178315,1,0,1:0:0:0:
208,193,178397,1,8,1:2:0:0:
199,318,178560,1,2,1:2:0:0:
101,281,178723,1,8,1:2:0:0:
7,378,178886,6,0,P|-4:340|15:271,1,92.0000017547608,2|8,1:2|0:0,0:0:0:0:
91,195,179212,1,0,1:2:0:0:
205,281,179375,2,0,P|216:243|197:174,1,92.0000017547608,10|0,1:2|1:2,0:0:0:0:
87,100,179701,1,10,1:2:0:0:
98,214,179864,1,2,1:2:0:0:
190,78,180027,1,10,1:2:0:0:
297,151,180190,6,0,B|350:172|350:172|397:144,1,111.999996582031,2|0,1:2|0:0,0:0:0:0:
399,164,180517,2,0,B|351:191|351:191|298:170,1,111.999996582031,2|0,1:2|0:0,0:0:0:0:
188,58,180843,6,0,B|241:79|241:79|288:51,1,111.999996582031,2|0,1:2|0:0,0:0:0:0:
290,71,181169,2,0,B|242:98|242:98|189:77,1,111.999996582031,2|0,1:2|0:0,0:0:0:0:
56,19,181495,6,0,P|13:56|39:157,1,138.000002632141,6|0,1:2|0:0,0:0:0:0:
24,147,181821,1,0,1:2:0:0:
152,158,181984,2,0,B|267:138,1,92.0000017547608,10|0,1:2|1:0,0:0:0:0:
404,165,182310,1,10,1:2:0:0:
319,69,182473,1,0,1:0:0:0:
412,185,182636,1,10,1:2:0:0:
487,110,182799,6,0,P|497:64|481:20,1,92.0000017547608,2|8,1:2|0:0,0:0:0:0:
310,84,183125,2,0,P|300:130|316:173,1,92.0000017547608,2|8,1:2|1:2,0:0:0:0:
433,221,183451,1,2,1:2:0:0:
433,221,183533,1,0,1:0:0:0:
433,221,183614,1,8,0:0:0:0:
354,298,183777,1,0,1:0:0:0:
247,253,183940,1,8,1:2:0:0:
165,338,184103,6,0,B|115:375|115:375|30:334,1,138.000002632141,2|0,1:2|0:0,0:0:0:0:
28,331,184430,1,0,1:2:0:0:
126,251,184593,1,10,1:2:0:0:
0,215,184756,1,8,0:3:0:0:
123,150,184919,1,4,0:3:0:0:
7,94,185082,1,0,1:0:0:0:
7,94,185163,1,8,1:0:0:0:
7,94,185245,1,8,1:0:0:0:
93,31,185408,6,0,B|101:151|326:165|243:29|421:-2|568:147|449:278|338:312|187:168|228:29,1,760,6|0,1:2|0:0,0:0:0:0:
