osu file format v14

[General]
AudioFilename: audio.mp3
AudioLeadIn: 0
PreviewTime: 52446
Countdown: 0
SampleSet: Soft
StackLeniency: 0.7
Mode: 0
LetterboxInBreaks: 0
WidescreenStoryboard: 1

[Editor]
DistanceSpacing: 0.9
BeatDivisor: 4
GridSize: 8
TimelineZoom: 2.1

[Metadata]
Title:(please) replay
TitleUnicode:(please) replay
Artist:Limonene
ArtistUnicode:Limonène
Creator:Realazy
Version:(collab) normal
Source:
Tags:-[Shady]- Mimilie Suzuhara Lulu Hitsukuya meiikyuu Lasse kamome sano サノカモメ mikanzil 月島春果 evergreen japanese rock
BeatmapID:2673449
BeatmapSetID:1279941

[Difficulty]
HPDrainRate:4
CircleSize:3
OverallDifficulty:4
ApproachRate:6
SliderMultiplier:1.2
SliderTickRate:1

[Events]
//Background and Video events
0,0,"happy birthday.jpg",0,0
//Break Periods
//Storyboard Layer 0 (Background)
//Storyboard Layer 1 (Fail)
//Storyboard Layer 2 (Pass)
//Storyboard Layer 3 (Foreground)
//Storyboard Layer 4 (Overlay)
//Storyboard Sound Samples

[TimingPoints]
-950,326.086956521739,4,2,1,40,1,0
3886,-100,4,2,1,5,0,0
3940,-100,4,2,1,40,0,0
4538,-100,4,2,1,5,0,0
4593,-100,4,2,1,40,0,0
5571,-100,4,2,1,50,0,0
8180,-100,4,2,1,60,0,0
10136,-100,4,2,1,50,0,0
10788,-100,4,2,1,80,0,0
11359,-100,4,2,1,5,0,0
11440,-100,4,2,1,80,0,0
13968,-100,4,2,1,5,0,0
14049,-100,4,2,1,80,0,0
16576,-100,4,2,1,5,0,0
16658,-100,4,2,1,80,0,0
19185,-100,4,2,1,5,0,0
19267,-100,4,2,1,80,0,0
20408,-100,4,2,1,5,0,0
20571,-100,4,2,1,50,0,0
20897,-111.111111111111,4,2,1,50,0,0
21223,-111.111111111111,4,2,1,60,0,0
24076,-111.111111111111,4,2,1,5,0,0
24158,-111.111111111111,4,2,1,60,0,0
30598,-111.111111111111,4,2,1,5,0,0
30680,-111.111111111111,4,2,1,60,0,0
31658,-105.263157894737,4,2,1,70,0,0
33859,-105.263157894737,4,2,1,5,0,0
33940,-105.263157894737,4,2,1,70,0,0
34511,-105.263157894737,4,2,1,5,0,0
34593,-105.263157894737,4,2,1,70,0,0
38261,-105.263157894737,4,2,1,5,0,0
38343,-105.263157894737,4,2,1,70,0,0
39076,-105.263157894737,4,2,1,5,0,0
39158,-105.263157894737,4,2,1,70,0,0
39728,-105.263157894737,4,2,1,5,0,0
39810,-105.263157894737,4,2,1,70,0,0
42093,-105.263157894737,4,2,1,60,0,0
47147,-105.263157894737,4,2,1,70,0,0
48696,-105.263157894737,4,2,1,5,0,0
48777,-105.263157894737,4,2,1,70,0,0
49919,-105.263157894737,4,2,1,80,0,0
51875,-105.263157894737,4,2,1,70,0,0
52528,-95.2380952380952,4,2,1,90,0,1
52772,-95.2380952380952,4,2,1,5,0,1
52853,-95.2380952380952,4,2,1,90,0,1
59131,-95.2380952380952,4,2,1,5,0,1
59212,-95.2380952380952,4,2,1,90,0,1
60435,-95.2380952380952,4,2,1,5,0,1
60517,-95.2380952380952,4,2,1,90,0,1
61739,-95.2380952380952,4,2,1,5,0,1
61821,-95.2380952380952,4,2,1,90,0,1
62881,-95.2380952380952,4,2,1,5,0,1
62962,-95.2380952380952,4,2,1,90,0,1
63207,-95.2380952380952,4,2,1,5,0,1
63288,-95.2380952380952,4,2,1,90,0,1
66142,-95.2380952380952,4,2,1,5,0,1
66223,-95.2380952380952,4,2,1,90,0,1
69565,-95.2380952380952,4,2,1,5,0,1
69647,-95.2380952380952,4,2,1,90,0,1
70218,-95.2380952380952,4,2,1,5,0,1
70299,-95.2380952380952,4,2,1,90,0,1
72093,-111.111111111111,4,2,1,60,0,0
80163,-111.111111111111,4,2,1,5,0,0
80245,-111.111111111111,4,2,1,60,0,0
80652,-111.111111111111,4,2,1,5,0,0
80734,-111.111111111111,4,2,1,60,0,0
82527,-105.263157894737,4,2,1,70,0,0
85381,-105.263157894737,4,2,1,5,0,0
85462,-105.263157894737,4,2,1,70,0,0
87582,-105.263157894737,4,2,1,60,0,0
90353,-105.263157894737,4,2,1,70,0,0
92228,-105.263157894737,4,2,1,60,0,0
92881,-105.263157894737,4,2,1,5,0,0
92963,-95.2380952380954,4,2,1,90,0,1
93207,-95.2380952380954,4,2,1,5,0,1
93288,-95.2380952380954,4,2,1,90,0,1
96142,-95.2380952380954,4,2,1,5,0,1
96223,-95.2380952380954,4,2,1,90,0,1
99566,-95.2380952380954,4,2,1,5,0,1
99647,-95.2380952380954,4,2,1,90,0,1
100870,-95.2380952380954,4,2,1,5,0,1
100952,-95.2380952380954,4,2,1,90,0,1
102174,-95.2380952380954,4,2,1,5,0,1
102256,-95.2380952380954,4,2,1,90,0,1
103316,-95.2380952380954,4,2,1,5,0,1
103397,-95.2380952380954,4,2,1,90,0,1
103642,-95.2380952380954,4,2,1,5,0,1
103723,-95.2380952380954,4,2,1,90,0,1
104783,-95.2380952380954,4,2,1,5,0,1
104864,-95.2380952380954,4,2,1,90,0,1
106577,-95.2380952380954,4,2,1,5,0,1
106658,-95.2380952380954,4,2,1,90,0,1
110000,-95.2380952380954,4,2,1,5,0,1
110082,-95.2380952380954,4,2,1,90,0,1
110653,-95.2380952380954,4,2,1,5,0,1
110734,-95.2380952380954,4,2,1,90,0,1
112528,-105.263157894737,4,2,1,70,0,0
115381,-105.263157894737,4,2,1,5,0,0
115462,-105.263157894737,4,2,1,70,0,0
120353,-111.111111111111,4,2,1,70,0,0
122962,-105.263157894737,4,2,1,70,0,0
125571,-95.2380952380954,4,2,1,90,0,1
125816,-95.2380952380954,4,2,1,5,0,1
125897,-95.2380952380954,4,2,1,90,0,1
128424,-95.2380952380954,4,2,1,5,0,1
128506,-95.2380952380954,4,2,1,90,0,1
128750,-95.2380952380954,4,2,1,5,0,1
128832,-95.2380952380954,4,2,1,90,0,1
132175,-95.2380952380954,4,2,1,5,0,1
132256,-95.2380952380954,4,2,1,90,0,1
133479,-95.2380952380954,4,2,1,5,0,1
133561,-95.2380952380954,4,2,1,90,0,1
134783,-95.2380952380954,4,2,1,5,0,1
134864,-95.2380952380954,4,2,1,90,0,1
135925,-95.2380952380954,4,2,1,5,0,1
136006,-95.2380952380954,4,2,1,90,0,1
136251,-95.2380952380954,4,2,1,5,0,1
136332,-95.2380952380954,4,2,1,90,0,1
137392,-95.2380952380954,4,2,1,5,0,1
137473,-95.2380952380954,4,2,1,90,0,1
138859,-95.2380952380954,4,2,1,5,0,1
138940,-95.2380952380954,4,2,1,90,0,1
139186,-95.2380952380954,4,2,1,5,0,1
139267,-95.2380952380954,4,2,1,90,0,1
142609,-95.2380952380954,4,2,1,5,0,1
142691,-95.2380952380954,4,2,1,90,0,1
143262,-95.2380952380954,4,2,1,5,0,1
143343,-95.2380952380954,4,2,1,90,0,1
144973,-111.111111111111,4,2,1,90,0,0
145136,-111.111111111111,4,2,1,60,0,0
146440,-105.263157894737,4,2,1,70,0,0
149620,-105.263157894737,4,2,1,5,0,0
149701,-105.263157894737,4,2,1,70,0,0
156794,-105.263157894737,4,2,1,5,0,0
156875,-105.263157894737,4,2,1,70,0,0
158261,-105.263157894737,4,2,1,5,0,0
158343,-105.263157894737,4,2,1,70,0,0
160055,-105.263157894737,4,2,1,5,0,0
160136,-105.263157894737,4,2,1,70,0,0
163478,-105.263157894737,4,2,1,5,0,0
163560,-105.263157894737,4,2,1,70,0,0
164131,-105.263157894737,4,2,1,5,0,0
164212,-105.263157894737,4,2,1,70,0,0
165924,-105.263157894737,4,2,1,5,0,0
166006,-105.263157894737,4,2,1,80,0,0
166576,-105.263157894737,4,2,1,5,0,0
166658,-105.263157894737,4,2,1,80,0,0
167392,-105.263157894737,4,2,1,5,0,0
167473,-105.263157894737,4,2,1,80,0,0
168696,-105.263157894737,4,2,1,5,0,0
168777,-105.263157894737,4,2,1,80,0,0
172609,-105.263157894737,4,2,1,5,0,0
172690,-105.263157894737,4,2,1,80,0,0
173261,-105.263157894737,4,2,1,5,0,0
173343,-105.263157894737,4,2,1,80,0,0
173913,-105.263157894737,4,2,1,5,0,0
173995,-105.263157894737,4,2,1,80,0,0
174402,-105.263157894737,4,2,1,5,0,0
174484,-105.263157894737,4,2,1,80,0,0
177011,-105.263157894737,4,2,1,5,0,0
177093,-105.263157894737,4,2,1,80,0,0
179131,-105.263157894737,4,2,1,5,0,0
179212,-105.263157894737,4,2,1,80,0,0
181739,-105.263157894737,4,2,1,5,0,0
181821,-105.263157894737,4,2,1,80,0,0
183044,-105.263157894737,4,2,1,5,0,0
183125,-105.263157894737,4,2,1,80,0,0
183696,-105.263157894737,4,2,1,5,0,0
183777,-105.263157894737,4,2,1,80,0,0
184348,-105.263157894737,4,2,1,5,0,0
184430,-105.263157894737,4,2,1,80,0,0
188506,-105.263157894737,4,2,1,5,0,0

[Colours]
Combo1 : 227,121,242
Combo2 : 125,183,230
Combo3 : 245,234,154
Combo4 : 94,112,236

[HitObjects]
45,39,8180,5,10,1:2:0:0:
45,39,8343,1,10,1:2:0:0:
136,96,8669,2,0,L|127:167,1,60,10|10,1:2|1:2,0:0:0:0:
65,243,9158,1,10,1:2:0:0:
65,243,9321,1,10,1:2:0:0:
119,336,9647,2,0,L|193:342,1,60,10|10,1:2|1:2,0:0:0:0:
264,275,10136,2,0,P|324:260|390:292,1,120,0|8,1:0|3:2,0:0:0:0:
466,339,10788,6,0,B|453:285|453:285|465:214,1,120,6|10,1:2|1:2,0:0:0:0:
497,121,11440,1,10,1:2:0:0:
497,121,11603,2,0,P|453:100|420:100,1,60,0|10,1:0|1:2,0:0:0:0:
389,112,11930,1,2,1:2:0:0:
389,112,12093,2,0,P|348:137|268:126,1,120,8|10,1:2|1:2,0:0:0:0:
179,102,12745,1,10,1:2:0:0:
179,102,12908,2,0,L|99:114,1,60,0|10,1:0|1:2,0:0:0:0:
61,201,13397,6,0,P|45:253|78:320,2,120,10|10|10,1:2|1:2|1:2,0:0:0:0:
114,193,14212,2,0,L|176:203,1,60,2|8,1:2|1:2,0:0:0:0:
206,245,14538,1,2,1:2:0:0:
317,234,14864,1,0,1:0:0:0:
317,234,15027,2,0,B|376:217|370:267|446:240,1,120,10|10,1:2|1:2,0:0:0:0:
488,150,15680,1,10,1:2:0:0:
439,53,16006,6,0,B|408:30|408:30|309:41,1,120,10|10,1:2|1:2,0:0:0:0:
255,119,16658,1,10,1:2:0:0:
255,119,16821,2,0,B|224:142|224:142|125:131,1,120,0|2,1:0|1:2,0:0:0:0:
89,126,17310,1,8,1:2:0:0:
48,225,17636,1,10,1:2:0:0:
111,312,17962,2,0,P|167:331|232:307,1,120,10|10,1:2|1:2,0:0:0:0:
305,243,18614,6,0,B|346:237|346:237|381:249|381:249|435:240,1,120,10|10,1:2|1:2,0:0:0:0:
494,161,19267,1,10,1:2:0:0:
494,161,19430,2,0,L|488:90,1,60,8|4,3:0|3:0,0:0:0:0:
483,47,19756,1,6,1:2:0:0:
360,51,20897,6,0,L|285:58,1,53.9999983520508,8|0,0:0|1:0,0:0:0:0:
246,57,21223,2,0,P|266:107|238:169,1,107.999996704102,6|8,1:2|0:0,0:0:0:0:
221,196,21712,1,2,0:0:0:0:
221,196,21875,2,0,B|161:183|163:221|110:202,1,107.999996704102,2|10,1:2|0:0,0:0:0:0:
67,203,22364,2,0,P|39:237|59:308,1,107.999996704102,2|0,1:2|0:0,0:0:0:0:
132,345,23017,1,2,0:0:0:0:
132,345,23180,2,0,L|255:336,1,107.999996704102,0|10,1:2|0:0,0:0:0:0:
328,297,23832,6,0,B|350:253|350:253|340:178,1,107.999996704102,2|10,1:2|0:0,0:0:0:0:
328,148,24321,2,0,B|317:99|317:99|347:29,1,107.999996704102,2|2,0:0|1:2,0:0:0:0:
385,28,24810,1,10,0:0:0:0:
385,28,24973,1,2,1:2:0:0:
480,47,25299,1,2,1:2:0:0:
512,218,25788,2,0,P|465:201|394:214,1,107.999996704102,2|10,1:2|0:0,0:0:0:0:
331,267,26440,6,0,P|264:294|176:246,1,161.999995056153,2|2,1:2|0:0,0:0:0:0:
163,215,27093,2,0,L|174:106,1,107.999996704102,2|10,1:2|0:0,0:0:0:0:
182,59,27582,2,0,B|100:80|116:13|22:53,1,161.999995056153,2|8,1:2|0:0,0:0:0:0:
1,146,28397,1,2,1:2:0:0:
41,233,28723,1,10,0:0:0:0:
4,322,29049,6,0,B|69:332|69:332|168:300,1,161.999995056153,2|2,1:2|0:0,0:0:0:0:
202,278,29701,2,0,B|261:263|261:263|365:300,1,161.999995056153,2|2,1:2|1:2,0:0:0:0:
398,321,30353,1,2,1:2:0:0:
489,281,30680,1,10,0:0:0:0:
489,281,30843,2,0,L|498:214,1,53.9999983520508,8|0,0:0|1:0,0:0:0:0:
470,186,31169,2,0,P|454:133|474:80,1,107.999996704102,0|0,1:0|1:0,0:0:0:0:
486,36,31658,5,6,1:2:0:0:
385,56,31984,2,0,P|334:60|318:54,1,56.9999984779358,8|2,0:0|0:0,0:0:0:0:
292,22,32310,2,0,P|229:15|163:41,1,113.999996955872,2|10,1:2|0:2,0:0:0:0:
135,51,32799,1,2,1:2:0:0:
216,113,33125,2,0,L|210:178,1,56.9999984779358,2|10,0:1|0:0,0:0:0:0:
216,225,33451,1,2,0:1:0:0:
216,225,33614,2,0,P|166:216|104:245,2,113.999996955872,2|10|2,1:2|0:0|1:2,0:0:0:0:
287,307,34593,5,10,0:0:0:0:
287,307,34756,2,0,P|342:321|398:289,1,113.999996955872,2|2,0:0|1:2,0:0:0:0:
457,218,35408,2,0,B|445:166|445:166|454:143|454:143|443:91,1,113.999996955872,2|2,1:2|0:1,0:0:0:0:
482,70,35897,2,0,L|471:5,1,56.9999984779358,10|2,0:1|0:1,0:0:0:0:
427,0,36223,2,0,L|359:11,1,56.9999984779358,2|2,0:1|0:1,0:0:0:0:
319,11,36549,5,10,0:2:0:0:
273,103,36875,2,0,L|279:176,1,56.9999984779358,2|0,1:2|1:0,0:0:0:0:
285,210,37201,1,10,1:0:0:0:
186,180,37527,2,0,P|131:165|73:182,1,113.999996955872,0|10,1:0|0:2,0:0:0:0:
40,211,38017,2,0,P|-6:174|31:68,1,170.999995433807,2|10,1:2|0:0,0:0:0:0:
98,13,38832,1,2,1:2:0:0:
186,65,39158,1,10,0:0:0:0:
274,11,39484,6,0,B|327:5|327:5|391:24,1,113.999996955872,2|10,1:2|0:0,0:0:0:0:
429,48,39973,2,0,P|450:96|434:159,1,113.999996955872,2|2,0:0|1:2,0:0:0:0:
418,202,40462,1,10,0:0:0:0:
320,171,40788,5,2,0:0:0:0:
240,236,41114,1,8,0:0:0:0:
149,185,41440,1,0,1:0:0:0:
61,238,41767,2,0,L|53:304,1,56.9999984779358,8|8,1:2|0:3,0:0:0:0:
86,334,42093,6,0,P|129:351|195:331,1,113.999996955872,2|10,1:2|0:0,0:0:0:0:
250,248,42745,2,0,L|307:253,1,56.9999984779358,2|2,1:2|1:2,0:0:0:0:
353,274,43071,1,10,0:0:0:0:
353,274,43234,2,0,B|378:236|378:236|364:156,1,113.999996955872,2|2,1:2|1:2,0:0:0:0:
351,119,43723,2,0,B|290:102|298:149|234:127,1,113.999996955872,10|0,0:0|1:0,0:0:0:0:
149,82,44375,1,10,0:0:0:0:
58,129,44701,6,0,P|33:164|50:234,1,113.999996955872,2|8,1:2|0:0,0:0:0:0:
94,248,45190,1,2,0:0:0:0:
94,248,45353,2,0,L|170:257,1,56.9999984779358,2|0,1:2|1:0,0:0:0:0:
194,228,45680,1,10,0:0:0:0:
194,228,45843,2,0,P|248:216|310:246,1,113.999996955872,2|2,1:2|1:2,0:0:0:0:
339,270,46332,2,0,P|389:289|449:258,1,113.999996955872,10|0,0:0|1:0,0:0:0:0:
492,176,46984,1,10,0:0:0:0:
492,176,47147,6,0,L|475:54,1,113.999996955872,6|0,1:2|0:0,0:0:0:0:
439,27,47636,1,10,0:0:0:0:
354,84,47962,1,2,0:0:0:0:
256,52,48288,1,8,0:0:0:0:
167,104,48614,1,0,0:0:0:0:
66,84,48940,6,0,L|32:213,2,113.999996955872,10|2|8,0:0|1:2|0:0,0:0:0:0:
140,13,49919,1,10,1:2:0:0:
140,13,50082,1,10,1:2:0:0:
177,108,50408,2,0,L|183:184,1,56.9999984779358,10|10,1:2|1:2,0:0:0:0:
122,249,50897,1,10,1:2:0:0:
122,249,51060,1,10,1:2:0:0:
190,328,51386,2,0,L|262:337,1,56.9999984779358,10|10,1:2|1:2,0:0:0:0:
337,288,51875,2,0,P|356:239|328:166,1,113.999996955872,0|8,1:0|0:0,0:0:0:0:
288,93,52528,6,0,B|335:77|335:77|416:99,1,125.999996154785,6|10,1:2|1:2,0:0:0:0:
492,173,53180,2,0,L|484:246,1,62.9999980773926,2|2,1:2|1:2,0:0:0:0:
462,287,53506,1,10,1:2:0:0:
462,287,53669,2,0,B|391:262|397:317|328:294,1,125.999996154785,2|0,1:2|1:0,0:0:0:0:
251,227,54321,2,0,P|196:218|126:251,1,125.999996154785,2|2,0:0|1:2,0:0:0:0:
88,280,54810,1,10,1:2:0:0:
88,280,54973,2,0,L|70:152,1,125.999996154785,2|0,1:2|0:0,0:0:0:0:
61,42,55625,6,0,B|119:32|109:86|186:76,1,125.999996154785,2|8,0:0|0:3,0:0:0:0:
230,55,56114,1,4,0:3:0:0:
230,55,56277,1,6,1:2:0:0:
315,129,56603,1,6,1:2:0:0:
406,60,56930,1,6,1:2:0:0:
494,131,57256,1,6,1:2:0:0:
484,243,57582,6,0,P|419:263|354:239,1,125.999996154785,6|0,1:2|0:0,0:0:0:0:
314,220,58071,1,8,1:2:0:0:
219,282,58397,2,0,L|147:268,1,62.9999980773926,2|2,0:0|1:2,0:0:0:0:
112,235,58723,1,10,1:2:0:0:
112,235,58886,2,0,P|96:179|139:121,1,125.999996154785,2|2,1:2|1:2,0:0:0:0:
187,109,59375,1,10,1:2:0:0:
187,109,59538,2,0,L|52:91,1,125.999996154785,2|2,0:2|1:2,0:0:0:0:
3,189,60190,1,2,1:2:0:0:
47,293,60517,5,2,0:0:0:0:
47,293,60680,2,0,B|116:284,1,62.9999980773926,10|2,1:2|1:0,0:0:0:0:
165,278,61006,2,0,L|175:345,2,62.9999980773926,2|2|10,1:0|1:0|0:0,0:0:0:0:
157,221,61495,2,0,P|190:197|279:222,1,125.999996154785,2|2,0:1|0:1,0:0:0:0:
303,256,61984,1,10,0:1:0:0:
410,220,62310,1,10,1:0:0:0:
455,116,62636,1,10,1:0:0:0:
342,104,62962,6,0,P|275:124|214:75,1,125.999996154785,6|10,1:2|1:2,0:0:0:0:
150,10,63614,2,0,L|216:1,1,62.9999980773926,2|2,1:2|1:2,0:0:0:0:
273,4,63940,1,10,1:2:0:0:
273,4,64103,2,0,B|328:19|328:19|411:-1,1,125.999996154785,2|0,1:2|0:0,0:0:0:0:
488,96,64756,1,2,0:0:0:0:
488,96,64919,2,0,P|482:167|482:168,1,62.9999980773926,2|2,1:2|1:2,0:0:0:0:
462,214,65245,1,10,1:2:0:0:
462,214,65408,6,0,P|409:193|321:221,1,125.999996154785,2|0,0:0|0:0,0:0:0:0:
250,276,66060,2,0,B|184:257|182:310|114:278,1,125.999996154785,0|8,0:0|0:3,0:0:0:0:
77,271,66549,1,4,0:3:0:0:
77,271,66712,1,6,1:2:0:0:
138,175,67038,1,6,1:2:0:0:
64,88,67364,1,6,1:2:0:0:
148,12,67690,1,6,1:2:0:0:
220,99,68017,6,0,P|276:120|340:94,1,125.999996154785,6|0,1:2|0:0,0:0:0:0:
434,43,68669,1,2,0:0:0:0:
434,43,68832,2,0,L|441:122,1,62.9999980773926,2|2,0:0|1:2,0:0:0:0:
411,155,69158,1,10,1:2:0:0:
411,155,69321,2,0,B|398:197|398:197|424:285,1,125.999996154785,2|2,1:2|1:2,0:0:0:0:
458,318,69810,1,10,1:2:0:0:
458,318,69973,2,0,B|380:316|403:367|316:352,1,125.999996154785,2|2,0:0|1:2,0:0:0:0:
254,280,70625,6,0,P|204:260|124:295,1,125.999996154785,2|2,1:2|0:0,0:0:0:0:
108,329,71114,1,8,1:2:0:0:
20,256,71440,1,8,1:2:0:0:
62,150,71767,1,8,0:3:0:0:
169,121,72093,6,0,B|209:117|209:117|239:130|239:130|288:125,1,107.999996704102,6|8,1:2|0:0,0:0:0:0:
321,117,72582,1,2,0:0:0:0:
321,117,72745,2,0,B|306:161|306:161|322:234,1,107.999996704102,2|10,1:2|0:0,0:0:0:0:
327,268,73234,2,0,B|367:264|367:264|397:277|397:277|446:272,1,107.999996704102,2|0,1:2|1:0,0:0:0:0:
480,271,73723,1,8,0:0:0:0:
461,175,74049,2,0,B|452:131|452:131|458:111|458:111|449:63,1,107.999996704102,2|10,1:2|0:0,0:0:0:0:
363,24,74701,6,0,B|319:33|319:33|299:27|299:27|251:36,1,107.999996704102,2|10,1:2|0:0,0:0:0:0:
212,51,75190,2,0,L|224:169,1,107.999996704102,2|0,0:0|1:0,0:0:0:0:
229,206,75680,1,8,0:0:0:0:
229,206,75843,2,0,P|266:195|325:238,1,107.999996704102,2|2,1:2|1:2,0:0:0:0:
333,276,76332,1,8,0:0:0:0:
275,354,76658,2,0,P|221:367|155:351,1,107.999996704102,2|10,1:2|1:2,0:0:0:0:
87,307,77310,6,0,B|90:258|90:258|83:242|83:242|85:190,1,107.999996704102,2|8,1:2|0:0,0:0:0:0:
87,152,77799,1,2,0:0:0:0:
87,152,77962,2,0,P|58:166|30:169,2,53.9999983520508,2|0|10,1:2|0:0|0:0,0:0:0:0:
121,118,78451,1,2,1:2:0:0:
206,175,78777,1,2,1:2:0:0:
206,175,78940,2,0,L|268:177,1,53.9999983520508,8|8,0:0|0:0,0:0:0:0:
308,180,79267,2,0,P|294:138|317:75,1,107.999996704102,2|10,1:2|0:0,0:0:0:0:
393,134,79919,6,0,P|407:176|384:239,1,107.999996704102,2|10,1:2|0:0,0:0:0:0:
369,279,80408,2,0,B|330:278|330:278|305:295|305:295|243:298,1,107.999996704102,2|2,0:0|1:2,0:0:0:0:
217,300,80897,1,10,0:0:0:0:
132,348,81223,2,0,P|120:291|149:230,1,107.999996704102,2|8,0:0|0:0,0:0:0:0:
211,184,81875,2,0,L|268:183,1,53.9999983520508,8|0,0:0|1:0,0:0:0:0:
308,205,82201,2,0,L|365:204,1,53.9999983520508,8|8,0:0|1:2,0:0:0:0:
413,207,82527,6,0,B|411:158|411:158|420:138|420:138|418:87,1,113.999996955872,2|10,1:2|0:0,0:0:0:0:
396,48,83017,2,0,P|367:71|281:45,1,113.999996955872,2|2,0:0|1:2,0:0:0:0:
255,28,83506,1,10,0:0:0:0:
255,28,83669,2,0,B|201:10|165:44|165:44|130:76|75:62,1,170.999995433807,2|10,1:2|0:0,0:0:0:0:
28,142,84484,2,0,P|70:152|108:218,1,113.999996955872,8|10,0:0|0:0,0:0:0:0:
100,310,85136,5,2,1:2:0:0:
187,363,85462,1,10,0:0:0:0:
272,307,85788,2,0,L|267:239,2,56.9999984779358,2|0|10,1:2|1:0|0:0,0:0:0:0:
303,347,86277,2,0,B|341:342|341:342|368:353|368:353|430:349,1,113.999996955872,2|0,1:2|1:0,0:0:0:0:
465,344,86767,1,10,0:0:0:0:
413,255,87093,2,0,L|469:247,2,56.9999984779358,2|2|8,1:2|1:2|0:0,0:0:0:0:
380,215,87582,6,0,B|372:170|372:170|379:144|379:144|364:88,1,113.999996955872,6|10,1:2|0:0,0:0:0:0:
267,121,88234,2,0,B|275:166|275:166|268:192|268:192|283:248,1,113.999996955872,6|2,1:2|0:0,0:0:0:0:
254,277,88723,2,0,P|210:262|143:284,1,113.999996955872,6|8,1:2|0:0,0:0:0:0:
129,328,89212,2,0,P|85:343|18:321,1,113.999996955872,14|0,0:2|1:0,0:0:0:0:
5,275,89701,1,2,1:2:0:0:
67,193,90027,1,10,0:0:0:0:
36,95,90353,5,10,1:2:0:0:
36,95,90517,1,10,1:2:0:0:
135,70,90843,2,0,L|204:58,1,56.9999984779358,10|10,1:2|1:2,0:0:0:0:
295,40,91332,1,10,1:2:0:0:
295,40,91496,1,10,1:2:0:0:
270,139,91822,2,0,L|258:208,1,56.9999984779358,10|10,1:2|1:2,0:0:0:0:
248,296,92310,2,0,L|327:312,1,56.9999984779358,0|0,1:0|1:0,0:0:0:0:
353,320,92636,1,8,0:2:0:0:
382,211,92963,6,0,B|329:198|329:198|298:205|298:205|235:188,1,125.999996154785,6|10,1:2|1:2,0:0:0:0:
146,203,93614,2,0,P|151:148|168:132,1,62.9999980773926,2|2,1:2|1:2,0:0:0:0:
198,108,93940,1,10,1:2:0:0:
198,108,94103,2,0,L|53:94,1,125.999996154785,2|0,1:2|1:0,0:0:0:0:
148,11,94756,2,0,L|299:22,1,125.999996154785,2|2,0:0|1:2,0:0:0:0:
330,20,95245,1,10,1:2:0:0:
330,20,95408,6,0,B|305:63|305:63|321:156,1,125.999996154785,2|0,1:2|0:0,0:0:0:0:
340,249,96060,1,0,0:0:0:0:
340,249,96223,2,0,L|412:237,2,62.9999980773926,10|8|4,1:2|0:3|0:3,0:0:0:0:
287,270,96712,1,6,1:2:0:0:
195,202,97038,1,6,1:2:0:0:
82,216,97364,1,6,1:2:0:0:
27,315,97690,1,6,1:2:0:0:
121,378,98017,6,0,B|170:369|170:369|196:374|196:374|260:360,1,125.999996154785,6|0,1:2|0:0,0:0:0:0:
298,346,98506,1,8,1:2:0:0:
381,269,98832,2,0,L|300:253,1,62.9999980773926,2|2,0:0|1:2,0:0:0:0:
263,243,99158,1,10,1:2:0:0:
263,243,99321,2,0,P|292:213|278:123,1,125.999996154785,2|2,1:2|1:2,0:0:0:0:
242,98,99810,1,10,1:2:0:0:
242,98,99973,2,0,B|300:88|290:142|367:132,1,125.999996154785,2|2,0:2|1:2,0:0:0:0:
458,78,100625,1,2,1:2:0:0:
447,192,100951,1,2,0:0:0:0:
447,192,101114,6,0,B|440:264,1,62.9999980773926,10|2,1:2|1:0,0:0:0:0:
436,311,101440,2,0,L|511:320,2,62.9999980773926,2|2|10,0:1|0:1|0:0,0:0:0:0:
393,349,101930,2,0,P|339:347|316:276,1,125.999996154785,2|2,0:1|1:0,0:0:0:0:
315,230,102419,1,10,1:0:0:0:
375,134,102745,1,10,1:0:0:0:
319,39,103071,1,10,1:0:0:0:
211,73,103397,6,0,B|159:68|159:68|132:79|132:79|74:74,1,125.999996154785,6|10,1:2|1:2,0:0:0:0:
15,162,104049,2,0,L|96:169,1,62.9999980773926,2|2,1:2|1:2,0:0:0:0:
134,174,104375,1,10,1:2:0:0:
134,174,104538,2,0,B|108:213|108:213|101:311,1,125.999996154785,2|0,1:2|1:0,0:0:0:0:
187,366,105190,1,2,0:0:0:0:
187,366,105353,2,0,L|191:292,1,62.9999980773926,2|2,1:2|1:2,0:0:0:0:
221,254,105680,1,10,1:2:0:0:
221,254,105843,6,0,B|270:259|270:259|296:277|296:277|347:284,1,125.999996154785,2|0,0:0|0:0,0:0:0:0:
453,293,106495,2,0,L|468:149,1,125.999996154785,2|8,1:2|0:3,0:0:0:0:
474,111,106984,1,4,0:3:0:0:
474,111,107147,1,6,1:2:0:0:
371,159,107473,1,6,1:2:0:0:
258,142,107799,1,6,1:2:0:0:
166,75,108125,1,6,1:2:0:0:
254,4,108451,6,0,B|312:-6|302:48|379:38,1,125.999996154785,6|0,1:2|0:0,0:0:0:0:
422,15,108940,1,8,1:2:0:0:
483,110,109267,2,0,L|473:191,1,62.9999980773926,2|2,0:0|1:2,0:0:0:0:
466,228,109593,1,10,1:2:0:0:
466,228,109756,2,0,B|415:217|415:217|387:224|387:224|325:207,1,125.999996154785,2|2,1:2|1:2,0:0:0:0:
291,190,110245,1,10,1:2:0:0:
291,190,110408,2,0,P|306:235|287:323,1,125.999996154785,2|2,0:0|1:2,0:0:0:0:
200,246,111060,6,0,P|185:201|204:113,1,125.999996154785,2|2,1:2|0:0,0:0:0:0:
219,72,111549,1,8,1:2:0:0:
116,23,111875,1,8,1:2:0:0:
26,92,112201,1,8,1:2:0:0:
20,205,112528,6,0,L|29:322,1,113.999996955872,6|8,1:2|0:0,0:0:0:0:
125,354,113180,1,0,1:0:0:0:
125,354,113343,2,0,L|119:288,1,56.9999984779358,2|10,1:2|0:0,0:0:0:0:
113,246,113669,2,0,B|176:235|157:285|237:271,1,113.999996955872,2|2,1:2|1:2,0:0:0:0:
259,240,114158,1,8,0:0:0:0:
217,146,114484,2,0,B|206:102|206:102|223:17,1,113.999996955872,2|10,1:2|1:2,0:0:0:0:
318,62,115136,6,0,B|363:66|363:66|391:56|391:56|446:63,1,113.999996955872,2|10,1:2|1:2,0:0:0:0:
490,143,115788,2,0,L|481:218,1,56.9999984779358,2|2,1:2|1:2,0:0:0:0:
472,249,116114,1,8,0:0:0:0:
472,249,116277,2,0,P|447:224|354:218,1,113.999996955872,2|0,1:2|1:0,0:0:0:0:
325,233,116767,1,10,0:0:0:0:
325,233,116930,2,0,L|323:358,1,113.999996955872,2|0,1:2|1:0,0:0:0:0:
286,383,117419,1,8,0:0:0:0:
192,341,117745,6,0,L|193:227,1,113.999996955872,2|10,1:2|0:0,0:0:0:0:
91,216,118397,2,0,L|24:211,1,56.9999984779358,2|2,1:2|0:0,0:0:0:0:
13,164,118723,1,10,0:0:0:0:
13,164,118886,2,0,L|25:46,1,113.999996955872,2|0,1:2|0:0,0:0:0:0:
35,0,119375,1,8,0:0:0:0:
35,0,119538,2,0,P|65:34|185:29,1,170.999995433807,8|0,0:0|1:0,0:0:0:0:
265,80,120353,6,0,P|235:109|239:181,1,107.999996704102,4|2,1:2|0:3,0:0:0:0:
258,214,120843,1,4,0:3:0:0:
258,214,121006,2,0,L|377:209,1,107.999996704102,0|2,0:0|1:2,0:0:0:0:
364,306,121658,2,0,L|298:308,1,53.9999983520508,4|8,0:3|0:3,0:0:0:0:
261,310,121984,1,4,0:3:0:0:
173,351,122310,2,0,L|177:234,1,107.999996704102,8|10,1:0|0:0,0:0:0:0:
78,251,122962,5,10,1:2:0:0:
78,251,123125,1,10,1:2:0:0:
82,148,123451,2,0,L|154:156,1,56.9999984779358,10|10,1:2|1:2,0:0:0:0:
244,170,123940,1,10,1:2:0:0:
244,170,124103,1,10,1:2:0:0:
245,67,124429,2,0,L|317:75,1,56.9999984779358,10|10,1:2|1:2,0:0:0:0:
404,64,124919,2,0,L|400:138,1,56.9999984779358,0|2,1:0|1:3,0:0:0:0:
437,157,125245,2,0,L|433:231,1,56.9999984779358,2|0,1:3|1:0,0:0:0:0:
438,273,125571,6,0,B|380:263|390:317|313:307,1,125.999996154785,6|10,1:2|1:2,0:0:0:0:
208,298,126223,2,0,L|215:220,1,62.9999980773926,2|2,1:2|1:2,0:0:0:0:
182,188,126549,1,10,1:2:0:0:
182,188,126712,2,0,L|51:173,1,125.999996154785,2|0,1:2|1:0,0:0:0:0:
124,82,127364,2,0,L|249:96,1,125.999996154785,2|2,0:0|1:2,0:0:0:0:
304,107,127853,1,10,1:2:0:0:
304,107,128017,6,0,B|296:157|296:157|306:181|306:181|299:247,1,125.999996154785,2|0,1:2|0:0,0:0:0:0:
275,340,128669,2,0,P|319:314|413:336,1,125.999996154785,0|8,0:0|0:3,0:0:0:0:
431,361,129158,1,4,0:3:0:0:
431,361,129321,1,6,1:2:0:0:
488,263,129647,1,6,1:2:0:0:
488,149,129973,1,6,1:2:0:0:
425,54,130299,1,6,1:2:0:0:
330,116,130625,6,0,B|289:109|289:109|250:117|250:117|194:108,1,125.999996154785,6|0,1:2|0:0,0:0:0:0:
150,100,131114,1,8,1:2:0:0:
71,181,131440,2,0,L|146:195,1,62.9999980773926,2|2,0:0|1:2,0:0:0:0:
188,206,131767,1,10,1:2:0:0:
188,206,131930,2,0,B|158:240|158:240|169:333,1,125.999996154785,2|2,1:2|1:2,0:0:0:0:
178,375,132419,1,10,1:2:0:0:
178,375,132582,2,0,B|219:368|219:368|258:376|258:376|314:367,1,125.999996154785,2|2,0:2|1:2,0:0:0:0:
413,346,133234,1,2,1:2:0:0:
384,236,133560,1,2,0:0:0:0:
384,236,133723,6,0,B|368:155|368:155,1,62.9999980773926,10|2,1:2|1:0,0:0:0:0:
361,118,134049,2,0,L|434:106,2,62.9999980773926,2|2|10,1:0|1:0|0:0,0:0:0:0:
304,125,134538,2,0,B|260:133|260:133|235:153|235:153|172:157,1,125.999996154785,2|2,1:0|1:0,0:0:0:0:
131,140,135027,1,10,1:0:0:0:
187,238,135353,1,10,1:0:0:0:
101,302,135680,1,10,1:0:0:0:
21,228,136006,6,0,B|7:184|7:184|27:84,1,125.999996154785,6|10,1:2|1:2,0:0:0:0:
104,27,136658,2,0,L|172:36,1,62.9999980773926,2|2,1:2|1:2,0:0:0:0:
222,62,136984,1,10,1:2:0:0:
222,62,137147,2,0,B|270:47|270:47|361:73,1,125.999996154785,2|0,1:2|1:0,0:0:0:0:
433,144,137799,1,2,0:0:0:0:
433,144,137962,2,0,L|422:220,1,62.9999980773926,2|2,1:2|1:2,0:0:0:0:
423,266,138288,1,10,1:2:0:0:
423,266,138451,6,0,B|351:252|364:311|301:301,1,125.999996154785,2|0,0:0|0:0,0:0:0:0:
214,237,139103,2,0,P|179:222|77:246,1,125.999996154785,2|8,0:2|0:3,0:0:0:0:
45,265,139593,1,4,0:3:0:0:
45,265,139756,1,6,1:2:0:0:
0,161,140082,1,6,1:2:0:0:
39,54,140408,1,6,1:2:0:0:
146,17,140734,1,6,1:2:0:0:
203,114,141060,6,0,P|245:138|333:107,1,125.999996154785,6|0,1:2|0:0,0:0:0:0:
430,95,141712,1,2,0:0:0:0:
430,95,141875,2,0,L|442:178,1,62.9999980773926,2|2,0:0|1:2,0:0:0:0:
429,213,142201,1,10,1:2:0:0:
429,213,142364,2,0,B|353:211|371:262|310:258,1,125.999996154785,2|2,1:2|1:2,0:0:0:0:
265,232,142853,1,10,1:2:0:0:
265,232,143017,2,0,P|202:204|136:213,1,125.999996154785,2|2,0:0|1:2,0:0:0:0:
39,247,143669,6,0,B|30:289|30:289|45:377,1,125.999996154785,2|2,1:2|0:0,0:0:0:0:
99,383,144158,1,8,1:2:0:0:
203,338,144484,2,0,L|280:349,2,62.9999980773926,8|4|4,1:0|0:3|0:3,0:0:0:0:
174,298,144973,1,8,0:0:0:0:
486,166,145951,1,0,1:0:0:0:
486,166,146114,1,8,1:2:0:0:
396,115,146440,6,0,P|346:92|277:108,2,113.999996955872,6|10|2,1:2|1:2|1:2,0:0:0:0:
397,166,147256,2,0,L|385:228,1,56.9999984779358,2|10,1:2|1:2,0:0:0:0:
354,261,147582,2,0,B|290:249|288:294|228:276,1,113.999996955872,2|0,1:2|1:0,0:0:0:0:
195,261,148071,1,8,0:0:0:0:
121,189,148397,1,2,1:3:0:0:
134,87,148723,1,10,1:2:0:0:
218,29,149049,6,0,P|264:15|344:39,1,113.999996955872,2|10,1:2|1:2,0:0:0:0:
411,86,149701,1,10,1:2:0:0:
411,86,149864,2,0,L|417:155,1,56.9999984779358,8|4,0:3|0:3,0:0:0:0:
403,192,150190,1,6,1:2:0:0:
310,147,150517,1,6,1:2:0:0:
229,210,150843,1,6,1:2:0:0:
136,165,151170,1,6,1:2:0:0:
49,218,151495,6,0,P|24:257|46:328,1,113.999996955872,6|0,1:2|0:0,0:0:0:0:
83,343,151984,1,8,1:2:0:0:
175,298,152310,2,0,L|247:311,1,56.9999984779358,2|2,0:0|1:2,0:0:0:0:
278,325,152636,1,10,1:2:0:0:
278,325,152799,2,0,B|284:290|284:290|305:266|305:266|317:200,1,113.999996955872,2|2,1:2|1:2,0:0:0:0:
214,193,153451,2,0,B|88:183,1,113.999996955872,2|2,0:2|1:2,0:0:0:0:
53,184,153940,1,8,1:2:0:0:
53,184,154103,2,0,B|22:145|22:145|29:59,1,113.999996955872,2|2,1:2|0:0,0:0:0:0:
125,44,154756,5,2,0:0:0:0:
125,44,154919,2,0,L|119:122,2,56.9999984779358,2|2|10,1:0|1:0|0:0,0:0:0:0:
165,12,155408,1,2,0:1:0:0:
270,30,155734,1,2,1:0:0:0:
270,30,155897,2,0,L|337:40,1,56.9999984779358,10|0,1:0|1:0,0:0:0:0:
377,42,156223,1,10,1:0:0:0:
406,139,156549,1,10,1:0:0:0:
325,202,156875,6,0,P|282:213|212:181,2,113.999996955872,6|10|2,1:2|1:2|1:2,0:0:0:0:
362,236,157690,2,0,L|356:305,1,56.9999984779358,2|10,1:2|1:2,0:0:0:0:
320,329,158017,2,0,P|264:318|214:342,1,113.999996955872,2|2,1:2|1:2,0:0:0:0:
177,378,158506,1,8,0:0:0:0:
84,333,158832,2,0,L|76:265,1,56.9999984779358,2|2,1:2|1:2,0:0:0:0:
93,227,159158,1,10,1:2:0:0:
154,144,159484,6,0,B|206:132|203:175|276:167,1,113.999996955872,2|10,1:2|1:2,0:0:0:0:
361,131,160136,1,8,1:2:0:0:
361,131,160299,2,0,L|371:66,1,56.9999984779358,8|4,0:3|0:3,0:0:0:0:
345,29,160625,1,6,1:2:0:0:
257,81,160951,1,6,1:2:0:0:
173,21,161277,1,6,1:2:0:0:
83,70,161603,1,6,1:2:0:0:
62,170,161930,6,0,B|111:155|111:155|193:185,1,113.999996955872,6|0,1:2|0:0,0:0:0:0:
200,217,162419,1,8,1:2:0:0:
293,175,162745,2,0,L|355:182,1,56.9999984779358,2|2,0:0|1:2,0:0:0:0:
400,205,163071,1,10,1:2:0:0:
400,205,163234,2,0,P|421:146|409:92,1,113.999996955872,2|2,1:2|1:2,0:0:0:0:
326,39,163886,2,0,B|255:38|280:78|213:80,1,113.999996955872,2|2,0:0|1:2,0:0:0:0:
173,66,164375,1,10,1:2:0:0:
173,66,164538,2,0,P|126:61|67:102,1,113.999996955872,2|2,1:2|0:0,0:0:0:0:
42,193,165190,1,0,1:0:0:0:
42,193,165353,2,0,L|37:259,1,56.9999984779358,8|0,1:2|1:0,0:0:0:0:
71,288,165680,1,8,1:2:0:0:
172,304,166006,6,0,L|179:178,2,113.999996955872,4|10|10,1:2|1:2|1:2,0:0:0:0:
197,348,166821,2,0,L|280:354,1,56.9999984779358,0|8,1:0|1:2,0:0:0:0:
305,354,167147,2,0,L|312:218,1,113.999996955872,2|2,1:2|1:2,0:0:0:0:
309,137,167799,2,0,B|357:140|357:140|381:156|381:156|440:159,1,113.999996955872,2|0,1:2|1:0,0:0:0:0:
468,166,168288,1,8,1:2:0:0:
468,166,168451,6,0,P|444:127|459:56,1,113.999996955872,2|0,1:2|1:0,0:0:0:0:
464,11,168940,2,0,P|430:37|357:25,1,113.999996955872,10|8,1:2|1:2,0:0:0:0:
315,7,169430,2,0,P|277:2|254:8,1,56.9999984779358,2|10,1:2|1:2,0:0:0:0:
214,31,169756,1,6,1:2:0:0:
266,119,170082,1,6,1:2:0:0:
196,194,170408,1,6,1:2:0:0:
248,282,170734,1,6,1:2:0:0:
170,349,171060,6,0,L|52:342,1,113.999996955872,6|0,1:2|1:0,0:0:0:0:
5,338,171549,1,10,1:2:0:0:
26,237,171875,2,0,L|85:241,1,56.9999984779358,10|0,1:2|1:0,0:0:0:0:
133,249,172201,1,10,1:2:0:0:
133,249,172364,2,0,L|145:126,1,113.999996955872,2|0,1:2|1:2,0:0:0:0:
151,84,172853,1,8,1:2:0:0:
151,84,173017,2,0,P|177:113|263:104,1,113.999996955872,2|0,1:2|1:0,0:0:0:0:
291,87,173506,1,8,1:2:0:0:
291,87,173669,6,0,B|258:136|258:136|256:272,1,170.999995433807,2|10,1:2|1:2,0:0:0:0:
289,344,174484,2,0,L|363:344,1,56.9999984779358,8|0,1:2|1:0,0:0:0:0:
397,344,174810,1,10,1:2:0:0:
397,344,174973,2,0,B|399:294|399:294|388:275|388:275|390:217,1,113.999996955872,2|2,1:2|1:2,0:0:0:0:
391,181,175462,1,8,1:2:0:0:
291,204,175788,1,4,0:3:0:0:
191,177,176114,1,8,1:0:0:0:
131,93,176440,6,0,P|166:73|243:93,2,113.999996955872,6|10|10,1:2|1:2|1:2,0:0:0:0:
93,128,177256,2,0,L|96:195,1,56.9999984779358,0|10,1:0|1:2,0:0:0:0:
59,221,177582,2,0,L|68:353,1,113.999996955872,2|0,1:2|1:0,0:0:0:0:
165,362,178234,2,0,L|283:347,1,113.999996955872,2|2,1:2|1:2,0:0:0:0:
328,336,178723,1,8,1:2:0:0:
328,336,178886,6,0,P|310:299|318:224,1,113.999996955872,2|0,1:2|1:2,0:0:0:0:
352,192,179375,2,0,P|316:209|237:182,1,113.999996955872,10|10,1:2|1:2,0:0:0:0:
205,161,179864,2,0,L|209:93,1,56.9999984779358,2|10,1:2|1:2,0:0:0:0:
212,52,180190,1,2,1:2:0:0:
307,13,180517,1,2,1:2:0:0:
381,83,180843,1,2,1:2:0:0:
476,44,181170,1,2,1:2:0:0:
501,143,181495,6,0,L|492:270,1,113.999996955872,6|0,1:2|1:2,0:0:0:0:
486,307,181984,1,10,1:2:0:0:
384,294,182310,2,0,L|392:223,1,56.9999984779358,10|0,1:2|1:0,0:0:0:0:
395,186,182636,1,10,1:2:0:0:
395,186,182799,2,0,B|343:174|346:217|273:209,1,113.999996955872,2|0,1:2|1:2,0:0:0:0:
237,192,183288,1,8,1:2:0:0:
237,192,183451,2,0,L|246:64,1,113.999996955872,2|0,1:2|1:0,0:0:0:0:
249,27,183940,1,8,1:2:0:0:
249,27,184103,6,0,B|187:24|187:24|143:44|143:44|61:40,1,170.999995433807,2|10,1:2|1:2,0:0:0:0:
30,129,184919,2,0,L|34:195,1,56.9999984779358,4|0,0:3|1:0,0:0:0:0:
37,236,185245,1,8,1:0:0:0:
37,236,185408,1,6,1:2:0:0:
256,192,185571,12,0,188506,0:0:0:0:
